osu file format v9

[General]
AudioFilename: tu no eres para mi.mp3
AudioLeadIn: 0
PreviewTime: 105260
Countdown: 0
SampleSet: Soft
StackLeniency: 0.7
Mode: 0
LetterboxInBreaks: 1

[Editor]
Bookmarks: 20540,40340,50300,71180,86060,105260,121112,136472,151820,167192,182420
DistanceSpacing: 0.8
BeatDivisor: 4
GridSize: 16

[Metadata]
Title:Tu No Eres Para Mi
Artist:Fanny Lu
Creator:HOF
Version:Hard
Source:
Tags:pop spanish Revengexsoyah OzzyOzrock

[Difficulty]
HPDrainRate:7
CircleSize:4
OverallDifficulty:7
ApproachRate:7
SliderMultiplier:3
SliderTickRate:1

[Events]
//Background and Video events
0,0,"fanny.jpg"
Video,-4294,"VIDEO.avi"
//Break Periods
2,16622,19839
2,71137,85645
2,136617,150886
2,167356,181626
//Storyboard Layer 0 (Background)
//Storyboard Layer 1 (Fail)
//Storyboard Layer 2 (Pass)
//Storyboard Layer 3 (Foreground)
//Storyboard Sound Samples
//Background Colour Transformations
3,100,163,162,255

[TimingPoints]
2037,479.539641943734,4,2,0,90,1,0
21218,480.384307445957,4,2,0,90,1,0
40313,-100,4,2,0,90,0,1
50401,-100,4,2,0,90,0,0
71177,480.268950612343,4,2,0,90,1,0
86545,479.539641943734,4,2,0,90,1,0
105726,-100,4,2,0,90,0,1
120951,-100,4,2,0,90,0,0
136417,480.30739673391,4,2,0,90,1,0

[Colours]
Combo1 : 0,128,0
Combo2 : 255,0,0
Combo3 : 255,128,0

[HitObjects]
64,288,1557,1,2
160,208,1797,1,0
80,112,2036,2,0,B|208:112,2,75
208,112,2516,1,2
288,208,2756,1,0
384,112,2996,2,0,B|480:112,2,75
272,96,3475,1,2
176,32,3715,6,0,B|112:80|176:176,1,150
112,272,4194,2,0,B|272:272,1,150,0|2
368,320,4674,1,0
448,224,4914,2,0,B|448:144,2,75
352,144,5393,1,2
256,224,5633,1,0
192,128,5873,2,0,B|112:80|48:128,2,150,0|0|2
320,128,6592,6,0,B|380:82|460:130,2,150
240,224,7311,1,2
144,144,7551,1,0
64,224,7791,2,0,B|80:320|192:336,2,150,0|0|2
160,144,8510,2,0,B|240:80|304:144,1,150
464,304,9230,5,2
352,304,9469,2,0,B|176:304,1,150
80,304,9949,1,0
32,192,10189,2,0,B|48:112|160:160,1,150,2|0
240,80,10668,1,0
320,160,10908,1,0
416,96,11148,2,0,B|496:176|416:256,2,150,2|0|0
320,32,11867,5,0
208,80,12107,2,0,B|144:160|208:240,2,150,2|0|0
320,80,12826,2,0,B|320:256,1,150,0|2
416,304,13306,2,0,B|240:304,3,150,0|0|0|2
144,304,14265,2,0,B|64:304,2,75
128,192,14744,1,0
64,96,14984,1,2
176,80,15224,2,0,B|368:80,1,150
432,128,15703,5,0
480,240,15943,2,0,B|384:304|304:208,2,150,2|0|0
64,64,20739,5,0
256,192,21218,1,0
464,320,21698,2,0,B|304:320,2,150,8|0|0
464,80,22659,5,8
256,208,23139,1,0
64,64,23619,1,8
64,304,24100,2,0,B|224:304,2,150,0|0|8
256,160,25061,5,0
432,320,25541,1,8
192,320,26021,2,0,B|32:320|32:192|160:112,1,300,0|8
384,80,26982,2,0,B|448:160|368:256,2,150,0|0|8
192,208,27943,1,0
400,320,28423,1,8
432,80,28904,6,0,B|272:80,2,150,0|0|8
432,320,29864,2,0,B|272:320,2,150,0|0|8
240,192,30825,1,0
192,240,31065,1,0
144,192,31306,1,8
0,16,31786,2,0,B|0:320,1,300,0|8
240,320,32747,1,0
432,176,33227,1,8
224,64,33707,6,0,B|64:64,2,150,0|0|8
80,256,34668,1,0
288,144,35149,1,8
448,320,35629,2,0,B|240:320,2,150,0|0|8
400,80,36590,5,12
128,320,37310,1,4
128,320,37551,1,4
480,48,38511,5,12
288,336,39232,1,4
288,336,39472,1,4
64,96,40433,5,8
64,96,40553,1,0
64,96,40673,1,0
112,208,40913,2,0,B|192:272|256:208,1,150,8|0
320,112,41394,2,0,B|400:64|464:112,1,150,8|0
400,208,41874,1,8
464,320,42114,1,0
352,320,42354,6,0,B|192:320,3,150,8|0|8|0
80,320,43315,1,8
160,96,43796,1,8
240,192,44036,1,0
320,96,44276,2,0,B|416:48|480:128|480:256|384:272,2,300,8|8|8
144,256,45717,1,8
96,224,45837,1,0
48,256,45957,1,0
144,352,46197,6,0,B|304:352,1,150,8|0
416,352,46678,2,0,B|496:304|416:224,1,150,8|0
464,112,47158,1,8
352,64,47398,2,0,B|176:64,2,150,0|8|0
272,160,48119,1,4
160,96,48359,2,0,B|64:48|64:192,1,150,0|4
64,288,48840,1,0
176,320,49080,2,0,B|336:320,1,150,4|0
416,240,49560,5,4
416,240,49800,1,4
416,240,50041,1,4
336,144,50281,1,0
224,176,50521,2,0,B|48:176,1,150,8|0
80,176,51001,1,8
256,336,51482,2,0,B|432:336,2,150,8|0|8
160,272,52202,5,0
80,208,52442,2,0,B|144:128|240:224,1,150,8|0
211,198,52923,1,8
320,176,53163,1,0
320,288,53403,2,0,B|480:288,3,150,8|0|8|0
384,336,54364,1,8
320,224,54604,1,0
240,304,54844,1,8
144,224,55085,1,0
224,128,55325,1,8
272,224,55805,6,0,B|352:224,2,75,8|0|0
192,128,56286,2,0,B|32:128,1,150,8|0
96,240,56766,1,8
192,320,57006,1,0
272,224,57246,2,0,B|448:224,1,150,8|0
480,112,57727,1,8
384,48,57967,2,0,B|208:48,1,150,0|8
144,128,58447,5,0
96,112,58567,1,0
48,128,58687,1,8
64,224,58928,2,0,B|128:288|224:208,1,150,0|8
288,160,59408,2,0,B|352:96|448:176,2,150,0|8|0
192,160,60129,2,0,B|119:97|55:161,2,150,8|0|8
352,320,61089,2,0,B|192:320,1,150,8|0
144,224,61570,2,0,B|320:224,1,150,8|0
352,112,62050,6,0,B|160:112,1,150,8|0
256,224,62531,2,0,B|432:224,1,150,8|0
336,320,63011,2,0,B|176:320,1,150,8|0
96,240,63491,1,4
256,64,63972,1,4
416,240,64452,1,4
192,320,64932,2,4,B|32:320,2,150
304,112,65893,5,8
416,176,66133,1,8
320,256,66374,1,8
144,112,66854,1,4
48,192,67094,1,4
144,256,67334,1,4
304,48,67815,2,0,B|464:48,2,150,8|8|8
432,256,68776,5,8
208,336,69256,1,8
32,160,69736,1,8
272,160,70217,2,0,B|432:160,3,150,8|0|8|4
64,48,86545,5,2
176,256,87024,1,2
320,64,87504,2,0,B|416:48|464:128|448:208|352:256,1,300,2|2
128,192,88463,1,2
128,192,88702,1,0
128,192,88942,1,2
336,304,89422,2,0,B|432:304|480:208|416:112|320:112,1,300,2|2
112,176,90381,6,0,B|272:176,2,150,2|0|2
288,336,91340,2,0,B|464:336,2,150,2|0|2
96,192,92299,1,2
288,48,92779,1,2
480,192,93258,2,0,B|496:304|400:304,2,150,2|0|2
272,320,94217,5,2
64,208,94697,2,0,B|112:112|208:224,2,150,2|0|2
256,64,95656,1,2
256,64,96135,1,2
432,224,96615,2,0,B|272:224,2,150,2|0|2
224,336,97574,2,0,B|96:352|48:288|64:192|144:144,1,300,2|2
352,64,98533,1,2
432,160,98773,1,2
368,272,99013,1,2
128,272,99492,5,2
48,176,99732,1,2
112,64,99972,1,2
256,256,100451,2,0,B|256:64,2,150
256,256,101410,1,0
64,112,101890,6,0,B|128:64|240:64|272:144|272:224|192:320|80:320,1,450,12|4
99,318,102849,1,4
464,288,103808,6,0,B|400:336|288:336|256:256|256:176|336:80|448:80,1,450,12|4
428,81,104767,1,4
48,192,105726,5,8
80,144,105846,1,0
112,96,105966,1,0
224,96,106206,2,0,B|288:32|384:112,1,150,8|0
480,96,106685,2,0,B|480:256,1,150,8|0
384,320,107165,2,0,B|224:320,1,150,8|0
128,256,107644,2,0,B|64:192|144:112,3,150,8|0|8|0
128,128,108603,1,8
256,320,108843,5,2
256,320,108963,1,2
256,320,109083,1,10
336,224,109323,1,0
416,304,109562,2,0,B|474:251|420:164,1,150,8|0
384,48,110042,2,0,B|224:48,1,150,8|0
176,144,110521,1,2
96,240,111001,5,10
96,240,111121,1,0
96,240,111241,1,0
176,336,111481,2,0,B|352:336,1,150,8|0
320,224,111960,2,0,B|160:224,2,150,8|0|8
176,128,112679,2,0,B|352:128,2,150,0|8|0
80,48,113399,1,4
80,160,113638,2,0,B|16:272|128:320,1,150,0|4
208,320,114118,5,0
208,320,114238,1,0
208,320,114358,1,4
288,240,114598,1,0
368,320,114837,2,0,B|480:304|448:208,2,150,4|4|4
128,320,115796,2,0,B|32:320|32:208,2,150,2|2|2
256,112,116755,1,4
256,112,116995,1,4
256,112,117235,5,4
416,288,117715,1,8
176,352,118194,1,8
64,144,118674,1,8
288,80,119153,1,8
192,304,119633,2,0,B|128:352|48:304,2,150,8|0|8
304,304,120352,2,0,B|368:368|464:288,2,150,0|8|4
240,192,121071,5,4
336,112,121311,1,0
224,96,121551,2,0,B|160:48|80:96,1,150,4|0
160,192,122030,1,4
240,272,122270,2,0,B|320:272,2,75,0|0|4
144,352,122750,1,4
64,272,122990,2,0,B|64:176,2,75,4|0|0
144,352,123469,1,0
224,272,123709,6,0,B|304:208|400:304,1,150
448,176,124188,2,0,B|448:96,2,75,8|8|8
352,96,124668,1,0
240,48,124908,2,0,B|240:128,2,75,8|8|8
144,112,125387,1,4
80,224,125627,1,4
176,304,125867,1,4
288,192,126346,5,2
336,160,126466,1,2
384,192,126586,1,2
400,80,126826,2,0,B|324:19|264:73,1,150
144,80,127305,1,2
144,80,127425,1,2
144,80,127545,1,2
64,160,127785,6,0,B|64:336,1,150
176,320,128264,2,0,B|176:160,1,150
256,80,128744,1,4
368,48,128984,2,0,B|464:96|432:192,1,150,0|4
384,272,129463,1,0
384,272,129583,1,0
384,272,129703,1,4
272,224,129943,5,0
160,288,130183,2,0,B|48:288,2,75,4|0|0
272,224,130662,1,4
336,128,130902,2,0,B|512:128,1,150,4|4
416,224,131381,2,0,B|432:336|304:304,1,150,8|0
208,304,131861,1,8
160,272,131981,1,0
112,240,132101,1,0
128,128,132341,5,8
144,240,132580,1,0
256,272,132820,1,8
368,240,133060,1,0
400,128,133300,1,8
256,64,133539,1,0
96,128,133779,6,0,B|256:48|400:128,2,300,8|8|8
112,240,134978,1,0
208,320,135218,1,8
320,272,135458,1,0
400,176,135697,2,0,B|480:128|400:32,2,150,8|2|8
304,96,136417,1,4
128,128,151786,5,2
304,48,152026,1,2
368,48,152147,1,2
432,48,152267,1,2
368,160,152507,2,0,B|272:160,1,75,2|2
240,160,152747,1,2
224,272,152987,5,2
160,272,153107,1,2
96,272,153227,1,2
160,160,153467,2,0,B|208:96|240:208,2,75,2|2|2
32,208,153948,1,2
128,128,154188,1,2
176,240,154428,6,0,B|176:80|400:160|352:16,1,300,2|2
448,128,155148,1,0
480,240,155389,2,0,B|464:320|416:224|352:288,3,150,2|0|2|0
240,336,156349,1,2
128,272,156589,2,0,B|64:224|208:224|112:144,1,150,0|2
118,149,157070,1,0
224,96,157310,2,0,B|304:48|368:96,1,150,2|0
364,93,157790,1,2
448,176,158030,6,0,B|368:224|512:272|432:320,2,150,0|2|0
352,240,158751,1,2
256,160,158991,1,0
160,240,159231,1,2
224,320,159471,6,0,B|304:320,2,75,2|2|2
352,240,159952,5,0
384,192,160072,1,0
416,144,160192,1,0
256,240,160432,1,2
256,176,160552,1,2
256,128,160672,1,2
160,240,160912,1,0
128,192,161032,1,0
96,144,161152,1,0
176,48,161392,6,0,B|240:-32|288:288|416:-48|480:96,1,300,2|2
400,176,162113,1,2
304,256,162353,1,2
128,96,162833,1,2
64,208,163074,2,0,B|128:288|224:192,1,150,0|2
320,192,163554,1,0
384,288,163794,1,2
448,192,164034,1,0
368,96,164274,2,0,B|304:32|224:96,2,150,2|0|2
304,320,165235,5,2
208,208,165475,1,0
112,320,165715,2,0,B|48:224|128:160,1,150,2|0
192,80,166196,1,2
272,160,166436,1,0
352,80,166676,1,2
432,176,166916,1,0
432,176,167156,1,4
192,96,182526,6,0,B|256:0|352:128,1,150,8|0
432,176,183006,1,8
368,320,183246,1,0
224,336,183487,2,0,B|144:336|96:256,1,150,8|0
100,263,183967,1,8
208,192,184207,1,0
320,144,184447,2,0,B|400:80|480:160,3,150,8|0|8|0
480,176,185408,1,8
464,256,185648,5,8
496,288,185768,1,8
464,320,185888,2,0,B|288:320,1,150,8|0
80,320,186368,2,0,B|240:320,1,150,8|0
176,192,186849,2,0,B|336:192,1,150,8|0
326,192,187329,1,8
336,48,187569,1,2
384,96,187689,1,2
432,48,187809,1,2
464,176,188050,5,8
432,288,188290,1,0
320,336,188530,1,8
208,336,188770,1,0
112,256,189010,1,8
80,144,189250,1,0
176,64,189490,1,8
256,192,189731,1,0
256,192,189971,1,8
336,96,190211,5,4
448,304,190691,2,0,B|256:304|192:160,1,300,4|4
336,96,191652,1,4
432,32,191892,1,4
448,144,192132,1,4
352,208,192612,2,0,B|256:336,2,150,2|2|2
176,80,193573,5,4
64,32,193813,1,4
48,144,194053,1,4
144,176,194534,2,0,B|256:288,2,150,0|0|2
240,96,195254,1,0
304,192,195494,2,0,B|384:128|464:208,1,150
480,240,195975,1,8
368,320,196215,5,0
240,320,196455,2,0,B|80:320,1,150,8|0
48,320,196935,1,8
144,176,197175,1,0
192,176,197416,2,0,B|352:176,1,150,8|4
256,192,197896,12,4,201138
