osu file format v12

[General]
AudioFilename: Fang - On My Way.mp3
AudioLeadIn: 0
PreviewTime: 136583
Countdown: 1
SampleSet: None
StackLeniency: 0.7
Mode: 0
LetterboxInBreaks: 1
WidescreenStoryboard: 1

[Editor]
Bookmarks: 44818,68818,91406,102259,113995
DistanceSpacing: 1
BeatDivisor: 4
GridSize: 8

[Metadata]
Title:On My Way
TitleUnicode:On My Way
Artist:Fang
ArtistUnicode:Fang
Creator:regenz
Version:testplay
Source:
Tags:
BeatmapID:368094
BeatmapSetID:142911

[Difficulty]
HPDrainRate:7
CircleSize:4
OverallDifficulty:7
ApproachRate:9
SliderMultiplier:1.9
SliderTickRate:1

[Events]
//Background and Video events
0,0,"bg_myway.jpg",0,0
//Break Periods
2,114195,124689
//Storyboard Layer 0 (Background)
//Storyboard Layer 1 (Fail)
//Storyboard Layer 2 (Pass)
//Storyboard Layer 3 (Foreground)
//Storyboard Sound Samples
//Background Colour Transformations
3,100,163,162,255

[TimingPoints]
1054,352.941176470588,4,1,0,70,1,0
68112,-100,4,1,0,40,0,0
68906,-100,4,1,0,60,0,0
90701,-100,4,1,0,40,0,0
91406,-100,4,2,0,100,0,0
113995,-100,4,1,0,70,0,0
125289,-100,4,1,0,55,0,0
128112,-100,4,1,0,70,0,0
135259,-100,4,2,0,70,0,0
136318,-100,4,1,0,70,0,0
136583,-100,4,1,0,70,0,1
159171,-100,4,1,0,70,0,0
249524,-100,4,1,0,70,0,1
272112,-100,4,1,0,70,0,0
294701,-100,4,1,0,70,0,1
317289,-100,4,1,0,70,0,0

[Colours]
Combo1 : 255,255,0
Combo2 : 0,255,255
Combo3 : 255,0,128
Combo4 : 0,255,0
Combo5 : 0,0,255

[HitObjects]
72,96,46230,5,4,0:0:0:0:
440,96,46583,1,0,0:0:0:0:
256,320,46936,2,0,B|232:256|280:248|256:176,2,142.5
256,40,47818,5,0,0:0:0:0:
256,136,47995,1,0,0:0:0:0:
256,136,48083,1,0,0:0:0:0:
256,136,48171,1,0,0:0:0:0:
256,232,48348,1,0,0:0:0:0:
64,80,48612,1,0,0:0:0:0:
72,312,48877,1,0,0:0:0:0:
120,232,49054,5,0,0:0:0:0:
368,336,49318,1,0,0:0:0:0:
440,72,49583,1,0,0:0:0:0:
392,152,49760,1,0,0:0:0:0:
144,48,50024,1,0,0:0:0:0:
256,304,50289,1,0,0:0:0:0:
256,304,50465,5,0,0:0:0:0:
392,88,50730,1,0,0:0:0:0:
120,88,50995,1,0,0:0:0:0:
256,40,51171,1,0,0:0:0:0:
392,256,51436,1,0,0:0:0:0:
120,256,51701,1,0,0:0:0:0:
256,304,51877,6,0,P|256:208|352:168,2,190
448,216,52848,1,0,0:0:0:0:
256,344,53112,2,0,L|56:344,1,190
40,256,53642,6,0,L|80:200,2,47.5
136,264,53995,2,0,P|192:248|208:136,1,142.5
464,40,54524,1,0,0:0:0:0:
321,136,54701,2,0,L|464:136,1,142.5
256,232,55230,1,0,0:0:0:0:
113,328,55407,6,0,L|256:328,1,142.5
136,136,55936,2,0,L|40:136,1,95
280,56,56377,1,0,0:0:0:0:
136,328,56642,2,0,L|40:328,1,95
280,240,57083,1,0,0:0:0:0:
464,56,57348,1,0,0:0:0:0:
464,56,57524,6,0,P|472:144|384:192,1,190
40,192,58230,2,0,P|32:272|80:336,2,142.5
464,328,59112,5,0,0:0:0:0:
432,240,59289,1,0,0:0:0:0:
432,240,59377,1,0,0:0:0:0:
432,240,59465,1,0,0:0:0:0:
360,304,59642,1,0,0:0:0:0:
256,48,59906,1,0,0:0:0:0:
152,304,60171,1,0,0:0:0:0:
152,304,60348,6,0,P|104:208|24:224,1,190
360,168,60877,1,0,0:0:0:0:
360,168,61054,2,0,P|408:72|488:88,1,190
456,176,61583,1,0,0:0:0:0:
408,296,61759,5,0,0:0:0:0:
192,296,62024,1,0,0:0:0:0:
80,112,62289,1,0,0:0:0:0:
184,40,62465,1,0,0:0:0:0:
296,224,62730,1,0,0:0:0:0:
408,40,62995,1,0,0:0:0:0:
408,40,63171,5,0,0:0:0:0:
296,224,63524,1,0,0:0:0:0:
184,40,63877,2,0,P|128:80|128:184,2,142.5
408,40,64759,5,0,0:0:0:0:
360,120,64936,1,0,0:0:0:0:
360,120,65024,1,0,0:0:0:0:
360,120,65112,1,0,0:0:0:0:
312,40,65289,2,0,P|224:40|168:112,1,142.5
48,224,65818,1,0,0:0:0:0:
144,224,65995,5,0,0:0:0:0:
384,224,66259,1,0,0:0:0:0:
480,48,66524,1,0,0:0:0:0:
384,48,66700,1,0,0:0:0:0:
144,48,66965,1,0,0:0:0:0:
264,256,67230,1,0,0:0:0:0:
184,200,67406,5,0,0:0:0:0:
184,184,67495,1,0,0:0:0:0:
184,168,67583,1,0,0:0:0:0:
184,152,67671,1,0,0:0:0:0:
184,136,67759,1,0,0:0:0:0:
184,120,67848,1,0,0:0:0:0:
184,104,67936,1,0,0:0:0:0:
184,88,68024,1,0,0:0:0:0:
184,72,68112,6,0,L|184:32,16,23.75
272,40,68995,5,0,0:0:0:0:
272,40,69083,1,0,0:0:0:0:
272,40,69171,1,0,0:0:0:0:
368,40,69348,1,0,0:0:0:0:
368,40,69436,1,0,0:0:0:0:
368,40,69524,2,0,P|408:112|384:152,1,95
252,256,69877,2,0,P|220:222|216:176,1,95
296,136,70230,6,0,P|336:208|312:248,1,95
180,352,70583,2,0,P|147:318|143:271,1,95
143,271,70848,1,0,0:0:0:0:
143,271,70936,1,0,0:0:0:0:
64,216,71112,2,0,L|24:192,2,47.5
88,128,71465,1,0,0:0:0:0:
88,128,71553,1,0,0:0:0:0:
88,128,71642,6,0,P|120:160|288:168,1,190
368,288,72171,1,0,0:0:0:0:
264,152,72348,2,0,P|312:136|392:152,1,95
288,176,72701,2,0,P|272:232|216:272,1,95
112,312,73053,5,0,0:0:0:0:
40,272,73142,2,0,P|40:240|16:216,1,47.5
32,136,73318,2,0,P|48:96|128:56,1,95
128,144,73583,2,0,P|160:184|224:192,1,95
208,112,73848,2,0,P|240:120|288:184,1,95
296,248,74112,2,0,P|344:280|408:256,1,95
480,152,74465,5,0,0:0:0:0:
480,152,74553,1,0,0:0:0:0:
480,152,74642,2,0,P|432:104|376:96,1,95
320,64,74995,1,0,0:0:0:0:
320,64,75083,1,0,0:0:0:0:
256,128,75259,1,0,0:0:0:0:
256,128,75348,1,0,0:0:0:0:
192,192,75524,1,0,0:0:0:0:
192,192,75612,1,0,0:0:0:0:
120,256,75789,1,0,0:0:0:0:
120,256,75877,6,0,P|120:320|144:352,1,95
208,288,76230,1,0,0:0:0:0:
296,256,76406,2,0,L|416:216,1,95
424,72,76759,2,0,L|360:96,1,47.5
264,72,76936,2,0,L|320:48,2,47.5
72,168,77289,6,0,L|115:148,1,47.5
96,248,77465,2,0,L|40:280,1,47.5
248,296,77730,1,0,0:0:0:0:
248,296,77818,1,0,0:0:0:0:
248,144,77995,1,0,0:0:0:0:
248,144,78083,1,0,0:0:0:0:
384,224,78259,1,0,0:0:0:0:
384,224,78348,1,0,0:0:0:0:
384,64,78524,1,0,0:0:0:0:
392,72,78612,1,0,0:0:0:0:
400,80,78701,6,0,L|440:128,2,47.5
400,240,79053,2,0,L|440:288,2,47.5
264,344,79406,2,0,L|208:392,1,47.5
264,264,79583,2,0,L|208:240,1,47.5
192,312,79759,6,0,L|128:312,3,63.3333333333333,0|0|0|4,0:0|0:0|0:0|0:0,0:0:0:0:
112,200,80289,5,0,0:0:0:0:
112,200,80377,1,0,0:0:0:0:
112,200,80465,2,0,P|56:192|16:128,1,95
120,72,80818,1,0,0:0:0:0:
224,128,80995,1,0,0:0:0:0:
224,128,81083,1,0,0:0:0:0:
224,128,81171,1,0,0:0:0:0:
376,76,81348,2,0,P|359:120|320:144,1,95
336,266,81701,6,0,P|291:253|264:216,1,95
168,208,82053,1,0,0:0:0:0:
152,200,82142,1,0,0:0:0:0:
136,200,82230,1,0,0:0:0:0:
120,208,82318,1,0,0:0:0:0:
112,224,82406,2,0,P|104:280|136:320,1,95
208,344,82759,1,0,0:0:0:0:
296,312,82936,6,0,L|416:312,1,95
216,224,83289,1,0,0:0:0:0:
402,112,83465,2,0,L|320:160,1,95
400,256,83818,1,0,0:0:0:0:
400,256,83906,1,0,0:0:0:0:
400,256,83995,1,0,0:0:0:0:
328,200,84171,1,0,0:0:0:0:
304,104,84348,6,0,L|296:16,1,47.5
208,96,84524,2,0,L|216:160,1,47.5
120,136,84701,2,0,L|112:64,1,47.5
40,144,84877,2,0,P|8:208|16:248,1,95
88,232,85142,2,0,P|96:304|120:336,1,95
176,272,85406,2,0,P|208:320|264:320,1,95
256,232,85759,5,0,0:0:0:0:
256,232,85848,1,0,0:0:0:0:
256,232,85936,2,0,P|304:256|384:232,1,95
336,112,86289,2,0,L|322:165,2,47.5
439,95,86642,2,0,P|421:52|384:24,1,95
448,184,86995,2,0,L|359:219,1,95
352,320,87348,5,0,0:0:0:0:
352,320,87436,1,0,0:0:0:0:
352,320,87524,2,0,L|232:368,1,95
120,312,87877,1,0,0:0:0:0:
48,176,88053,1,0,0:0:0:0:
48,176,88142,1,0,0:0:0:0:
136,64,88318,1,0,0:0:0:0:
136,64,88406,1,0,0:0:0:0:
280,48,88583,6,0,L|256:136,1,47.5
328,168,88759,2,0,L|344:96,2,47.5
184,208,89112,1,0,0:0:0:0:
280,336,89289,1,0,0:0:0:0:
280,336,89377,1,0,0:0:0:0:
424,256,89553,1,0,0:0:0:0:
424,256,89642,1,0,0:0:0:0:
480,120,89818,1,0,0:0:0:0:
472,104,89906,1,0,0:0:0:0:
464,88,89995,5,0,0:0:0:0:
448,80,90083,1,0,0:0:0:0:
432,72,90171,1,0,0:0:0:0:
416,72,90259,1,0,0:0:0:0:
400,72,90348,1,0,0:0:0:0:
384,72,90436,1,0,0:0:0:0:
368,72,90524,1,0,0:0:0:0:
352,72,90612,1,0,0:0:0:0:
336,72,90701,6,0,L|296:72,16,23.75,0|0|0|0|0|0|0|0|0|0|0|0|0|0|0|0|2,0:0|0:0|0:0|0:0|0:0|0:0|0:0|0:0|0:0|0:0|0:0|0:0|0:0|0:0|0:0|0:0|0:0,0:0:0:0:
248,40,91583,6,0,P|192:56|144:120,2,95,0|0|0,0:0|0:0|0:0,0:0:0:0:
224,104,92024,2,0,P|192:144|184:192,2,95,0|0|0,0:0|0:0|0:0,0:0:0:0:
248,160,92465,2,0,P|248:208|264:256,1,95,0|0,0:0|0:0,0:0:0:0:
424,280,92818,5,2,0:0:0:0:
288,320,92995,1,0,0:0:0:0:
392,208,93171,1,0,0:0:0:0:
424,56,93348,2,0,L|368:56,1,47.5
272,64,93612,1,0,0:0:0:0:
168,192,93789,2,0,L|192:144,1,47.5
368,264,94053,2,0,L|312:152,1,95,0|2,0:0|0:0,0:0:0:0:
170,335,94406,6,0,L|264:320,1,95
400,344,94759,1,0,0:0:0:0:
400,344,94848,1,0,0:0:0:0:
448,216,95024,1,0,0:0:0:0:
312,200,95201,1,0,0:0:0:0:
312,200,95289,1,0,0:0:0:0:
264,320,95465,2,0,L|144:272,1,95,0|2,0:0|0:0,0:0:0:0:
48,216,95818,6,0,P|73:255|81:302,2,95
144,216,96348,2,0,L|152:128,1,47.5
240,64,96612,1,0,0:0:0:0:
312,168,96789,2,0,L|312:224,1,47.5
224,328,97053,5,2,0:0:0:0:
384,281,97230,2,0,P|343:303|320:344,2,95
360,248,97671,2,0,P|296:224|232:224,2,95
376,208,98112,2,0,P|344:136|312:128,2,95,0|0|2,0:0|0:0|0:0,0:0:0:0:
480,272,98642,5,0,0:0:0:0:
480,176,98818,2,0,P|472:128|432:88,1,95
408,128,99083,2,0,P|352:88|296:88,1,95
232,88,99436,1,0,0:0:0:0:
232,88,99524,1,0,0:0:0:0:
55,131,99701,2,0,P|90:100|136:88,1,95,0|2,0:0|0:0,0:0:0:0:
136,184,100053,5,0,0:0:0:0:
40,296,100230,1,0,0:0:0:0:
176,320,100406,1,0,0:0:0:0:
176,320,100495,1,0,0:0:0:0:
272,232,100671,1,0,0:0:0:0:
384,320,100848,1,0,0:0:0:0:
384,320,100936,1,0,0:0:0:0:
480,232,101112,1,0,0:0:0:0:
360,80,101289,6,0,L|424:152,1,95,2|0,0:0|0:0,0:0:0:0:
184,152,101642,2,0,L|247:81,1,95
253,218,101995,2,0,L|224:256,1,47.5
88,336,102259,1,0,0:0:0:0:
73,196,102436,2,0,L|104:160,1,47.5
56,56,102701,6,0,P|128:40|184:56,2,95,2|0|0,0:0|0:0|0:0,0:0:0:0:
168,176,103230,1,0,0:0:0:0:
200,144,103318,2,0,P|264:160|328:152,1,95
456,312,103671,1,0,0:0:0:0:
424,344,103759,2,0,P|360:328|296:336,1,95
96,328,104112,6,0,P|168:336|216:296,2,95,2|0|0,0:0|0:0|0:0,0:0:0:0:
144,248,104642,1,0,0:0:0:0:
144,248,104730,1,0,0:0:0:0:
216,160,104906,1,0,0:0:0:0:
288,80,105083,1,0,0:0:0:0:
288,80,105171,2,0,P|352:120|400:112,1,95
472,80,105524,5,2,0:0:0:0:
312,208,105700,1,0,0:0:0:0:
424,184,105877,1,0,0:0:0:0:
240,296,106053,1,0,0:0:0:0:
240,296,106142,1,0,0:0:0:0:
144,248,106318,2,0,P|96:224|72:176,1,95
96,168,106583,2,0,P|88:112|104:64,2,95,0|0|2,0:0|0:0|0:0,0:0:0:0:
312,112,107112,6,0,L|176:112,1,95
256,248,107465,2,0,L|376:248,1,95
368,296,107730,2,0,L|488:296,1,95
512,160,108083,1,0,0:0:0:0:
512,160,108171,1,0,0:0:0:0:
384,48,108347,5,2,0:0:0:0:
304,192,108524,1,0,0:0:0:0:
432,304,108700,1,0,0:0:0:0:
288,224,108877,1,0,0:0:0:0:
272,256,108965,2,0,L|168:280,1,95
48,136,109318,1,0,0:0:0:0:
64,168,109406,2,0,L|160:192,1,95
280,120,109759,5,2,0:0:0:0:
360,256,109936,1,0,0:0:0:0:
232,336,110112,1,0,0:0:0:0:
160,208,110289,1,0,0:0:0:0:
160,208,110377,1,0,0:0:0:0:
296,120,110553,2,0,P|344:88|408:88,1,95
400,120,110818,2,0,P|456:144|496:176,1,95
472,304,111171,5,2,0:0:0:0:
272,336,111347,1,0,0:0:0:0:
376,336,111524,1,0,0:0:0:0:
184,280,111701,2,0,L|176:224,1,47.5
112,96,111965,1,0,0:0:0:0:
24,232,112142,1,0,0:0:0:0:
24,232,112230,2,0,P|64:288|112:304,1,95
256,192,112583,12,4,113995,0:0:0:0:
80,72,125289,5,12,0:0:0:0:
104,264,125642,1,8,0:0:0:0:
232,72,125995,1,8,0:0:0:0:
256,264,126348,1,8,0:0:0:0:
432,72,126701,5,8,0:0:0:0:
408,264,127054,1,8,0:0:0:0:
280,72,127407,1,8,0:0:0:0:
256,264,127760,1,8,0:0:0:0:
80,96,128112,5,0,0:0:0:0:
256,352,128818,1,0,0:0:0:0:
432,96,129524,1,0,0:0:0:0:
256,32,129877,1,0,0:0:0:0:
256,32,130230,1,0,0:0:0:0:
256,128,130406,1,0,0:0:0:0:
256,224,130583,1,0,0:0:0:0:
256,320,130759,1,0,0:0:0:0:
256,320,130848,1,0,0:0:0:0:
256,320,130936,5,0,0:0:0:0:
168,344,131112,2,0,L|80:344,2,47.5
136,256,131465,1,0,0:0:0:0:
144,240,131553,1,0,0:0:0:0:
144,224,131642,1,0,0:0:0:0:
144,208,131730,1,0,0:0:0:0:
144,192,131818,1,0,0:0:0:0:
136,176,131906,1,0,0:0:0:0:
128,160,131995,1,0,0:0:0:0:
120,152,132083,1,0,0:0:0:0:
112,144,132171,1,0,0:0:0:0:
104,136,132259,1,0,0:0:0:0:
96,128,132348,6,0,L|24:88,3,47.5
152,72,132701,2,0,L|208:104,3,47.5
304,72,133053,2,0,L|261:50,3,47.5
272,160,133406,2,0,L|328:208,3,47.5
328,240,133759,5,0,0:0:0:0:
344,240,133848,1,0,0:0:0:0:
352,232,133936,1,0,0:0:0:0:
360,224,134024,1,0,0:0:0:0:
368,216,134112,1,0,0:0:0:0:
376,200,134201,1,0,0:0:0:0:
384,184,134289,1,0,0:0:0:0:
392,168,134377,1,0,0:0:0:0:
392,152,134465,1,0,0:0:0:0:
392,136,134553,1,0,0:0:0:0:
392,120,134642,1,0,0:0:0:0:
384,104,134730,1,0,0:0:0:0:
376,88,134818,1,0,0:0:0:0:
368,80,134906,1,0,0:0:0:0:
360,72,134995,1,0,0:0:0:0:
352,64,135083,1,0,0:0:0:0:
336,48,135171,6,0,L|304:48,24,23.75
288,56,136318,6,0,L|240:64,2,47.5
272,104,136583,6,0,P|256:168|208:200,1,95
72,248,136936,2,0,P|112:168|136:144,1,95
