osu file format v12

[General]
AudioFilename: ranman _Piano Version.mp3
AudioLeadIn: 1996
PreviewTime: 87324
Countdown: 0
SampleSet: Normal
StackLeniency: 0.7
Mode: 3
LetterboxInBreaks: 1

[Editor]
DistanceSpacing: 0.8
BeatDivisor: 16
GridSize: 8

[Metadata]
Title:Mecha Koi Ranman* (Piano Ver.)
TitleUnicode:メチャ恋らんまん☆ (Piano Ver.)
Artist:Famishin
ArtistUnicode:Famishin
Creator:TOKI
Version:7K NM
Source:Tenshin Ranman
Tags:happy go lucky!? yuzu soft opening
BeatmapID:235730
BeatmapSetID:85930

[Difficulty]
HPDrainRate:6
CircleSize:7
OverallDifficulty:9
ApproachRate:5
SliderMultiplier:1.4
SliderTickRate:1

[Events]
//Background and Video events
0,0,"Konachan.com - 93181 blue_hair game_cg kobuichi muririn night rindou_ruri short_hair tenshinranman.jpg",1,1
//Break Periods
//Storyboard Layer 0 (Background)
//Storyboard Layer 1 (Fail)
//Storyboard Layer 2 (Pass)
//Storyboard Layer 3 (Foreground)
//Storyboard Sound Samples
//Background Colour Transformations
3,100,163,162,255

[TimingPoints]
324.143573618604,750.004323716748,4,1,0,100,1,0

[HitObjects]
256,192,324,1,0,0:0:0:100:D5OGG.ogg
36,192,699,1,0,0:0:0:100:A4OGG.ogg
329,192,1074,1,0,0:0:0:100:E5OGG.ogg
402,192,1449,1,0,0:0:0:100:F#5OGG.ogg
36,192,2199,1,0,0:0:0:100:A4OGG.ogg
256,192,2574,1,0,0:0:0:100:D5OGG.ogg
36,192,2949,1,0,0:0:0:100:A4OGG.ogg
256,192,3324,1,0,0:0:0:100:D5OGG.ogg
109,192,3699,1,0,0:0:0:100:B4OGG.ogg
402,192,4074,1,0,0:0:0:100:F#5OGG.ogg
475,192,4449,1,0,0:0:0:100:G5OGG.ogg
109,192,5199,1,0,0:0:0:100:B4OGG.ogg
329,192,5574,1,0,0:0:0:100:E5OGG.ogg
109,192,5949,1,0,0:0:0:100:B4OGG.ogg
256,192,6324,1,0,0:0:0:100:D5OGG.ogg
182,192,6699,1,0,0:0:0:100:C#5OGG.ogg
329,192,7074,1,0,0:0:0:100:E5OGG.ogg
475,192,7449,1,0,0:0:0:100:A5OGG.ogg
182,192,8199,1,0,0:0:0:100:C#5OGG.ogg
329,192,8574,1,0,0:0:0:100:E5OGG.ogg
36,192,8949,1,0,0:0:0:100:A4OGG.ogg
256,192,9324,1,0,0:0:0:100:D5OGG.ogg
109,192,9699,1,0,0:0:0:100:B4OGG.ogg
402,192,10074,1,0,0:0:0:100:F#5OGG.ogg
475,192,10449,1,0,0:0:0:100:G5OGG.ogg
256,192,10449,1,0,0:0:0:100:D5OGG.ogg
182,192,10449,1,0,0:0:0:100:B4OGG.ogg
109,192,10449,1,0,0:0:0:100:A4OGG.ogg
36,192,10449,1,0,0:0:0:100:A2OGG.ogg
475,192,12324,1,0,0:0:0:100:F#6OGG.ogg
109,192,12324,1,0,0:0:0:100:D5OGG.ogg
256,192,12699,1,0,0:0:0:100:D6OGG.ogg
36,192,12699,1,0,0:0:0:100:A4OGG.ogg
329,192,13074,1,0,0:0:0:100:E6OGG.ogg
182,192,13074,1,0,0:0:0:100:E5OGG.ogg
402,192,13449,1,0,0:0:0:100:F#6OGG.ogg
256,192,13449,1,0,0:0:0:100:F#5OGG.ogg
475,192,13636,1,0,0:0:0:100:G6OGG.ogg
402,192,14199,1,0,0:0:0:100:F#6OGG.ogg
36,192,14199,1,0,0:0:0:100:A4OGG.ogg
329,192,14574,1,0,0:0:0:100:E6OGG.ogg
182,192,14574,1,0,0:0:0:100:E5OGG.ogg
402,192,14949,1,0,0:0:0:100:F#6OGG.ogg
36,192,14949,1,0,0:0:0:100:A4OGG.ogg
256,192,15324,1,0,0:0:0:100:A5OGG.ogg
109,192,15324,1,0,0:0:0:100:D5OGG.ogg
36,192,15699,1,0,0:0:0:100:A4OGG.ogg
182,192,16074,1,0,0:0:0:100:E5OGG.ogg
256,192,16449,1,0,0:0:0:100:F#5OGG.ogg
36,192,17199,1,0,0:0:0:100:A4OGG.ogg
109,192,17574,1,0,0:0:0:100:D5OGG.ogg
36,192,17949,1,0,0:0:0:100:A4OGG.ogg
402,192,18324,1,0,0:0:0:100:F#6OGG.ogg
109,192,18324,1,0,0:0:0:100:D5OGG.ogg
256,192,18699,1,0,0:0:0:100:D6OGG.ogg
36,192,18699,1,0,0:0:0:100:A4OGG.ogg
329,192,19074,1,0,0:0:0:100:E6OGG.ogg
182,192,19074,1,0,0:0:0:100:E5OGG.ogg
402,192,19449,1,0,0:0:0:100:F#6OGG.ogg
256,192,19449,1,0,0:0:0:100:F#5OGG.ogg
475,192,19636,1,0,0:0:0:100:G6OGG.ogg
402,192,20199,1,0,0:0:0:100:F#6OGG.ogg
36,192,20199,1,0,0:0:0:100:A4OGG.ogg
329,192,20574,1,0,0:0:0:100:E6OGG.ogg
182,192,20574,1,0,0:0:0:100:E5OGG.ogg
256,192,20949,1,0,0:0:0:100:D6OGG.ogg
36,192,20949,1,0,0:0:0:100:A4OGG.ogg
329,192,21324,1,0,0:0:0:100:E6OGG.ogg
109,192,21324,1,0,0:0:0:100:E5OGG.ogg
36,192,21699,1,0,0:0:0:100:B4OGG.ogg
182,192,22074,1,0,0:0:0:100:F#5OGG.ogg
256,192,22449,1,0,0:0:0:100:G5OGG.ogg
36,192,23199,1,0,0:0:0:100:B4OGG.ogg
109,192,23574,1,0,0:0:0:100:E5OGG.ogg
36,192,23949,1,0,0:0:0:100:B4OGG.ogg
36,192,24324,1,0,0:0:0:100:A3OGG.ogg
402,192,24324,1,0,0:0:0:100:G6OGG.ogg
256,192,24699,1,0,0:0:0:100:E6OGG.ogg
109,192,24699,1,0,0:0:0:100:A4OGG.ogg
329,192,25074,1,0,0:0:0:100:F#6OGG.ogg
182,192,25074,1,0,0:0:0:100:E5OGG.ogg
256,192,25449,1,0,0:0:0:100:G5OGG.ogg
402,192,25449,1,0,0:0:0:100:G6OGG.ogg
475,192,25636,1,0,0:0:0:100:A6OGG.ogg
402,192,26199,1,0,0:0:0:100:G6OGG.ogg
109,192,26199,1,0,0:0:0:100:C#5OGG.ogg
329,192,26574,1,0,0:0:0:100:F#6OGG.ogg
182,192,26574,1,0,0:0:0:100:E5OGG.ogg
402,192,26949,1,0,0:0:0:100:G6OGG.ogg
36,192,26949,1,0,0:0:0:100:A4OGG.ogg
475,192,27324,1,0,0:0:0:100:F#6OGG.ogg
36,192,27324,1,0,0:0:0:100:F#4OGG.ogg
109,192,27699,1,0,0:0:0:100:A4OGG.ogg
402,192,28074,1,0,0:0:0:100:E6OGG.ogg
182,192,28074,1,0,0:0:0:100:E5OGG.ogg
109,192,28449,1,0,0:0:0:100:A4OGG.ogg
329,192,28824,1,0,0:0:0:100:D6OGG.ogg
36,192,28824,1,0,0:0:0:100:B3OGG.ogg
109,192,29199,1,0,0:0:0:100:B4OGG.ogg
256,192,29574,1,0,0:0:0:100:F#5OGG.ogg
182,192,29949,1,0,0:0:0:100:D5OGG.ogg
329,192,29949,1,0,0:0:0:100:B5OGG.ogg
402,192,30136,1,0,0:0:0:100:C#6OGG.ogg
475,192,30324,1,0,0:0:0:100:D6OGG.ogg
109,192,30324,1,0,0:0:0:100:E5OGG.ogg
36,192,30699,1,0,0:0:0:100:B4OGG.ogg
182,192,31074,1,0,0:0:0:100:F#5OGG.ogg
402,192,31449,1,0,0:0:0:100:D6OGG.ogg
256,192,31449,1,0,0:0:0:100:G5OGG.ogg
36,192,32199,1,0,0:0:0:100:B4OGG.ogg
402,192,32199,1,0,0:0:0:100:D6OGG.ogg
329,192,32574,1,0,0:0:0:100:C#6OGG.ogg
109,192,32574,1,0,0:0:0:100:E5OGG.ogg
402,192,32949,1,0,0:0:0:100:D6OGG.ogg
36,192,32949,1,0,0:0:0:100:B4OGG.ogg
475,192,33324,1,0,0:0:0:100:E6OGG.ogg
36,192,33324,1,0,0:0:0:100:A3OGG.ogg
109,192,33699,1,0,0:0:0:100:A4OGG.ogg
182,192,34074,1,0,0:0:0:100:E5OGG.ogg
256,192,34449,1,0,0:0:0:100:G5OGG.ogg
182,192,35199,1,0,0:0:0:100:E5OGG.ogg
109,192,35574,1,0,0:0:0:100:C#5OGG.ogg
36,192,35949,1,0,0:0:0:100:A4OGG.ogg
475,192,36324,1,0,0:0:0:100:F#6OGG.ogg
109,192,36324,1,0,0:0:0:100:D5OGG.ogg
36,192,36699,1,0,0:0:0:100:A4OGG.ogg
256,192,36699,1,0,0:0:0:100:D6OGG.ogg
182,192,37074,1,0,0:0:0:100:E5OGG.ogg
329,192,37074,1,0,0:0:0:100:E6OGG.ogg
402,192,37449,1,0,0:0:0:100:F#6OGG.ogg
256,192,37449,1,0,0:0:0:100:F#5OGG.ogg
475,192,37636,1,0,0:0:0:100:G6OGG.ogg
36,192,38199,1,0,0:0:0:100:A4OGG.ogg
402,192,38199,1,0,0:0:0:100:F#6OGG.ogg
329,192,38574,1,0,0:0:0:100:E6OGG.ogg
182,192,38574,1,0,0:0:0:100:E5OGG.ogg
36,192,38949,1,0,0:0:0:100:A4OGG.ogg
402,192,38949,1,0,0:0:0:100:F#6OGG.ogg
256,192,39324,1,0,0:0:0:100:A5OGG.ogg
109,192,39324,1,0,0:0:0:100:D5OGG.ogg
36,192,39699,1,0,0:0:0:100:A4OGG.ogg
182,192,40074,1,0,0:0:0:100:E5OGG.ogg
256,192,40449,1,0,0:0:0:100:F#5OGG.ogg
36,192,41199,1,0,0:0:0:100:A4OGG.ogg
109,192,41574,1,0,0:0:0:100:D5OGG.ogg
36,192,41949,1,0,0:0:0:100:A4OGG.ogg
402,192,42324,1,0,0:0:0:100:F#6OGG.ogg
109,192,42324,1,0,0:0:0:100:D5OGG.ogg
256,192,42699,1,0,0:0:0:100:D6OGG.ogg
36,192,42699,1,0,0:0:0:100:A4OGG.ogg
182,192,43074,1,0,0:0:0:100:E5OGG.ogg
329,192,43074,1,0,0:0:0:100:E6OGG.ogg
256,192,43449,1,0,0:0:0:100:F#5OGG.ogg
402,192,43449,1,0,0:0:0:100:F#6OGG.ogg
475,192,43636,1,0,0:0:0:100:G6OGG.ogg
402,192,44199,1,0,0:0:0:100:F#6OGG.ogg
36,192,44199,1,0,0:0:0:100:A4OGG.ogg
182,192,44574,1,0,0:0:0:100:E5OGG.ogg
329,192,44574,1,0,0:0:0:100:E6OGG.ogg
36,192,44949,1,0,0:0:0:100:A4OGG.ogg
256,192,44949,1,0,0:0:0:100:D6OGG.ogg
329,192,45324,1,0,0:0:0:100:E6OGG.ogg
109,192,45324,1,0,0:0:0:100:E5OGG.ogg
36,192,45699,1,0,0:0:0:100:B4OGG.ogg
182,192,46074,1,0,0:0:0:100:F#5OGG.ogg
256,192,46449,1,0,0:0:0:100:G5OGG.ogg
36,192,47199,1,0,0:0:0:100:B4OGG.ogg
109,192,47574,1,0,0:0:0:100:E5OGG.ogg
36,192,47949,1,0,0:0:0:100:B4OGG.ogg
36,192,48324,1,0,0:0:0:100:A3OGG.ogg
402,192,48324,1,0,0:0:0:100:G6OGG.ogg
256,192,48699,1,0,0:0:0:100:E6OGG.ogg
109,192,48699,1,0,0:0:0:100:A4OGG.ogg
182,192,49074,1,0,0:0:0:100:E5OGG.ogg
329,192,49074,1,0,0:0:0:100:F#6OGG.ogg
402,192,49449,1,0,0:0:0:100:G6OGG.ogg
109,192,49449,1,0,0:0:0:100:A4OGG.ogg
475,192,49636,1,0,0:0:0:100:A6OGG.ogg
36,192,49824,1,0,0:0:0:100:A#3OGG.ogg
402,192,50199,1,0,0:0:0:100:G6OGG.ogg
109,192,50199,1,0,0:0:0:100:C#5OGG.ogg
329,192,50574,1,0,0:0:0:100:F#6OGG.ogg
182,192,50574,1,0,0:0:0:100:E5OGG.ogg
402,192,50949,1,0,0:0:0:100:G6OGG.ogg
109,192,50949,1,0,0:0:0:100:C#5OGG.ogg
475,192,51324,1,0,0:0:0:100:F#6OGG.ogg
36,192,51324,1,0,0:0:0:100:B3OGG.ogg
109,192,51699,1,0,0:0:0:100:B4OGG.ogg
182,192,52074,1,0,0:0:0:100:D5OGG.ogg
402,192,52074,1,0,0:0:0:100:E6OGG.ogg
109,192,52449,1,0,0:0:0:100:B4OGG.ogg
329,192,52824,1,0,0:0:0:100:D6OGG.ogg
256,192,52824,1,0,0:0:0:100:B5OGG.ogg
109,192,53199,1,0,0:0:0:100:B4OGG.ogg
182,192,53574,1,0,0:0:0:100:D5OGG.ogg
329,192,53949,1,0,0:0:0:100:B5OGG.ogg
109,192,53949,1,0,0:0:0:100:B4OGG.ogg
402,192,54136,1,0,0:0:0:100:C#6OGG.ogg
475,192,54324,1,0,0:0:0:100:D6OGG.ogg
182,192,54324,1,0,0:0:0:100:E5OGG.ogg
36,192,54324,1,0,0:0:0:100:E4OGG.ogg
36,192,54699,1,0,0:0:0:100:B4OGG.ogg
109,192,55074,1,0,0:0:0:100:D5OGG.ogg
256,192,55449,1,0,0:0:0:100:D6OGG.ogg
182,192,55449,1,0,0:0:0:100:G5OGG.ogg
475,192,55824,1,0,0:0:0:100:G6OGG.ogg
36,192,55824,1,0,0:0:0:100:A3OGG.ogg
402,192,56199,1,0,0:0:0:100:F#6OGG.ogg
36,192,56199,1,0,0:0:0:100:A4OGG.ogg
329,192,56574,1,0,0:0:0:100:E6OGG.ogg
109,192,56574,1,0,0:0:0:100:E5OGG.ogg
402,192,56949,1,0,0:0:0:100:F#6OGG.ogg
182,192,56949,1,0,0:0:0:100:G5OGG.ogg
256,192,57324,1,0,0:0:0:100:D6OGG.ogg
182,192,57324,1,0,0:0:0:100:D5OGG.ogg
36,192,57699,1,0,0:0:0:100:A4OGG.ogg
182,192,58074,1,0,0:0:0:100:E5OGG.ogg
329,192,58449,1,0,0:0:0:100:G5OGG.ogg
256,192,58824,1,0,0:0:0:100:F#5OGG.ogg
109,192,58824,1,0,0:0:0:100:D5OGG.ogg
32,192,59574,1,0,0:0:0:70:A3OGG.ogg
402,192,60324,1,0,0:0:0:100:D6OGG.ogg
36,192,60324,1,0,0:0:0:100:G4OGG.ogg
182,192,60324,1,0,0:0:0:100:B4OGG.ogg
256,192,60324,1,0,0:0:0:100:D5OGG.ogg
475,192,61449,1,0,0:0:0:100:E6OGG.ogg
402,192,61636,1,0,0:0:0:100:D6OGG.ogg
256,192,62574,1,0,0:0:0:100:D5OGG.ogg
182,192,62574,1,0,0:0:0:100:B4OGG.ogg
36,192,62574,1,0,0:0:0:100:G4OGG.ogg
329,192,62949,1,0,0:0:0:100:B5OGG.ogg
402,192,63137,1,0,0:0:0:100:C#6OGG.ogg
475,192,63324,1,0,0:0:0:100:D6OGG.ogg
36,192,63324,1,0,0:0:0:100:C#5OGG.ogg
109,192,63324,1,0,0:0:0:100:E5OGG.ogg
256,192,63324,1,0,0:0:0:100:A5OGG.ogg
402,192,64449,1,0,0:0:0:100:E6OGG.ogg
475,192,64637,1,0,0:0:0:100:F#6OGG.ogg
36,192,65574,1,0,0:0:0:100:C#5OGG.ogg
109,192,65574,1,0,0:0:0:100:E5OGG.ogg
256,192,65574,1,0,0:0:0:100:A5OGG.ogg
329,192,65949,1,0,0:0:0:100:B5OGG.ogg
402,192,66137,1,0,0:0:0:100:C#6OGG.ogg
475,192,66324,1,0,0:0:0:100:D6OGG.ogg
256,192,66324,1,0,0:0:0:100:D5OGG.ogg
182,192,66324,1,0,0:0:0:100:B4OGG.ogg
36,192,66324,1,0,0:0:0:100:E4OGG.ogg
475,192,67449,1,0,0:0:0:100:D6OGG.ogg
475,192,67824,1,0,0:0:0:100:G6OGG.ogg
109,192,67824,1,0,0:0:0:100:G4OGG.ogg
256,192,67824,1,0,0:0:0:100:C#5OGG.ogg
329,192,67824,1,0,0:0:0:100:E5OGG.ogg
402,192,68199,1,0,0:0:0:100:F#6OGG.ogg
329,192,68574,1,0,0:0:0:100:E6OGG.ogg
402,192,68949,1,0,0:0:0:100:F#6OGG.ogg
475,192,69324,1,0,0:0:0:100:A5OGG.ogg
36,192,69324,1,0,0:0:0:100:A4OGG.ogg
109,192,69324,1,0,0:0:0:100:C#5OGG.ogg
256,192,69324,1,0,0:0:0:100:F#5OGG.ogg
36,192,69699,1,0,0:0:0:100:A4OGG.ogg
109,192,70074,1,0,0:0:0:100:C#5OGG.ogg
182,192,70449,1,0,0:0:0:100:C#5OGG.ogg
256,192,70449,1,0,0:0:0:100:E5OGG.ogg
109,192,70449,1,0,0:0:0:100:B4OGG.ogg
182,192,71199,1,0,0:0:0:100:D#5OGG.ogg
109,192,71199,1,0,0:0:0:100:B4OGG.ogg
36,192,71574,1,0,0:0:0:100:B3OGG.ogg
402,192,72324,1,0,0:0:0:100:D6OGG.ogg
36,192,72324,1,0,0:0:0:100:E4OGG.ogg
182,192,72324,1,0,0:0:0:100:B4OGG.ogg
329,192,72324,1,0,0:0:0:100:G5OGG.ogg
475,192,73449,1,0,0:0:0:100:E6OGG.ogg
402,192,73637,1,0,0:0:0:100:D6OGG.ogg
182,192,74574,1,0,0:0:0:100:B4OGG.ogg
329,192,74574,1,0,0:0:0:100:G5OGG.ogg
36,192,74574,1,0,0:0:0:100:E4OGG.ogg
329,192,74949,1,0,0:0:0:100:B5OGG.ogg
402,192,75137,1,0,0:0:0:100:C#6OGG.ogg
475,192,75324,1,0,0:0:0:100:D6OGG.ogg
36,192,75324,1,0,0:0:0:100:C#5OGG.ogg
109,192,75324,1,0,0:0:0:100:E5OGG.ogg
256,192,75324,1,0,0:0:0:100:A5OGG.ogg
402,192,76449,1,0,0:0:0:100:E6OGG.ogg
475,192,76637,1,0,0:0:0:100:F#6OGG.ogg
109,192,77574,1,0,0:0:0:100:E5OGG.ogg
256,192,77574,1,0,0:0:0:100:A5OGG.ogg
36,192,77574,1,0,0:0:0:100:C#5OGG.ogg
402,192,77949,1,0,0:0:0:100:F#6OGG.ogg
475,192,78137,1,0,0:0:0:100:G6OGG.ogg
402,192,78324,1,0,0:0:0:100:F#6OGG.ogg
36,192,78324,1,0,0:0:0:100:G4OGG.ogg
109,192,78324,1,0,0:0:0:100:B4OGG.ogg
182,192,78324,1,0,0:0:0:100:D5OGG.ogg
329,192,78887,1,0,0:0:0:100:E6OGG.ogg
402,192,79449,1,0,0:0:0:100:D6OGG.ogg
36,192,79824,1,0,0:0:0:100:G#4OGG.ogg
182,192,79824,1,0,0:0:0:100:B4OGG.ogg
256,192,79824,1,0,0:0:0:100:D5OGG.ogg
329,192,79824,1,0,0:0:0:100:E6OGG.ogg
475,192,80574,1,0,0:0:0:100:B6OGG.ogg
402,192,81324,1,0,0:0:0:100:A6OGG.ogg
109,192,81324,1,0,0:0:0:100:A4OGG.ogg
256,192,81324,1,0,0:0:0:100:D5OGG.ogg
329,192,81324,1,0,0:0:0:100:E5OGG.ogg
36,192,81699,1,0,0:0:0:100:G4OGG.ogg
182,192,82074,1,0,0:0:0:100:B4OGG.ogg
256,192,82449,1,0,0:0:0:100:D5OGG.ogg
329,192,82449,1,0,0:0:0:100:E5OGG.ogg
109,192,82449,1,0,0:0:0:100:A4OGG.ogg
36,192,83199,1,0,0:0:0:100:G4OGG.ogg
109,192,83574,1,0,0:0:0:100:A4OGG.ogg
329,192,83574,1,0,0:0:0:100:E5OGG.ogg
256,192,83574,1,0,0:0:0:100:D5OGG.ogg
329,192,84324,1,0,0:0:0:100:E5OGG.ogg
182,192,84324,1,0,0:0:0:100:C#5OGG.ogg
36,192,84324,1,0,0:0:0:100:A4OGG.ogg
329,192,86949,1,0,0:0:0:100:F#6OGG.ogg
402,192,87137,1,0,0:0:0:100:G6OGG.ogg
182,192,87324,1,0,0:0:0:100:D5OGG.ogg
475,192,87324,1,0,0:0:0:100:A6OGG.ogg
256,192,87324,1,0,0:0:0:100:F#5OGG.ogg
109,192,87699,1,0,0:0:0:100:A4OGG.ogg
329,192,88074,1,0,0:0:0:100:F#6OGG.ogg
182,192,88074,1,0,0:0:0:100:E5OGG.ogg
402,192,88449,1,0,0:0:0:100:A6OGG.ogg
256,192,88449,1,0,0:0:0:100:F#5OGG.ogg
475,192,89199,1,0,0:0:0:100:D7OGG.ogg
109,192,89199,1,0,0:0:0:100:A4OGG.ogg
182,192,89574,1,0,0:0:0:100:E5OGG.ogg
475,192,89949,1,0,0:0:0:100:D7OGG.ogg
256,192,89949,1,0,0:0:0:100:F#5OGG.ogg
402,192,90324,1,0,0:0:0:100:C#7OGG.ogg
109,192,90324,1,0,0:0:0:100:C#5OGG.ogg
182,192,90324,1,0,0:0:0:100:E5OGG.ogg
36,192,90699,1,0,0:0:0:100:A4OGG.ogg
329,192,91074,1,0,0:0:0:100:A6OGG.ogg
109,192,91074,1,0,0:0:0:100:C#5OGG.ogg
182,192,91449,1,0,0:0:0:100:E5OGG.ogg
256,192,91449,1,0,0:0:0:100:F#6OGG.ogg
36,192,92199,1,0,0:0:0:100:A4OGG.ogg
182,192,92574,1,0,0:0:0:100:E5OGG.ogg
329,192,92949,1,0,0:0:0:100:F#6OGG.ogg
36,192,92949,1,0,0:0:0:100:A4OGG.ogg
402,192,93137,1,0,0:0:0:100:G6OGG.ogg
475,192,93324,1,0,0:0:0:100:A6OGG.ogg
182,192,93324,1,0,0:0:0:100:D5OGG.ogg
256,192,93324,1,0,0:0:0:100:F#5OGG.ogg
109,192,93699,1,0,0:0:0:100:A4OGG.ogg
329,192,94074,1,0,0:0:0:100:F#6OGG.ogg
182,192,94074,1,0,0:0:0:100:E5OGG.ogg
402,192,94449,1,0,0:0:0:100:A6OGG.ogg
256,192,94449,1,0,0:0:0:100:F#5OGG.ogg
475,192,95199,1,0,0:0:0:100:D7OGG.ogg
109,192,95199,1,0,0:0:0:100:A4OGG.ogg
182,192,95574,1,0,0:0:0:100:E5OGG.ogg
475,192,95949,1,0,0:0:0:100:D7OGG.ogg
256,192,95949,1,0,0:0:0:100:F#5OGG.ogg
402,192,96324,1,0,0:0:0:100:E7OGG.ogg
329,192,96324,1,0,0:0:0:100:G5OGG.ogg
36,192,96324,1,0,0:0:0:100:A4OGG.ogg
109,192,96699,1,0,0:0:0:100:C5OGG.ogg
475,192,97074,1,0,0:0:0:100:C7OGG.ogg
182,192,97074,1,0,0:0:0:100:E5OGG.ogg
402,192,97449,1,0,0:0:0:100:A6OGG.ogg
109,192,97449,1,0,0:0:0:100:D5OGG.ogg
256,192,97449,1,0,0:0:0:100:G5OGG.ogg
109,192,98199,1,0,0:0:0:100:D5OGG.ogg
182,192,98199,1,0,0:0:0:100:F#5OGG.ogg
36,192,98574,1,0,0:0:0:100:A3OGG.ogg
329,192,99324,1,0,0:0:0:100:G6OGG.ogg
182,192,99324,1,0,0:0:0:100:D5OGG.ogg
256,192,99324,1,0,0:0:0:100:F#5OGG.ogg
109,192,99699,1,0,0:0:0:100:B4OGG.ogg
402,192,100074,1,0,0:0:0:100:A6OGG.ogg
182,192,100074,1,0,0:0:0:100:D5OGG.ogg
475,192,100449,1,0,0:0:0:100:B6OGG.ogg
256,192,100449,1,0,0:0:0:100:F#5OGG.ogg
329,192,101199,1,0,0:0:0:100:G6OGG.ogg
109,192,101199,1,0,0:0:0:100:B4OGG.ogg
402,192,101574,1,0,0:0:0:100:A6OGG.ogg
182,192,101574,1,0,0:0:0:100:D5OGG.ogg
475,192,101949,1,0,0:0:0:100:B6OGG.ogg
256,192,101949,1,0,0:0:0:100:F#5OGG.ogg
402,192,102324,1,0,0:0:0:100:A6OGG.ogg
182,192,102324,1,0,0:0:0:100:E5OGG.ogg
109,192,102324,1,0,0:0:0:100:C#5OGG.ogg
36,192,102699,1,0,0:0:0:100:A4OGG.ogg
475,192,103074,1,0,0:0:0:100:B6OGG.ogg
109,192,103074,1,0,0:0:0:100:C#5OGG.ogg
329,192,103449,1,0,0:0:0:100:D6OGG.ogg
182,192,103449,1,0,0:0:0:100:E5OGG.ogg
109,192,103824,1,0,0:0:0:100:B4OGG.ogg
109,192,104199,1,0,0:0:0:100:B4OGG.ogg
182,192,104199,1,0,0:0:0:100:D5OGG.ogg
256,192,104574,1,0,0:0:0:100:F#5OGG.ogg
109,192,104949,1,0,0:0:0:100:B4OGG.ogg
329,192,105324,1,0,0:0:0:100:E6OGG.ogg
182,192,105324,1,0,0:0:0:100:D4OGG.ogg
36,192,105324,1,0,0:0:0:100:E4OGG.ogg
109,192,105699,1,0,0:0:0:100:B4OGG.ogg
402,192,106074,1,0,0:0:0:100:F#6OGG.ogg
182,192,106074,1,0,0:0:0:100:D5OGG.ogg
475,192,106449,1,0,0:0:0:100:G6OGG.ogg
256,192,106449,1,0,0:0:0:100:G5OGG.ogg
329,192,107199,1,0,0:0:0:100:E6OGG.ogg
109,192,107199,1,0,0:0:0:100:B4OGG.ogg
402,192,107574,1,0,0:0:0:100:G6OGG.ogg
182,192,107574,1,0,0:0:0:100:E5OGG.ogg
475,192,107949,1,0,0:0:0:100:B6OGG.ogg
256,192,107949,1,0,0:0:0:100:G5OGG.ogg
329,192,108277,1,0,0:0:0:100:C#7OGG.ogg
402,192,108324,1,0,0:0:0:100:D7OGG.ogg
36,192,108324,1,0,0:0:0:100:A4OGG.ogg
36,192,108699,1,0,0:0:0:100:A4OGG.ogg
182,192,109074,1,0,0:0:0:100:E5OGG.ogg
329,192,109449,1,0,0:0:0:100:C#7OGG.ogg
256,192,109449,1,0,0:0:0:100:G5OGG.ogg
182,192,110199,1,0,0:0:0:100:E5OGG.ogg
36,192,110574,1,0,0:0:0:100:A4OGG.ogg
329,192,110949,1,0,0:0:0:100:F#6OGG.ogg
402,192,111137,1,0,0:0:0:100:G6OGG.ogg
182,192,111324,1,0,0:0:0:100:D5OGG.ogg
475,192,111324,1,0,0:0:0:100:A6OGG.ogg
256,192,111324,1,0,0:0:0:100:F#5OGG.ogg
109,192,111699,1,0,0:0:0:100:A4OGG.ogg
329,192,112074,1,0,0:0:0:100:F#6OGG.ogg
182,192,112074,1,0,0:0:0:100:E5OGG.ogg
402,192,112449,1,0,0:0:0:100:A6OGG.ogg
256,192,112449,1,0,0:0:0:100:F#5OGG.ogg
109,192,113199,1,0,0:0:0:100:A4OGG.ogg
475,192,113199,1,0,0:0:0:100:D7OGG.ogg
182,192,113574,1,0,0:0:0:100:E5OGG.ogg
256,192,113949,1,0,0:0:0:100:F#5OGG.ogg
475,192,113949,1,0,0:0:0:100:D7OGG.ogg
182,192,114324,1,0,0:0:0:100:E5OGG.ogg
109,192,114324,1,0,0:0:0:100:C#5OGG.ogg
402,192,114324,1,0,0:0:0:100:C#7OGG.ogg
36,192,114699,1,0,0:0:0:100:A4OGG.ogg
109,192,115074,1,0,0:0:0:100:C#5OGG.ogg
329,192,115074,1,0,0:0:0:100:A6OGG.ogg
256,192,115449,1,0,0:0:0:100:F#6OGG.ogg
182,192,115449,1,0,0:0:0:100:E5OGG.ogg
36,192,116199,1,0,0:0:0:100:A4OGG.ogg
182,192,116574,1,0,0:0:0:100:E5OGG.ogg
36,192,116949,1,0,0:0:0:100:A4OGG.ogg
329,192,116949,1,0,0:0:0:100:F#6OGG.ogg
402,192,117137,1,0,0:0:0:100:G6OGG.ogg
182,192,117324,1,0,0:0:0:100:D5OGG.ogg
256,192,117324,1,0,0:0:0:100:F#5OGG.ogg
475,192,117324,1,0,0:0:0:100:A6OGG.ogg
109,192,117699,1,0,0:0:0:100:A4OGG.ogg
182,192,118074,1,0,0:0:0:100:E5OGG.ogg
329,192,118074,1,0,0:0:0:100:F#6OGG.ogg
256,192,118449,1,0,0:0:0:100:F#5OGG.ogg
402,192,118449,1,0,0:0:0:100:A6OGG.ogg
475,192,119199,1,0,0:0:0:100:D7OGG.ogg
109,192,119199,1,0,0:0:0:100:A4OGG.ogg
182,192,119574,1,0,0:0:0:100:E5OGG.ogg
256,192,119949,1,0,0:0:0:100:F#5OGG.ogg
475,192,119949,1,0,0:0:0:100:D7OGG.ogg
402,192,120324,1,0,0:0:0:100:C7OGG.ogg
36,192,120324,1,0,0:0:0:100:A4OGG.ogg
109,192,120699,1,0,0:0:0:100:C5OGG.ogg
475,192,121074,1,0,0:0:0:100:D7OGG.ogg
182,192,121074,1,0,0:0:0:100:E5OGG.ogg
402,192,121449,1,0,0:0:0:100:E7OGG.ogg
256,192,121449,1,0,0:0:0:100:G5OGG.ogg
109,192,121449,1,0,0:0:0:100:D5OGG.ogg
402,192,122152,1,0,0:0:0:100:E7OGG.ogg
329,192,122199,1,0,0:0:0:100:F#7OGG.ogg
109,192,122199,1,0,0:0:0:100:D5OGG.ogg
182,192,122199,1,0,0:0:0:100:F#5OGG.ogg
36,192,122574,1,0,0:0:0:100:A3OGG.ogg
329,192,123324,1,0,0:0:0:100:B6OGG.ogg
182,192,123324,1,0,0:0:0:100:D5OGG.ogg
256,192,123324,1,0,0:0:0:100:F#5OGG.ogg
109,192,123699,1,0,0:0:0:100:B4OGG.ogg
402,192,124074,1,0,0:0:0:100:C#7OGG.ogg
182,192,124074,1,0,0:0:0:100:D5OGG.ogg
475,192,124449,1,0,0:0:0:100:D7OGG.ogg
256,192,124449,1,0,0:0:0:100:F#5OGG.ogg
109,192,125199,1,0,0:0:0:100:B4OGG.ogg
182,192,125574,1,0,0:0:0:100:D5OGG.ogg
256,192,125949,1,0,0:0:0:100:F#5OGG.ogg
329,192,126324,1,0,0:0:0:100:A6OGG.ogg
109,192,126324,1,0,0:0:0:100:C#5OGG.ogg
182,192,126324,1,0,0:0:0:100:E5OGG.ogg
36,192,126699,1,0,0:0:0:100:A4OGG.ogg
402,192,127074,1,0,0:0:0:100:C#7OGG.ogg
109,192,127074,1,0,0:0:0:100:C#5OGG.ogg
475,192,127449,1,0,0:0:0:100:D7OGG.ogg
182,192,127449,1,0,0:0:0:100:E5OGG.ogg
109,192,127824,1,0,0:0:0:100:B4OGG.ogg
182,192,128199,1,0,0:0:0:100:D5OGG.ogg
109,192,128199,1,0,0:0:0:100:B4OGG.ogg
256,192,128574,1,0,0:0:0:100:F#5OGG.ogg
109,192,128949,1,0,0:0:0:100:B4OGG.ogg
329,192,129324,1,0,0:0:0:100:G6OGG.ogg
36,192,129324,1,0,0:0:0:100:E4OGG.ogg
182,192,129324,1,0,0:0:0:100:D4OGG.ogg
109,192,129699,1,0,0:0:0:100:B4OGG.ogg
402,192,130074,1,0,0:0:0:100:A6OGG.ogg
182,192,130074,1,0,0:0:0:100:D5OGG.ogg
475,192,130449,1,0,0:0:0:100:B6OGG.ogg
256,192,130449,1,0,0:0:0:100:G5OGG.ogg
256,192,131199,1,0,0:0:0:100:E6OGG.ogg
109,192,131199,1,0,0:0:0:100:B4OGG.ogg
329,192,131574,1,0,0:0:0:100:G6OGG.ogg
182,192,131574,1,0,0:0:0:100:E5OGG.ogg
402,192,131949,1,0,0:0:0:100:B6OGG.ogg
256,192,131949,1,0,0:0:0:100:G5OGG.ogg
475,192,132324,1,0,0:0:0:100:D7OGG.ogg
36,192,132324,1,0,0:0:0:100:A4OGG.ogg
109,192,132324,1,0,0:0:0:100:A4OGG.ogg
36,192,132699,1,0,0:0:0:100:A4OGG.ogg
182,192,133074,1,0,0:0:0:100:E5OGG.ogg
402,192,133449,1,0,0:0:0:100:C#7OGG.ogg
256,192,133449,1,0,0:0:0:100:G5OGG.ogg
329,192,134199,1,0,0:0:0:100:B6OGG.ogg
182,192,134199,1,0,0:0:0:100:E5OGG.ogg
402,192,134574,1,0,0:0:0:100:C#7OGG.ogg
36,192,134574,1,0,0:0:0:100:A4OGG.ogg
36,192,135324,1,0,0:0:0:100:D6OGG.ogg
182,192,135371,1,0,0:0:0:100:F#6OGG.ogg
329,192,135418,1,0,0:0:0:100:A6OGG.ogg
475,192,135465,1,0,0:0:0:100:D7OGG.ogg
