osu file format v12

[General]
AudioFilename: ranman _Piano Version.mp3
AudioLeadIn: 1996
PreviewTime: 87324
Countdown: 0
SampleSet: Normal
StackLeniency: 0.7
Mode: 3
LetterboxInBreaks: 1

[Editor]
DistanceSpacing: 0.8
BeatDivisor: 4
GridSize: 8

[Metadata]
Title:Mecha Koi Ranman* (Piano Ver.)
TitleUnicode:メチャ恋らんまん☆ (Piano Ver.)
Artist:Famishin
ArtistUnicode:Famishin
Creator:TOKI
Version:4K NM
Source:Tenshin Ranman
Tags:happy go lucky!? yuzu soft opening
BeatmapID:243830
BeatmapSetID:85930

[Difficulty]
HPDrainRate:5
CircleSize:4
OverallDifficulty:8
ApproachRate:5
SliderMultiplier:1.4
SliderTickRate:1

[Events]
//Background and Video events
0,0,"Konachan.com - 93181 blue_hair game_cg kobuichi muririn night rindou_ruri short_hair tenshinranman.jpg",1,1
//Break Periods
//Storyboard Layer 0 (Background)
//Storyboard Layer 1 (Fail)
//Storyboard Layer 2 (Pass)
//Storyboard Layer 3 (Foreground)
//Storyboard Sound Samples
Sample,10449,0,"A2OGG.ogg",100
Sample,10449,0,"B4OGG.ogg",100
Sample,10449,0,"A4OGG.ogg",100
Sample,12324,0,"D5OGG.ogg",100
Sample,12699,0,"A4OGG.ogg",100
Sample,13074,0,"E5OGG.ogg",100
Sample,13449,0,"F#5OGG.ogg",100
Sample,14199,0,"A4OGG.ogg",100
Sample,14574,0,"E5OGG.ogg",100
Sample,14949,0,"A4OGG.ogg",100
Sample,15324,0,"D5OGG.ogg",100
Sample,18324,0,"D5OGG.ogg",100
Sample,18699,0,"A4OGG.ogg",100
Sample,19074,0,"E5OGG.ogg",100
Sample,19449,0,"F#5OGG.ogg",100
Sample,20199,0,"A4OGG.ogg",100
Sample,20574,0,"E5OGG.ogg",100
Sample,20949,0,"A4OGG.ogg",100
Sample,21324,0,"E5OGG.ogg",100
Sample,24324,0,"A3OGG.ogg",100
Sample,24699,0,"A4OGG.ogg",100
Sample,25074,0,"E5OGG.ogg",100
Sample,25449,0,"G5OGG.ogg",100
Sample,26199,0,"C#5OGG.ogg",100
Sample,26574,0,"E5OGG.ogg",100
Sample,26949,0,"A4OGG.ogg",100
Sample,27324,0,"F#3OGG.ogg",100
Sample,27699,0,"A4OGG.ogg",100
Sample,28074,0,"E5OGG.ogg",100
Sample,28449,0,"A4OGG.ogg",100
Sample,28824,0,"B3OGG.ogg",100
Sample,29199,0,"B4OGG.ogg",100
Sample,29574,0,"F#5OGG.ogg",100
Sample,29949,0,"D5OGG.ogg",100
Sample,30324,0,"E4OGG.ogg",100
Sample,30699,0,"B4OGG.ogg",100
Sample,31074,0,"F#5OGG.ogg",100
Sample,31449,0,"G5OGG.ogg",100
Sample,32199,0,"B4OGG.ogg",100
Sample,32574,0,"E5OGG.ogg",100
Sample,32949,0,"B4OGG.ogg",100
Sample,36324,0,"D5OGG.ogg",100
Sample,36699,0,"A4OGG.ogg",100
Sample,37074,0,"E5OGG.ogg",100
Sample,37449,0,"F#5OGG.ogg",100
Sample,38199,0,"A4OGG.ogg",100
Sample,38574,0,"E5OGG.ogg",100
Sample,38949,0,"A4OGG.ogg",100
Sample,33324,0,"A3OGG.ogg",100
Sample,39324,0,"D5OGG.ogg",100
Sample,42324,0,"D5OGG.ogg",100
Sample,42699,0,"A4OGG.ogg",100
Sample,43074,0,"E5OGG.ogg",100
Sample,43449,0,"F#5OGG.ogg",100
Sample,44199,0,"A4OGG.ogg",100
Sample,44574,0,"E5OGG.ogg",100
Sample,44949,0,"A4OGG.ogg",100
Sample,45324,0,"E5OGG.ogg",100
Sample,48324,0,"A3OGG.ogg",100
Sample,48699,0,"A4OGG.ogg",100
Sample,49074,0,"E5OGG.ogg",100
Sample,49449,0,"A4OGG.ogg",100
Sample,50199,0,"C#5OGG.ogg",100
Sample,50574,0,"E5OGG.ogg",100
Sample,50949,0,"C#5OGG.ogg",100
Sample,51324,0,"B3OGG.ogg",100
Sample,51699,0,"B4OGG.ogg",100
Sample,52074,0,"D5OGG.ogg",100
Sample,52449,0,"B4OGG.ogg",100
Sample,52730,0,"F#5OGG.ogg",100
Sample,52777,0,"B5OGG.ogg",100
Sample,53199,0,"B4OGG.ogg",100
Sample,53574,0,"D5OGG.ogg",100
Sample,53949,0,"B4OGG.ogg",100
Sample,54324,0,"E4OGG.ogg",100
Sample,54324,0,"E5OGG.ogg",100
Sample,54699,0,"B4OGG.ogg",100
Sample,55074,0,"D5OGG.ogg",100
Sample,55449,0,"G5OGG.ogg",100
Sample,55824,0,"A3OGG.ogg",100
Sample,56199,0,"A4OGG.ogg",100
Sample,56574,0,"E5OGG.ogg",100
Sample,56949,0,"G5OGG.ogg",100
Sample,57324,0,"D5OGG.ogg",100
Sample,60324,0,"G4OGG.ogg",100
Sample,60324,0,"B4OGG.ogg",100
Sample,62574,0,"G4OGG.ogg",100
Sample,63324,0,"C#5OGG.ogg",100
Sample,63324,0,"E5OGG.ogg",100
Sample,65574,0,"C#5OGG.ogg",100
Sample,66324,0,"E4OGG.ogg",100
Sample,66324,0,"B4OGG.ogg",100
Sample,67824,0,"G4OGG.ogg",100
Sample,67824,0,"C#5OGG.ogg",100
Sample,69324,0,"A4OGG.ogg",100
Sample,69324,0,"C#5OGG.ogg",100
Sample,70449,0,"B4OGG.ogg",100
Sample,72324,0,"B4OGG.ogg",100
Sample,72324,0,"E4OGG.ogg",100
Sample,74574,0,"E4OGG.ogg",100
Sample,75324,0,"C#5OGG.ogg",100
Sample,75324,0,"E5OGG.ogg",100
Sample,77574,0,"C#5OGG.ogg",100
Sample,78324,0,"G4OGG.ogg",100
Sample,78324,0,"B4OGG.ogg",100
Sample,79824,0,"B4OGG.ogg",100
Sample,79824,0,"G#4OGG.ogg",100
Sample,81324,0,"A4OGG.ogg",100
Sample,81324,0,"D5OGG.ogg",100
Sample,82449,0,"A4OGG.ogg",100
Sample,83574,0,"A4OGG.ogg",100
Sample,84324,0,"A4OGG.ogg",100
Sample,87699,0,"A4OGG.ogg",100
Sample,88074,0,"E5OGG.ogg",100
Sample,88449,0,"F#5OGG.ogg",100
Sample,87324,0,"D5OGG.ogg",100
Sample,89199,0,"A4OGG.ogg",100
Sample,89574,0,"E5OGG.ogg",100
Sample,89949,0,"F#5OGG.ogg",100
Sample,90324,0,"C#5OGG.ogg",100
Sample,90699,0,"A4OGG.ogg",100
Sample,91074,0,"C#5OGG.ogg",100
Sample,91449,0,"E5OGG.ogg",100
Sample,93324,0,"D5OGG.ogg",100
Sample,93699,0,"A4OGG.ogg",100
Sample,94074,0,"E5OGG.ogg",100
Sample,94449,0,"F#5OGG.ogg",100
Sample,95199,0,"A4OGG.ogg",100
Sample,95574,0,"E5OGG.ogg",100
Sample,95949,0,"F#5OGG.ogg",100
Sample,96324,0,"A4OGG.ogg",100
Sample,96699,0,"C5OGG.ogg",100
Sample,97074,0,"E5OGG.ogg",100
Sample,97449,0,"D5OGG.ogg",100
Sample,99324,0,"D5OGG.ogg",100
Sample,99699,0,"B4OGG.ogg",100
Sample,100074,0,"D5OGG.ogg",100
Sample,100449,0,"F#5OGG.ogg",100
Sample,101199,0,"B4OGG.ogg",100
Sample,101574,0,"D5OGG.ogg",100
Sample,101949,0,"F#5OGG.ogg",100
Sample,102324,0,"C#5OGG.ogg",100
Sample,102699,0,"A4OGG.ogg",100
Sample,103074,0,"C#5OGG.ogg",100
Sample,103449,0,"D5OGG.ogg",100
Sample,105699,0,"B4OGG.ogg",100
Sample,106074,0,"D5OGG.ogg",100
Sample,106449,0,"G5OGG.ogg",100
Sample,107199,0,"B4OGG.ogg",100
Sample,107574,0,"E5OGG.ogg",100
Sample,107949,0,"G5OGG.ogg",100
Sample,108324,0,"A3OGG.ogg",100
Sample,111324,0,"D5OGG.ogg",100
Sample,111699,0,"A4OGG.ogg",100
Sample,112074,0,"E5OGG.ogg",100
Sample,112449,0,"F#5OGG.ogg",100
Sample,113199,0,"A4OGG.ogg",100
Sample,113574,0,"E5OGG.ogg",100
Sample,113949,0,"F#5OGG.ogg",100
Sample,114324,0,"C#5OGG.ogg",100
Sample,114699,0,"A4OGG.ogg",100
Sample,115074,0,"C#5OGG.ogg",100
Sample,115449,0,"E5OGG.ogg",100
Sample,117324,0,"D5OGG.ogg",100
Sample,117699,0,"A4OGG.ogg",100
Sample,118074,0,"E5OGG.ogg",100
Sample,118449,0,"F#5OGG.ogg",100
Sample,119199,0,"A4OGG.ogg",100
Sample,119574,0,"E5OGG.ogg",100
Sample,119949,0,"F#5OGG.ogg",100
Sample,120324,0,"A4OGG.ogg",100
Sample,120699,0,"C5OGG.ogg",100
Sample,121074,0,"E5OGG.ogg",100
Sample,121449,0,"D5OGG.ogg",100
Sample,122199,0,"D5OGG.ogg",100
Sample,122199,0,"F#5OGG.ogg",100
Sample,123324,0,"D5OGG.ogg",100
Sample,123699,0,"B4OGG.ogg",100
Sample,124074,0,"D5OGG.ogg",100
Sample,124449,0,"F#5OGG.ogg",100
Sample,126324,0,"C#5OGG.ogg",100
Sample,126699,0,"A4OGG.ogg",100
Sample,127074,0,"C#5OGG.ogg",100
Sample,127449,0,"E5OGG.ogg",100
Sample,129324,0,"D4OGG.ogg",100
Sample,129699,0,"B4OGG.ogg",100
Sample,130074,0,"D5OGG.ogg",100
Sample,130449,0,"G5OGG.ogg",100
Sample,131199,0,"B4OGG.ogg",100
Sample,131574,0,"E5OGG.ogg",100
Sample,131949,0,"G5OGG.ogg",100
Sample,132324,0,"A3OGG.ogg",100
Sample,132699,0,"A4OGG.ogg",100
Sample,133074,0,"E5OGG.ogg",100
Sample,133449,0,"G5OGG.ogg",100
Sample,134199,0,"E5OGG.ogg",100
Sample,134574,0,"A4OGG.ogg",100
Sample,92199,0,"A4OGG.ogg",100
Sample,92574,0,"E5OGG.ogg",100
Sample,92949,0,"A4OGG.ogg",100
Sample,116199,0,"A4OGG.ogg",100
Sample,116949,0,"A4OGG.ogg",100
Sample,116574,0,"E5OGG.ogg",100
//Background Colour Transformations
3,100,163,162,255

[TimingPoints]
324.143573618604,750.004323716748,4,1,0,100,1,0

[HitObjects]
192,192,324,1,0,0:0:0:100:D5OGG.ogg
96,192,699,1,0,0:0:0:100:A4OGG.ogg
329,192,1074,1,0,0:0:0:100:E5OGG.ogg
402,192,1449,1,0,0:0:0:100:F#5OGG.ogg
96,192,2199,1,0,0:0:0:100:A4OGG.ogg
256,192,2574,1,0,0:0:0:100:D5OGG.ogg
96,192,2949,1,0,0:0:0:100:A4OGG.ogg
256,192,3324,1,0,0:0:0:100:D5OGG.ogg
160,192,3699,1,0,0:0:0:100:B4OGG.ogg
402,192,4074,1,0,0:0:0:100:F#5OGG.ogg
64,192,4449,1,0,0:0:0:100:G5OGG.ogg
160,192,5199,1,0,0:0:0:100:B4OGG.ogg
448,192,5574,1,0,0:0:0:100:E5OGG.ogg
160,192,5949,1,0,0:0:0:100:B4OGG.ogg
256,192,6324,1,0,0:0:0:100:D5OGG.ogg
224,192,6699,1,0,0:0:0:100:C#5OGG.ogg
448,192,7074,1,0,0:0:0:100:E5OGG.ogg
64,192,7449,1,0,0:0:0:100:A5OGG.ogg
320,192,8199,1,0,0:0:0:100:C#5OGG.ogg
448,192,8574,1,0,0:0:0:100:E5OGG.ogg
64,192,8949,1,0,0:0:0:100:A4OGG.ogg
192,192,9324,1,0,0:0:0:100:D5OGG.ogg
64,192,9699,1,0,0:0:0:100:B4OGG.ogg
320,192,10074,1,0,0:0:0:100:F#5OGG.ogg
475,192,10449,1,0,0:0:0:100:G5OGG.ogg
64,192,10449,1,0,0:0:0:100:D5OGG.ogg
475,192,12324,1,0,0:0:0:100:F#6OGG.ogg
64,192,12699,1,0,0:0:0:100:D6OGG.ogg
192,192,13074,1,0,0:0:0:100:E6OGG.ogg
320,192,13449,1,0,0:0:0:100:F#6OGG.ogg
475,192,13636,1,0,0:0:0:100:G6OGG.ogg
402,192,14199,1,0,0:0:0:100:F#6OGG.ogg
320,192,14574,1,0,0:0:0:100:E6OGG.ogg
402,192,14949,1,0,0:0:0:100:F#6OGG.ogg
192,192,15324,1,0,0:0:0:100:A5OGG.ogg
96,192,15699,1,0,0:0:0:100:A4OGG.ogg
224,192,16074,1,0,0:0:0:100:E5OGG.ogg
256,192,16449,1,0,0:0:0:100:F#5OGG.ogg
96,192,17199,1,0,0:0:0:100:A4OGG.ogg
160,192,17574,1,0,0:0:0:100:D5OGG.ogg
96,192,17949,1,0,0:0:0:100:A4OGG.ogg
402,192,18324,1,0,0:0:0:100:F#6OGG.ogg
64,192,18699,1,0,0:0:0:100:D6OGG.ogg
192,192,19074,1,0,0:0:0:100:E6OGG.ogg
320,192,19449,1,0,0:0:0:100:F#6OGG.ogg
475,192,19636,1,0,0:0:0:100:G6OGG.ogg
320,192,20199,1,0,0:0:0:100:F#6OGG.ogg
192,192,20574,1,0,0:0:0:100:E6OGG.ogg
64,192,20949,1,0,0:0:0:100:D6OGG.ogg
192,192,21324,1,0,0:0:0:100:E6OGG.ogg
96,192,21699,1,0,0:0:0:100:B4OGG.ogg
320,192,22074,1,0,0:0:0:100:F#5OGG.ogg
448,192,22449,1,0,0:0:0:100:G5OGG.ogg
96,192,23199,1,0,0:0:0:100:B4OGG.ogg
320,192,23574,1,0,0:0:0:100:E5OGG.ogg
96,192,23949,1,0,0:0:0:100:B4OGG.ogg
320,192,24324,1,0,0:0:0:100:G6OGG.ogg
192,192,24699,1,0,0:0:0:100:E6OGG.ogg
448,192,25074,1,0,0:0:0:100:F#6OGG.ogg
192,192,25449,1,0,0:0:0:100:G6OGG.ogg
64,192,25636,1,0,0:0:0:100:A6OGG.ogg
320,192,26199,1,0,0:0:0:100:G6OGG.ogg
448,192,26574,1,0,0:0:0:100:F#6OGG.ogg
320,192,26949,1,0,0:0:0:100:G6OGG.ogg
448,192,27324,1,0,0:0:0:100:F#6OGG.ogg
320,192,28074,1,0,0:0:0:100:E6OGG.ogg
192,192,28824,1,0,0:0:0:100:D6OGG.ogg
64,192,29949,1,0,0:0:0:100:B5OGG.ogg
192,192,30136,1,0,0:0:0:100:C#6OGG.ogg
320,192,30324,1,0,0:0:0:100:D6OGG.ogg
320,192,31449,1,0,0:0:0:100:D6OGG.ogg
320,192,32199,1,0,0:0:0:100:D6OGG.ogg
192,192,32574,1,0,0:0:0:100:C#6OGG.ogg
320,192,32949,1,0,0:0:0:100:D6OGG.ogg
475,192,33324,1,0,0:0:0:100:E6OGG.ogg
109,192,33699,1,0,0:0:0:100:A4OGG.ogg
320,192,34074,1,0,0:0:0:100:E5OGG.ogg
448,192,34449,1,0,0:0:0:100:G5OGG.ogg
320,192,35199,1,0,0:0:0:100:E5OGG.ogg
160,192,35574,1,0,0:0:0:100:C#5OGG.ogg
96,192,35949,1,0,0:0:0:100:A4OGG.ogg
475,192,36324,1,0,0:0:0:100:F#6OGG.ogg
64,192,36699,1,0,0:0:0:100:D6OGG.ogg
192,192,37074,1,0,0:0:0:100:E6OGG.ogg
320,192,37449,1,0,0:0:0:100:F#6OGG.ogg
475,192,37636,1,0,0:0:0:100:G6OGG.ogg
448,192,38199,1,0,0:0:0:100:F#6OGG.ogg
320,192,38574,1,0,0:0:0:100:E6OGG.ogg
448,192,38949,1,0,0:0:0:100:F#6OGG.ogg
192,192,39324,1,0,0:0:0:100:A5OGG.ogg
96,192,39699,1,0,0:0:0:100:A4OGG.ogg
160,192,40074,1,0,0:0:0:100:E5OGG.ogg
320,192,40449,1,0,0:0:0:100:F#5OGG.ogg
96,192,41199,1,0,0:0:0:100:A4OGG.ogg
160,192,41574,1,0,0:0:0:100:D5OGG.ogg
96,192,41949,1,0,0:0:0:100:A4OGG.ogg
402,192,42324,1,0,0:0:0:100:F#6OGG.ogg
64,192,42699,1,0,0:0:0:100:D6OGG.ogg
192,192,43074,1,0,0:0:0:100:E6OGG.ogg
320,192,43449,1,0,0:0:0:100:F#6OGG.ogg
475,192,43636,1,0,0:0:0:100:G6OGG.ogg
402,192,44199,1,0,0:0:0:100:F#6OGG.ogg
329,192,44574,1,0,0:0:0:100:E6OGG.ogg
192,192,44949,1,0,0:0:0:100:D6OGG.ogg
329,192,45324,1,0,0:0:0:100:E6OGG.ogg
96,192,45699,1,0,0:0:0:100:B4OGG.ogg
320,192,46074,1,0,0:0:0:100:F#5OGG.ogg
448,192,46449,1,0,0:0:0:100:G5OGG.ogg
96,192,47199,1,0,0:0:0:100:B4OGG.ogg
320,192,47574,1,0,0:0:0:100:E5OGG.ogg
96,192,47949,1,0,0:0:0:100:B4OGG.ogg
192,192,48324,1,0,0:0:0:100:G6OGG.ogg
448,192,48699,1,0,0:0:0:100:E6OGG.ogg
64,192,49074,1,0,0:0:0:100:F#6OGG.ogg
320,192,49449,1,0,0:0:0:100:G6OGG.ogg
448,192,49636,1,0,0:0:0:100:A6OGG.ogg
64,192,49824,1,0,0:0:0:100:A#3OGG.ogg
448,192,50199,1,0,0:0:0:100:G6OGG.ogg
320,192,50574,1,0,0:0:0:100:F#6OGG.ogg
402,192,50949,1,0,0:0:0:100:G6OGG.ogg
320,192,51324,1,0,0:0:0:100:F#6OGG.ogg
192,192,52074,1,0,0:0:0:100:E6OGG.ogg
64,192,52824,1,0,0:0:0:100:D6OGG.ogg
64,192,53949,1,0,0:0:0:100:B5OGG.ogg
192,192,54136,1,0,0:0:0:100:C#6OGG.ogg
320,192,54324,1,0,0:0:0:100:D6OGG.ogg
320,192,55449,1,0,0:0:0:100:D6OGG.ogg
475,192,55824,1,0,0:0:0:100:G6OGG.ogg
320,192,56199,1,0,0:0:0:100:F#6OGG.ogg
192,192,56574,1,0,0:0:0:100:E6OGG.ogg
320,192,56949,1,0,0:0:0:100:F#6OGG.ogg
64,192,57324,1,0,0:0:0:100:D6OGG.ogg
96,192,57699,1,0,0:0:0:100:A4OGG.ogg
182,192,58074,1,0,0:0:0:100:E5OGG.ogg
448,192,58449,1,0,0:0:0:100:G5OGG.ogg
109,192,58824,1,0,0:0:0:100:D5OGG.ogg
320,192,58824,1,0,0:0:0:100:F#5OGG.ogg
32,192,59574,1,0,0:0:0:70:A3OGG.ogg
192,192,60324,1,0,0:0:0:100:D5OGG.ogg
480,192,60324,1,0,0:0:0:100:D6OGG.ogg
475,192,61449,1,0,0:0:0:100:E6OGG.ogg
320,192,61636,1,0,0:0:0:100:D6OGG.ogg
224,192,62574,1,0,0:0:0:100:B4OGG.ogg
448,192,62574,1,0,0:0:0:100:D5OGG.ogg
64,192,62949,1,0,0:0:0:100:B5OGG.ogg
192,192,63137,1,0,0:0:0:100:C#6OGG.ogg
64,192,63324,1,0,0:0:0:100:A5OGG.ogg
320,192,63324,1,0,0:0:0:100:D6OGG.ogg
320,192,64449,1,0,0:0:0:100:E6OGG.ogg
475,192,64637,1,0,0:0:0:100:F#6OGG.ogg
320,192,65574,1,0,0:0:0:100:A5OGG.ogg
64,192,65574,1,0,0:0:0:100:E5OGG.ogg
192,192,65949,1,0,0:0:0:100:B5OGG.ogg
320,192,66137,1,0,0:0:0:100:C#6OGG.ogg
64,192,66324,1,0,0:0:0:100:D5OGG.ogg
475,192,66324,1,0,0:0:0:100:D6OGG.ogg
475,192,67449,1,0,0:0:0:100:D6OGG.ogg
192,192,67824,1,0,0:0:0:100:E5OGG.ogg
475,192,67824,1,0,0:0:0:100:G6OGG.ogg
320,192,68199,1,0,0:0:0:100:F#6OGG.ogg
192,192,68574,1,0,0:0:0:100:E6OGG.ogg
320,192,68949,1,0,0:0:0:100:F#6OGG.ogg
64,192,69324,1,0,0:0:0:100:F#5OGG.ogg
192,192,69324,1,0,0:0:0:100:A5OGG.ogg
96,192,69699,1,0,0:0:0:100:A4OGG.ogg
160,192,70074,1,0,0:0:0:100:C#5OGG.ogg
448,192,70449,1,0,0:0:0:100:E5OGG.ogg
320,192,70449,1,0,0:0:0:100:C#5OGG.ogg
320,192,71199,1,0,0:0:0:100:D#5OGG.ogg
192,192,71199,1,0,0:0:0:100:B4OGG.ogg
36,192,71574,1,0,0:0:0:100:B3OGG.ogg
64,192,72324,1,0,0:0:0:100:G5OGG.ogg
402,192,72324,1,0,0:0:0:100:D6OGG.ogg
475,192,73449,1,0,0:0:0:100:E6OGG.ogg
320,192,73637,1,0,0:0:0:100:D6OGG.ogg
64,192,74574,1,0,0:0:0:100:B4OGG.ogg
448,192,74574,1,0,0:0:0:100:G5OGG.ogg
192,192,74949,1,0,0:0:0:100:B5OGG.ogg
320,192,75137,1,0,0:0:0:100:C#6OGG.ogg
475,192,75324,1,0,0:0:0:100:D6OGG.ogg
192,192,75324,1,0,0:0:0:100:A5OGG.ogg
320,192,76449,1,0,0:0:0:100:E6OGG.ogg
475,192,76637,1,0,0:0:0:100:F#6OGG.ogg
448,192,77574,1,0,0:0:0:100:A5OGG.ogg
192,192,77574,1,0,0:0:0:100:E5OGG.ogg
320,192,77949,1,0,0:0:0:100:F#6OGG.ogg
475,192,78137,1,0,0:0:0:100:G6OGG.ogg
64,192,78324,1,0,0:0:0:100:D5OGG.ogg
320,192,78324,1,0,0:0:0:100:F#6OGG.ogg
192,192,78887,1,0,0:0:0:100:E6OGG.ogg
64,192,79449,1,0,0:0:0:100:D6OGG.ogg
64,192,79824,1,0,0:0:0:100:D5OGG.ogg
192,192,79824,1,0,0:0:0:100:E6OGG.ogg
475,192,80574,1,0,0:0:0:100:B6OGG.ogg
192,192,81324,1,0,0:0:0:100:E5OGG.ogg
320,192,81324,1,0,0:0:0:100:A6OGG.ogg
96,192,81699,1,0,0:0:0:100:G4OGG.ogg
224,192,82074,1,0,0:0:0:100:B4OGG.ogg
329,192,82449,1,0,0:0:0:100:E5OGG.ogg
192,192,82449,1,0,0:0:0:100:D5OGG.ogg
96,192,83199,1,0,0:0:0:100:G4OGG.ogg
329,192,83574,1,0,0:0:0:100:E5OGG.ogg
192,192,83574,1,0,0:0:0:100:D5OGG.ogg
320,192,84324,1,0,0:0:0:100:E5OGG.ogg
64,192,84324,1,0,0:0:0:100:C#5OGG.ogg
192,192,86949,1,0,0:0:0:100:F#6OGG.ogg
320,192,87137,1,0,0:0:0:100:G6OGG.ogg
64,192,87324,1,0,0:0:0:100:F#5OGG.ogg
475,192,87324,1,0,0:0:0:100:A6OGG.ogg
329,192,88074,1,0,0:0:0:100:F#6OGG.ogg
402,192,88449,1,0,0:0:0:100:A6OGG.ogg
64,192,89199,1,0,0:0:0:100:D7OGG.ogg
64,192,89949,1,0,0:0:0:100:D7OGG.ogg
402,192,90324,1,0,0:0:0:100:C#7OGG.ogg
224,192,90324,1,0,0:0:0:100:E5OGG.ogg
329,192,91074,1,0,0:0:0:100:A6OGG.ogg
192,192,91449,1,0,0:0:0:100:F#6OGG.ogg
192,192,92949,1,0,0:0:0:100:F#6OGG.ogg
320,192,93137,1,0,0:0:0:100:G6OGG.ogg
64,192,93324,1,0,0:0:0:100:F#5OGG.ogg
475,192,93324,1,0,0:0:0:100:A6OGG.ogg
329,192,94074,1,0,0:0:0:100:F#6OGG.ogg
402,192,94449,1,0,0:0:0:100:A6OGG.ogg
64,192,95199,1,0,0:0:0:100:D7OGG.ogg
64,192,95949,1,0,0:0:0:100:D7OGG.ogg
192,192,96324,1,0,0:0:0:100:G5OGG.ogg
402,192,96324,1,0,0:0:0:100:E7OGG.ogg
320,192,97074,1,0,0:0:0:100:C7OGG.ogg
402,192,97449,1,0,0:0:0:100:A6OGG.ogg
64,192,97449,1,0,0:0:0:100:G5OGG.ogg
320,192,98199,1,0,0:0:0:100:F#5OGG.ogg
192,192,98199,1,0,0:0:0:100:D5OGG.ogg
64,192,98574,1,0,0:0:0:100:A3OGG.ogg
64,192,99324,1,0,0:0:0:100:F#5OGG.ogg
320,192,99324,1,0,0:0:0:100:G6OGG.ogg
192,192,100074,1,0,0:0:0:100:A6OGG.ogg
64,192,100449,1,0,0:0:0:100:B6OGG.ogg
329,192,101199,1,0,0:0:0:100:G6OGG.ogg
192,192,101574,1,0,0:0:0:100:A6OGG.ogg
64,192,101949,1,0,0:0:0:100:B6OGG.ogg
402,192,102324,1,0,0:0:0:100:A6OGG.ogg
192,192,102324,1,0,0:0:0:100:E5OGG.ogg
64,192,103074,1,0,0:0:0:100:B6OGG.ogg
448,192,103449,1,0,0:0:0:100:D6OGG.ogg
64,192,103824,1,0,0:0:0:100:B4OGG.ogg
320,192,104199,1,0,0:0:0:100:D5OGG.ogg
160,192,104199,1,0,0:0:0:100:B4OGG.ogg
448,192,104574,1,0,0:0:0:100:F#5OGG.ogg
160,192,104949,1,0,0:0:0:100:B4OGG.ogg
320,192,105324,1,0,0:0:0:100:E4OGG.ogg
448,192,105324,1,0,0:0:0:100:E6OGG.ogg
64,192,106074,1,0,0:0:0:100:F#6OGG.ogg
192,192,106449,1,0,0:0:0:100:G6OGG.ogg
320,192,107199,1,0,0:0:0:100:E6OGG.ogg
192,192,107574,1,0,0:0:0:100:G6OGG.ogg
64,192,107949,1,0,0:0:0:100:B6OGG.ogg
329,192,108277,1,0,0:0:0:100:C#7OGG.ogg
402,192,108324,1,0,0:0:0:100:D7OGG.ogg
96,192,108699,1,0,0:0:0:100:A4OGG.ogg
224,192,109074,1,0,0:0:0:100:E5OGG.ogg
320,192,109449,1,0,0:0:0:100:G5OGG.ogg
448,192,109449,1,0,0:0:0:100:C#7OGG.ogg
224,192,110199,1,0,0:0:0:100:E5OGG.ogg
96,192,110574,1,0,0:0:0:100:A4OGG.ogg
192,192,110949,1,0,0:0:0:100:F#6OGG.ogg
320,192,111137,1,0,0:0:0:100:G6OGG.ogg
475,192,111324,1,0,0:0:0:100:A6OGG.ogg
64,192,111324,1,0,0:0:0:100:F#5OGG.ogg
329,192,112074,1,0,0:0:0:100:F#6OGG.ogg
402,192,112449,1,0,0:0:0:100:A6OGG.ogg
64,192,113199,1,0,0:0:0:100:D7OGG.ogg
64,192,113949,1,0,0:0:0:100:D7OGG.ogg
402,192,114324,1,0,0:0:0:100:C#7OGG.ogg
192,192,114324,1,0,0:0:0:100:E5OGG.ogg
329,192,115074,1,0,0:0:0:100:A6OGG.ogg
64,192,115449,1,0,0:0:0:100:F#6OGG.ogg
192,192,116949,1,0,0:0:0:100:F#6OGG.ogg
320,192,117137,1,0,0:0:0:100:G6OGG.ogg
475,192,117324,1,0,0:0:0:100:A6OGG.ogg
64,192,117324,1,0,0:0:0:100:F#5OGG.ogg
329,192,118074,1,0,0:0:0:100:F#6OGG.ogg
402,192,118449,1,0,0:0:0:100:A6OGG.ogg
64,192,119199,1,0,0:0:0:100:D7OGG.ogg
64,192,119949,1,0,0:0:0:100:D7OGG.ogg
448,192,120324,1,0,0:0:0:100:C7OGG.ogg
64,192,121074,1,0,0:0:0:100:D7OGG.ogg
192,192,121449,1,0,0:0:0:100:G5OGG.ogg
320,192,121449,1,0,0:0:0:100:E7OGG.ogg
320,192,122152,1,0,0:0:0:100:E7OGG.ogg
448,192,122199,1,0,0:0:0:100:F#7OGG.ogg
36,192,122574,1,0,0:0:0:100:A3OGG.ogg
192,192,123324,1,0,0:0:0:100:B6OGG.ogg
320,192,123324,1,0,0:0:0:100:F#5OGG.ogg
320,192,124074,1,0,0:0:0:100:C#7OGG.ogg
475,192,124449,1,0,0:0:0:100:D7OGG.ogg
64,192,125199,1,0,0:0:0:100:B4OGG.ogg
320,192,125574,1,0,0:0:0:100:D5OGG.ogg
448,192,125949,1,0,0:0:0:100:F#5OGG.ogg
64,192,126324,1,0,0:0:0:100:E5OGG.ogg
320,192,126324,1,0,0:0:0:100:A6OGG.ogg
192,192,127074,1,0,0:0:0:100:C#7OGG.ogg
475,192,127449,1,0,0:0:0:100:D7OGG.ogg
64,192,127824,1,0,0:0:0:100:B4OGG.ogg
320,192,128199,1,0,0:0:0:100:D5OGG.ogg
192,192,128199,1,0,0:0:0:100:B4OGG.ogg
256,192,128574,1,0,0:0:0:100:F#5OGG.ogg
160,192,128949,1,0,0:0:0:100:B4OGG.ogg
320,192,129324,1,0,0:0:0:100:E4OGG.ogg
448,192,129324,1,0,0:0:0:100:G6OGG.ogg
64,192,130074,1,0,0:0:0:100:A6OGG.ogg
192,192,130449,1,0,0:0:0:100:B6OGG.ogg
64,192,131199,1,0,0:0:0:100:E6OGG.ogg
192,192,131574,1,0,0:0:0:100:G6OGG.ogg
320,192,131949,1,0,0:0:0:100:B6OGG.ogg
64,192,132324,1,0,0:0:0:100:A4OGG.ogg
475,192,132324,1,0,0:0:0:100:D7OGG.ogg
320,192,133449,1,0,0:0:0:100:C#7OGG.ogg
192,192,134199,1,0,0:0:0:100:B6OGG.ogg
320,192,134574,1,0,0:0:0:100:C#7OGG.ogg
96,192,135324,1,0,0:0:0:70:D4OGG.ogg
224,192,135371,1,0,0:0:0:70:F#6OGG.ogg
352,192,135418,1,0,0:0:0:70:A6OGG.ogg
480,192,135465,1,0,0:0:0:100:D7OGG.ogg
