osu file format v6

[General]
AudioFilename: Familymart@_@.MP3
AudioLeadIn: 0
PreviewTime: -1
Countdown: 1
SampleSet: Soft
StackLeniency: 0.7
Mode: 0
LetterboxInBreaks: 1

[Editor]
Bookmarks: 7714,63726,63916,100372,114043,138347
DistanceSpacing: 0.899999976158142
BeatDivisor: 4
GridSize: 8

[Metadata]
Title:FamilyMart Jingle
Artist:
Creator:deepsea
Version:Family Mart is Your Home
Source:
Tags:

[Difficulty]
HPDrainRate:5
CircleSize:5
OverallDifficulty:7
SliderMultiplier:1.6
SliderTickRate:1

[Events]
//Background and Video events
0,0,"O_O.jpg"
//Break Periods
2,88040,99472
//Storyboard Layer 0 (Background)
//Storyboard Layer 1 (Fail)
//Storyboard Layer 2 (Pass)
//Storyboard Layer 3 (Foreground)
Sprite,Foreground,Centre,"0.0\deepopipo.PNG",320,240 M,0,7334,7714,-149,133,426,133 S,0,8853,9233,1,1.4096 S,0,9233,9612,1.4096,1 S,0,9612,9992,1,1.36864 S,0,9992,10372,1.36864,1 R,0,13030,13790,-6.28736,0 S,0,10372,62018,1 R,0,13790,62018,0 S,0,62018,,1 F,0,62018,63537,1,0 S,0,62018,63537,1,0.1 R,0,62018,63537,0,12.576 M,0,7714,63916,426,133
Sprite,Foreground,Centre,"0.0\abraign.PNG",320,240 M,0,63537,63916,-149,133,427,133 S,0,65055,65435,1,1.376 S,0,65435,65815,1.376,1 S,0,65815,66195,1,1.424 S,0,66195,66574,1.424,1 S,0,66574,112144,1 F,0,112144,113663,0.84,0 S,0,112144,113663,1,0.1 R,0,112144,113663,0,12.576 M,0,63916,114095,427,133
Sprite,Foreground,Centre,"0.0\pureAlace.PNG",320,240 M,0,113716,114095,-147,134,426,133 S,0,115182,115562,1,1.376 S,0,115562,115942,1.376,1 S,0,115942,116321,1,1.384 S,0,116321,116701,1.384,1 S,0,116701,136448,1 S,0,136448,,1 F,0,136448,137967,1,0 S,0,136448,137967,1,0.1 R,0,136448,137967,0,12.56 M,0,114095,164602,426,133
Sprite,Foreground,Centre,"0.0\SOGALEMON.PNG",320,240 M,0,137967,138347,-146,133,426,133 S,0,139486,139866,1,1.4 S,0,139866,140245,1.4,1 S,0,140245,140625,1,1.424 S,0,140625,141005,1.424,1 M,0,138347,167207,426,133
//Storyboard Sound Samples
//Background Colour Transformations
3,100,163,162,255

[TimingPoints]
3537,379.746835443038,4,2,0,100,1,0
67904,-200,4,2,0,100,0,0
68283,-100,4,2,0,100,0,0
125815,-100,4,1,0,50,0,0
126195,-100,4,2,0,100,0,0
152777,-200,4,2,0,100,0,0
153347,-100,4,2,0,100,0,0
161131,-200,4,2,0,100,0,0
163980,-100,4,2,0,100,0,0

[Colours]
Combo1 : 70,153,255
Combo2 : 94,174,96
Combo3 : 232,232,232

[HitObjects]
256,192,7714,1,0
32,192,8473,1,2
256,192,9233,1,0
480,192,9992,1,2
256,64,10752,5,0
104,192,11131,1,2
256,320,11511,1,0
408,192,11891,1,2
165,101,12271,5,4
188,124,12366,1,0
210,146,12461,1,0
233,169,12555,1,0
256,192,12650,1,12
278,214,12745,1,0
301,237,12840,1,0
323,259,12935,1,0
346,282,13030,1,4
456,48,13790,6,0,B|448:104|408:120,1,80
360,80,14169,2,0,B|336:136|376:192,1,80
416,176,14549,2,0,B|416:224|376:272,1,80
328,264,14929,1,8
200,264,15309,6,0,B|136:232|144:200,1,80
176,160,15688,2,0,B|192:112|144:88,1,80
88,64,16068,1,0
88,192,16448,1,12
96,336,16828,6,0,B|56:296|64:248,1,80
128,264,17207,2,0,B|160:216|144:160,1,80
80,184,17587,2,0,B|40:144|48:96,1,80
104,80,17967,1,8
256,32,18347,6,0,B|288:72|256:128,1,80,0|0
232,160,18726,2,0,B|200:200|232:256,1,80
256,288,19106,2,0,B|288:328|256:384,1,80
256,288,19486,1,12
384,104,19866,6,0,B|448:112|480:160,1,80
384,104,20245,2,0,B|345:155|287:159,1,80
384,104,20625,2,0,B|358:44|384:-7,1,80
384,104,21005,1,8
392,280,21385,6,0,B|472:280|488:248,1,80
392,280,21764,2,0,B|312:280|296:312,1,80
392,280,22144,1,0
392,280,22524,1,12
128,104,22904,6,0,B|64:112|32:160,1,80
128,104,23283,2,0,B|167:155|225:159,1,80
128,104,23663,2,0,B|154:44|128:-7,1,80
128,104,24043,1,8
120,280,24423,6,0,B|40:280|24:248,1,80
120,280,24802,2,0,B|200:280|216:312,1,80
120,280,25182,1,0
120,280,25562,1,12
104,112,25942,6,0,B|56:152|128:208,1,80
104,112,26321,1,2
192,112,26511,1,0
152,192,26701,1,0
192,272,26891,1,0
152,352,27081,1,8
192,352,27176,1,0
232,352,27271,1,0
344,248,27461,6,0,B|384:216|328:160,1,80
280,152,27840,1,2
344,88,28030,1,0
408,152,28220,1,8
408,152,28600,1,12
128,152,28980,5,0
168,104,29169,1,0
224,80,29359,1,2
288,80,29549,1,0
344,104,29739,1,0
384,152,29929,1,0
336,192,30119,1,8
304,192,30214,1,0
272,192,30309,1,0
336,192,30499,5,0
296,272,30688,1,0
336,352,30878,1,2
384,272,31068,1,0
336,192,31258,1,8
256,32,31638,1,12
176,192,32018,5,0
336,192,32207,1,0
176,192,32397,1,2
336,192,32587,1,0
176,192,32777,1,0
336,192,32967,1,0
256,64,33157,1,8
256,240,33537,6,0,B|256:328,4,80,0|0|2|0|8
256,240,34676,1,12
256,64,35055,6,0,B|256:160,1,80
256,144,35435,2,0,B|256:248,1,80,2|0
256,224,35815,2,0,B|256:320,1,80
256,304,36195,1,8
176,272,36574,5,0
256,64,36764,1,0
336,272,36954,1,2
144,144,37144,1,0
368,144,37334,1,8
464,56,38093,5,2
464,88,38188,1,0
464,120,38283,1,0
464,184,38473,1,8
464,216,38568,1,0
464,248,38663,1,0
424,296,38853,2,0,B|384:328|336:280,1,80
424,296,39233,1,8
400,232,39423,1,0
304,160,39612,6,0,B|320:232|296:248,1,80,2|0
207,239,39992,2,0,B|192:233|208:161,1,80,8|0
256,80,40372,1,2
256,176,40562,1,0
256,176,40657,1,0
256,176,40752,1,8
256,272,40942,1,12
328,328,41131,6,0,B|432:328,1,80,2|0
432,288,41416,1,0
408,248,41511,2,0,B|328:248,1,80,8|0
304,208,41796,1,0
328,168,41891,2,0,B|432:168,1,80,2|0
432,128,42176,1,0
416,96,42271,1,8
312,88,42461,1,0
224,56,42650,6,0,B|176:48|136:64,1,80,2|0
128,152,43030,2,0,B|96:216|152:256,1,80,8|0
128,152,43410,1,2
128,152,43505,1,0
128,152,43600,1,0
128,152,43695,1,0
128,152,43790,1,8
224,152,43980,1,12
224,248,44169,5,2
224,248,44264,1,0
224,248,44359,1,0
288,248,44549,2,0,B|336:256|368:248,1,80,8|0
384,224,44834,1,0
384,192,44929,1,2
384,160,45024,1,0
368,128,45119,2,0,B|337:121|289:129,1,80,0|8
256,72,45499,1,0
160,96,45688,6,0,B|120:56|48:72,1,80,2|0
160,96,46068,1,8
160,96,46258,1,0
120,152,46448,1,2
120,184,46543,1,0
120,216,46638,1,0
160,264,46828,1,8
160,264,47018,1,12
256,280,47207,6,0,B|232:232|264:192,1,80,2|0
256,280,47587,1,8
256,280,47682,1,0
256,280,47777,1,0
320,208,47967,2,0,B|344:168|320:120,1,80,2|0
320,208,48347,1,8
320,208,48442,1,0
320,208,48537,1,0
256,136,48726,5,2
224,136,48821,1,0
192,136,48916,2,0,B|136:96|104:160,1,80,0|8
120,168,49201,1,0
120,200,49296,1,2
120,232,49391,1,0
119,263,49486,2,0,B|135:303|191:263,1,80
120,264,49866,1,8
368,320,50245,6,0,B|440:336|456:312,1,80,2|0
448,256,50625,1,8
448,224,50720,1,0
448,192,50815,2,0,B|448:96,2,80,0|2|0
448,224,51290,1,0
448,256,51385,1,8
384,256,51574,1,0
320,256,51764,5,2
288,256,51859,1,0
256,256,51954,1,0
192,256,52144,2,0,B|192:152,1,80,8|0
128,168,52524,1,2
96,168,52619,1,0
64,168,52714,1,0
64,104,52904,2,0,B|64:16,1,80,8|12
256,24,53283,6,0,B|320:24|360:48,1,80,2|0
424,192,53663,2,0,B|424:256|400:296,1,80,8|0
256,360,54043,2,0,B|192:360|152:336,1,80,2|0
88,192,54423,2,0,B|88:128|112:88,1,80,8|0
100,113,54802,5,2
256,24,54992,1,0
412,113,55182,1,8
376,296,55372,1,0
136,296,55562,1,2
256,192,55752,1,0
256,192,55942,1,8
256,192,56037,1,0
256,192,56131,1,12
256,272,56321,6,0,B|256:336|240:368,1,80,2|0
186,152,56701,2,0,B|131:120|111:90,1,80,8|0
325,151,57081,2,0,B|380:119|416:117,1,80,2|0
256,192,57461,1,8
256,160,57556,1,0
256,128,57651,1,0
120,88,57840,5,2
392,296,58030,1,0
392,88,58220,1,8
120,296,58410,1,0
256,192,58600,1,2
256,192,58695,1,0
256,192,58790,1,0
256,192,58885,1,0
256,192,58980,1,8
32,40,59359,6,0,B|224:40,1,160,2|8
256,192,59929,1,0
480,344,60119,2,0,B|288:344,1,160,2|8
256,192,60688,1,0
480,40,60878,2,0,B|288:40,1,160,2|8
256,192,61448,1,0
32,344,61638,2,0,B|224:344,1,160,2|8
256,192,62207,1,4
256,24,62397,5,8
424,192,62777,1,12
256,360,63157,1,8
88,192,63537,1,12
256,80,63916,5,0
184,88,64106,1,0
120,128,64296,1,10
88,192,64486,1,0
96,264,64676,1,0
144,320,64866,2,2,B|328:320,1,160
368,336,65435,5,0
416,296,65625,1,0
448,240,65815,1,10
440,176,66005,1,0
416,112,66195,1,0
360,72,66385,1,0
360,72,66480,1,0
360,72,66574,1,10
360,72,66669,1,0
360,72,66764,1,0
296,64,66954,6,0,B|208:72,1,80
216,320,67334,2,0,B|304:312,1,80,10|0
256,192,67714,1,0
104,152,67904,2,2,B|80:200|104:248,1,80
256,192,68473,1,0
312,224,68663,1,2
368,192,68853,1,8
416,224,69043,1,2
472,192,69233,1,0
416,144,69423,5,4
256,144,69612,1,12
96,144,69802,1,0
56,208,69992,6,0,B|48:272|24:312,1,80,0|2
104,312,70372,2,0,B|168:320|208:344,1,80,8|2
200,264,70752,2,0,B|208:200|232:160,1,80,0|2
160,152,71131,2,0,B|96:144|56:120,1,80,8|2
56,72,71511,1,0
256,192,71701,1,2
56,312,71891,1,8
256,192,72081,1,0
56,72,72271,1,2
256,72,72461,1,0
256,104,72555,1,0
256,136,72650,1,10
256,168,72745,1,0
256,192,72840,1,0
256,256,73030,6,0,B|344:328,1,80,0|2
424,192,73410,2,0,B|352:264,1,80,8|2
312,96,73790,2,0,B|400:160,2,80,0|0|8
256,56,74359,1,2
256,56,74454,1,0
256,56,74549,6,0,B|160:80,1,80,0|2
152,184,74929,2,0,B|112:96,1,80,8|2
272,168,75309,2,0,B|200:232,2,80,0|2|12
456,192,76068,5,0
368,256,76258,1,0
256,256,76448,1,10
144,256,76638,1,0
56,192,76828,1,0
136,192,77018,2,2,B|384:192,1,240
376,56,77777,1,0
464,128,77967,1,8
464,256,78157,1,2
376,328,78347,1,0
256,192,78537,1,4
256,192,78726,1,12
48,320,79106,5,0
152,256,79296,1,0
256,192,79486,1,10
360,128,79676,1,0
464,64,79866,1,0
360,128,80055,1,0
464,64,80245,1,10
464,64,80340,1,0
464,64,80435,1,0
464,320,80625,5,0
360,256,80815,1,0
256,192,81005,1,10
152,128,81195,1,0
48,64,81385,1,0
152,128,81574,1,0
48,64,81764,1,14
256,128,82144,6,0,B|152:128,1,80,0|2
312,184,82524,2,0,B|416:184,1,80,8|2
216,232,82904,2,0,B|96:232,1,80,0|2
328,288,83283,2,0,B|424:288,2,80,8|2|0
256,328,83853,1,0
256,328,83948,1,0
256,328,84043,1,10
184,288,84233,1,0
120,328,84423,2,2,B|40:264|64:152,1,160,2|10
256,48,85182,5,0
168,104,85372,1,2
336,104,85562,1,8
96,160,85752,1,2
416,160,85942,1,0
184,184,86131,2,2,B|264:240|344:176,2,160
152,256,87081,1,8
256,296,87271,1,2
360,256,87461,1,2
256,192,87840,5,6
56,72,100372,5,0
160,48,100562,1,0
256,80,100752,1,2
352,48,100942,1,0
448,72,101131,1,0
336,192,101321,1,0
176,192,101511,1,2
48,216,101891,5,0
144,288,102081,1,0
256,312,102271,1,2
368,288,102461,1,0
464,216,102651,1,0
256,96,103030,1,2
48,216,103410,6,0,B|64:320,1,80,0|2
256,192,103790,2,0,B|256:280,1,80,0|2
464,216,104169,2,0,B|448:320,1,80,0|2
256,336,104549,1,2
136,272,104929,6,0,B|96:192,1,80,0|2
376,272,105308,2,0,B|416:192,1,80,0|2
216,128,105688,1,0
296,128,105878,2,0,B|200:128,1,80,2|2
72,136,106448,5,4
256,136,106638,1,0
168,192,106828,1,2
352,192,107018,1,0
232,248,107207,2,0,B|328:248,2,80,0|2|0
168,288,107777,1,0
112,328,107967,6,0,B|56:312|48:240,1,80,0|2
48,200,108347,2,0,B|160:200,1,80,0|2
104,128,108726,2,2,B|288:128,1,160
440,56,109486,6,2,B|408:152|440:232,1,160
456,280,110055,1,0
384,264,110245,2,2,B|304:232|224:288,1,160
184,328,110815,1,0
112,312,111005,6,0,B|24:304,1,80,0|2
128,216,111385,2,0,B|56:160,1,80,0|2
200,152,111764,2,0,B|184:64,1,80,0|2
296,120,112144,2,0,B|344:48,1,80,0|2
440,48,112524,5,2
376,328,112904,1,2
120,280,113283,1,2
184,8,113663,1,2
373,27,114043,6,0,B|329:20|290:48,1,80,4|2
448,130,114423,2,0,B|441:175|403:203,1,80,8|2
450,50,114802,2,0,B|372:107,1,80,0|2
372,107,115087,1,0
359,116,115182,1,8
346,126,115277,1,0
333,135,115372,1,2
260,238,115562,2,0,B|322:242|348:292,1,80,0|2
213,173,115942,2,0,B|228:113|189:72,1,80,8|2
178,248,116321,2,0,B|148:289|93:280|48:342,1,160,0|8
49,340,116891,1,8
23,215,117081,6,0,B|65:137,1,80,4|2
180,90,117461,2,0,B|135:175,1,80,8|2
164,290,117840,2,0,B|206:212,1,80,0|2
210,205,118125,1,0
217,191,118220,1,8
225,177,118315,1,0
232,163,118410,1,2
350,162,118600,2,0,B|407:192|409:239,1,80,0|2
393,321,118980,2,0,B|388:363|341:384,1,80,8|2
231,344,119359,2,0,B|160:289|206:186,1,160,0|8
264,104,119929,1,8
376,64,120119,5,4
432,128,120309,1,2
440,216,120499,1,8
384,296,120688,1,2
288,336,120878,1,0
168,320,121068,1,2
152,317,121163,1,0
136,311,121258,1,8
121,303,121353,1,0
110,290,121448,1,2
32,184,121638,2,0,B|24:135|62:102,1,80,0|2
168,32,122018,2,0,B|220:26|247:54,1,80,8|2
376,152,122397,2,0,B|336:232|248:248,1,160,0|8
254,246,122967,1,8
135,263,123157,5,4
97,187,123347,1,2
112,100,123537,1,8
187,37,123726,1,2
290,24,123916,1,0
402,70,124106,1,2
417,77,124201,1,0
431,87,124296,1,8
443,99,124391,1,0
450,114,124486,1,2
498,237,124676,2,0,B|493:286|448:308,1,80,0|2
327,348,125055,2,0,B|276:341|257:307,1,80,8|2
158,178,125435,2,0,B|217:112|306:119,1,160
300,118,125910,1,0
300,118,126005,1,0
300,118,126100,1,0
300,118,126195,5,4
440,120,126385,1,2
360,224,126574,1,8
432,320,126764,1,2
296,320,126954,1,0
360,224,127144,1,2
360,224,127239,1,0
360,224,127334,1,8
360,224,127429,1,0
360,224,127524,1,2
296,320,127714,2,0,B|224:272,1,80,0|2
296,64,128093,2,0,B|224:112,1,80,8|2
40,192,128473,2,0,B|208:192,1,160,0|8
200,192,129043,1,8
120,303,129233,5,4
4,225,129423,1,2
128,181,129612,1,8
120,61,129802,1,2
234,135,129992,1,0
128,181,130182,1,2
128,181,130277,1,0
128,181,130372,1,8
128,181,130467,1,0
128,181,130562,1,2
234,135,130752,2,0,B|268:215,1,80,0|2
94,350,131131,2,0,B|181:349,1,80,8|2
379,382,131511,2,0,B|238:291,1,160,0|8
244,295,132081,1,8
344,240,132271,5,4
344,136,132461,1,2
400,240,132650,1,8
400,136,132840,1,2
456,240,133030,1,0
456,136,133220,2,0,B|472:96,4,40,2|0|8|0|2
408,240,133790,1,0
400,136,133980,1,2
344,240,134169,1,8
344,136,134359,1,2
256,184,134549,1,0
256,184,134644,1,0
256,184,134739,1,2
256,184,134834,1,0
256,184,134929,1,8
256,184,135119,1,8
312,96,135309,6,0,B|312:8,1,80,4|2
280,240,135688,2,0,B|280:328,1,80,8|2
184,24,136068,2,0,B|184:112,1,80,0|2
136,320,136448,2,0,B|136:224,1,80,8|2
152,112,136828,5,4
360,272,137207,1,4
16,72,137587,1,4
496,312,137966,1,4
208,208,138347,5,2
248,144,138537,1,0
320,144,138726,1,0
352,208,138916,1,10
320,272,139106,1,0
248,272,139296,1,0
280,208,139486,1,2
280,208,139581,1,2
280,208,139676,1,10
280,208,139866,5,0
248,96,140055,1,2
136,104,140245,1,0
112,216,140435,1,0
200,280,140625,1,2
200,184,141005,5,4
200,184,141385,1,2
256,232,141574,1,0
320,200,141764,1,0
336,128,141954,1,10
280,80,142144,1,0
208,104,142334,1,0
264,152,142524,1,2
264,152,142619,1,2
264,152,142714,1,10
264,152,142904,5,0
368,104,143093,1,2
448,184,143283,1,0
400,288,143473,1,0
288,264,143663,1,2
360,192,144043,5,4
96,96,144423,6,0,B|56:56,2,40,2|2|2
416,288,144802,2,0,B|456:328,2,40,2|2|10
152,232,145182,5,2
376,152,145372,1,0
152,232,145562,1,8
376,152,145752,1,0
128,304,145942,5,2
152,304,146037,1,2
176,304,146131,1,2
400,88,146321,1,2
376,88,146416,1,2
352,88,146511,1,2
128,80,146701,5,2
400,296,147081,1,4
232,112,147461,5,2
320,32,147651,1,0
400,120,147840,1,0
312,200,148030,1,10
232,112,148220,1,0
144,200,148410,1,0
232,280,148600,1,2
232,280,148695,1,2
232,280,148790,1,8
184,80,148980,5,2
152,96,149074,1,0
144,128,149169,1,0
320,304,149359,1,2
344,288,149454,1,0
360,256,149549,1,0
256,192,149739,1,2
256,192,150119,1,4
136,272,150499,5,2
144,296,150593,1,0
152,320,150688,1,0
256,192,150878,1,2
248,168,150973,1,0
240,144,151068,1,8
88,88,151258,2,0,B|112:168,2,80,2|0|2
360,328,152018,5,2
376,304,152112,1,0
392,280,152207,1,0
288,144,152397,1,2
272,168,152492,1,0
256,192,152587,1,0
448,160,152777,2,0,B|488:88,1,80,2|4
64,192,153537,5,2
96,192,153631,1,0
128,192,153726,1,0
448,192,153916,1,2
416,192,154011,1,0
384,192,154106,1,8
216,152,154296,5,2
248,160,154391,1,0
256,192,154486,1,2
280,208,154581,1,0
296,240,154676,1,2
296,240,154866,1,8
184,344,155055,5,2
152,336,155150,1,0
144,304,155245,1,2
112,296,155340,1,0
112,264,155435,2,0,B|176:192,2,80,2|0|0
392,120,156195,5,4
336,72,156385,1,0
264,88,156574,1,2
256,160,156764,1,0
312,208,156954,1,0
384,192,157144,1,10
325,140,157334,5,2
255,157,157524,1,0
242,228,157714,1,0
295,275,157904,1,10
365,262,158093,1,2
385,192,158283,1,2
324,140,158473,1,0
257,158,158663,1,0
243,228,158853,1,0
385,193,159233,1,4
64,192,159612,5,2
88,176,159707,1,0
120,160,159802,1,0
448,192,159992,1,2
424,208,160087,1,0
400,224,160182,1,0
288,288,160372,5,2
160,224,160562,1,0
224,96,160752,1,0
360,160,160942,1,10
152,344,161131,6,0,B|64:264,1,80,2|0
256,192,161701,1,8
424,296,161891,2,0,B|352:352,1,80
160,40,162650,6,0,B|80:96,1,80,2|0
256,192,163220,1,8
416,88,163410,2,0,B|328:24,1,80
256,192,163980,12,4,167207
