osu file format v5

[General]
AudioFilename: Party Foul.mp3
AudioLeadIn: 0
PreviewTime: 48102
Countdown: 0
SampleSet: Normal
StackLeniency: 0.7
Mode: 0
LetterboxInBreaks: 1
EditorBookmarks: 85348
EditorDistanceSpacing: 0.800000011920929

[Metadata]
Title:Party Foul
Artist:Family Force 5
Creator:foulcoon
Version:Normal
Source:
Tags:

[Difficulty]
HPDrainRate:5
CircleSize:4
OverallDifficulty:4
SliderMultiplier:1.9
SliderTickRate:2

[Events]
//Background and Video events
0,0,"rave.jpg"
//Break Periods
2,40421,45511
2,65082,71309
2,89234,96104
//Storyboard Layer 0 (Background)
//Storyboard Layer 1 (Failing)
//Storyboard Layer 2 (Passing)
//Storyboard Layer 3 (Foreground)
//Storyboard Sound Samples
//Background Colour Transformations
3,100,163,162,255

[TimingPoints]
4119.90251824048,508.474576271186,4,1,0,100,1,0
32594,-100,4,2,0,100,0,0
46704,-100,4,1,0,80,0,0
46958,-100,4,2,0,100,0,0
47213,-100,4,1,0,80,0,0
47467,-100,4,2,0,100,0,0
48039,-100,4,1,0,80,0,0
48611,-100,4,1,0,100,0,0
89607,-100,4,2,0,100,0,0
93484,-100,4,1,0,80,0,0
93738,-100,4,2,0,100,0,0
97615,-100,4,1,0,80,0,0
97805,-100,4,2,0,100,0,0
101619,-100,4,1,0,100,0,0
101873,-100,4,2,0,100,0,0
105687,-100,4,1,0,100,0,0

[HitObjects]
52,51,16069,1,0
104,106,16323,2,2,B|172:33|235:163|305:83,1,190,6|6
262,253,17340,6,0,B|387:242|406:92,1,190
411,63,18102,1,0
334,63,18357,2,0,B|284:9|249:119|156:42,2,190
216,159,19882,1,4
155,204,20136,1,0
120,272,20391,6,0,B|224:318|309:268,1,190,0|4
347,210,21153,1,0
420,229,21408,2,0,B|420:29,1,190,0|4
344,29,22170,1,0
307,95,22424,2,6,B|69:95,2,190
404,319,24204,5,0
404,319,24458,2,6,B|320:257|300:356|187:284,1,190
140,173,25475,6,0,B|190:103|250:220|358:136,1,190,0|4
385,123,26238,1,0
430,183,26492,2,0,B|439:260|391:250|297:208|299:328,2,190
313,85,28018,5,4
313,85,28272,1,0
313,85,28526,2,6,B|250:154|320:222,2,142.5
380,49,29543,5,6
409,158,29924,1,0
402,272,30306,1,0
336,310,30560,6,4,B|250:373|137:302,3,190
104,91,32848,5,0
104,91,33102,1,4
161,140,33357,2,0,B|206:177|284:120,2,95
102,188,34119,1,4
102,188,34374,1,0
173,322,34882,5,0
238,283,35136,1,4
314,277,35391,1,0
369,225,35645,1,0
412,162,35899,2,0,B|480:145|434:105|514:79,1,95,0|4
256,40,36916,5,0
256,40,37170,1,4
198,89,37424,1,0
198,89,37679,1,0
141,139,37933,2,0,B|102:116|87:169|23:121,1,95,0|4
20,207,38441,1,0
50,276,38696,1,0
108,324,38950,1,0
183,312,39204,2,0,B|222:239|264:349,1,95,4|0
318,347,39713,1,0
391,328,39967,1,0
465,342,40221,1,4
256,192,46831,12,4,48865
98,54,49374,5,0
147,111,49628,1,0
205,159,49882,2,0,B|293:232|412:201,1,190
457,196,50645,1,0
457,196,50899,1,0
460,348,51408,5,2
308,349,51916,2,2,B|259:301|231:385|158:308,2,142.5
296,197,53187,5,0
230,158,53441,1,0
177,212,53696,1,0
122,264,53950,2,0,B|16:259|33:104,1,190
31,125,54967,1,8
173,72,55475,5,2
205,140,55730,1,0
273,172,55984,2,2,B|334:107|266:10,2,142.5,2|2|2
361,295,57255,5,0
291,325,57509,1,0
215,313,57763,1,0
152,270,58018,1,8
84,236,58272,1,0
45,170,58526,2,0,B|144:115|257:188,1,190,0|8
342,72,59543,5,0
312,141,59797,1,0
329,215,60052,2,2,B|441:221|459:95,2,190
266,258,61323,5,0
192,278,61577,1,8
116,275,61831,1,0
42,255,62086,2,0,B|-19:165|56:69,2,190,0|0|4
157,158,63611,6,2,B|394:158,1,190
432,81,64501,2,6,B|432:240,1,142.5
340,327,72509,5,0
264,329,72763,1,0
120,277,73272,2,6,B|31:190|147:79,1,190
264,62,74289,2,0,B|406:73|405:216,1,190,0|4
397,322,75306,2,0,B|168:323,2,190
398,323,76831,1,4
414,248,77086,5,0
355,200,77340,2,0,B|247:157|167:236,1,190
222,287,78102,2,0,B|351:286,2,95
149,311,78865,1,4
78,282,79119,1,0
50,210,79374,5,0
50,210,79628,1,0
50,210,79882,2,0,B|50:149|50:95,2,95
198,178,80899,1,4
113,51,81408,6,6,B|347:52,1,190
206,258,82679,5,0
275,287,82933,1,4
350,298,83187,1,0
421,273,83441,2,0,B|481:183|402:83,2,190
332,149,84967,1,4
256,148,85221,1,0
198,98,85475,5,2
53,50,85984,2,2,B|-7:162|76:251,1,190,2|2
90,297,86747,1,0
150,342,87001,2,2,B|264:358|295:232,1,190,2|2
307,171,87763,1,0
324,96,88018,1,6
460,30,88526,2,6,B|510:89|394:132|509:234,1,190,2|6
111,119,97424,5,2
111,119,97679,1,4
89,191,97933,5,0
121,259,98187,1,4
178,309,98441,1,0
248,338,98696,1,0
321,319,98950,2,0,B|321:192,2,95,0|4|0
439,223,99967,5,0
450,148,100221,1,4
407,85,100475,1,0
407,85,100730,2,0,B|360:136|288:61,1,95
255,52,101238,1,4
183,76,101492,5,0
183,76,101747,1,4
131,131,102001,1,0
131,131,102255,1,4
132,208,102509,2,0,B|17:208,2,95
188,259,103272,2,0,B|244:210|299:289,2,95,4|0|0
140,318,104035,1,0
210,345,104289,1,4
256,192,104543,12,4,105814
65,325,106323,5,0
138,305,106577,1,0
211,324,106831,2,0,B|284:236|253:117,1,190
236,73,107594,1,0
236,73,107848,1,0
388,76,108357,5,2
389,227,108865,2,2,B|341:276|425:304|348:377,2,142.5
262,142,110136,5,0
198,182,110390,1,0
254,233,110645,1,0
183,260,110899,2,0,B|178:366|23:349,1,190
46,198,111916,1,8
128,70,112424,5,2
182,123,112679,1,0
242,168,112933,2,2,B|324:227|405:147,2,142.5,2|2|2
105,234,114204,5,0
174,264,114458,1,0
244,291,114712,1,0
320,294,114967,1,8
388,260,115221,1,0
463,255,115475,2,0,B|518:156|445:43,1,190,0|8
316,116,116492,5,0
252,157,116746,1,0
183,122,117001,2,2,B|71:116|53:242,2,190
246,79,118272,5,0
318,100,118526,1,8
384,135,118780,1,0
427,197,119035,2,4,B|337:258|241:183,2,190
329,313,120560,6,2,B|92:313,1,190
67,223,121450,2,6,B|226:223,1,142.5
367,58,122594,5,6
224,110,123102,2,0,B|155:54|61:129,2,142.5
224,110,124119,1,4
315,231,124628,5,2
176,294,125136,2,6,B|129:252|96:318|38:288,2,142.5
381,194,126662,5,6
234,153,127170,2,0,B|166:89|89:172,2,142.5
234,153,128187,1,4
256,192,128696,12,6,130221
