osu file format v5

[General]
AudioFilename: Party Foul.mp3
AudioLeadIn: 0
PreviewTime: 48102
Countdown: 0
SampleSet: Normal
StackLeniency: 0.7
Mode: 0
LetterboxInBreaks: 1
EditorDistanceSpacing: 0.800000011920929

[Metadata]
Title:Party Foul
Artist:Family Force 5
Creator:foulcoon
Version:Hard
Source:
Tags:

[Difficulty]
HPDrainRate:7
CircleSize:4
OverallDifficulty:7
SliderMultiplier:2.4
SliderTickRate:2

[Events]
//Background and Video events
0,0,"rave.jpg"
//Break Periods
2,65084,71611
2,122286,129321
2,162709,164406
2,166777,168474
2,171099,172541
2,175166,176101
//Storyboard Layer 0 (Background)
//Storyboard Layer 1 (Failing)
//Storyboard Layer 2 (Passing)
//Storyboard Layer 3 (Foreground)
//Storyboard Sound Samples
//Background Colour Transformations
3,100,163,162,255

[TimingPoints]
4119.90251824048,508.474576271186,4,1,0,100,1,0
32594,-100,4,2,0,100,0,0
46704,-100,4,1,0,80,0,0
46958,-100,4,2,0,100,0,0
47213,-100,4,1,0,80,0,0
47467,-100,4,2,0,100,0,0
48039,-100,4,1,0,80,0,0
48611,-100,4,1,0,100,0,0
89607,-100,4,2,0,100,0,0
93484,-100,4,1,0,80,0,0
93738,-100,4,2,0,100,0,0
97615,-100,4,1,0,80,0,0
97805,-100,4,2,0,100,0,0
101619,-100,4,1,0,100,0,0
101873,-100,4,2,0,100,0,0
105687,-100,4,1,0,100,0,0
179035,-100,4,1,0,0,0,0

[HitObjects]
52,51,16069,1,0
118,119,16323,2,2,B|213:210|26:235|173:362,1,240,6|6
327,192,17340,5,0
392,121,17594,1,0
454,193,17848,1,4
390,265,18102,1,0
358,173,18357,5,0
319,85,18611,1,0
245,147,18865,2,0,B|195:93|160:203|90:110,2,120,4|0|0
70,227,19882,1,4
143,288,20136,1,0
228,331,20391,6,0,B|294:371|383:312,1,120
416,272,20899,1,4
344,208,21153,1,0
416,144,21408,1,0
416,48,21662,1,0
416,144,21916,1,4
416,240,22170,1,0
416,144,22424,1,0
512,144,22679,1,0
416,144,22933,2,4,B|168:144,1,240,4|4
404,319,24204,5,0
404,319,24458,2,6,B|316:247|236:364|142:297,1,240
86,141,25475,6,0,B|174:69|254:186|348:119,1,240,0|4
410,112,26238,1,0
495,69,26492,1,0
474,163,26747,1,0
385,200,27001,2,0,B|394:277|319:280|212:225|200:320,1,240,4|0
18,55,28272,5,0
18,55,28526,1,6
110,165,28908,1,0
205,57,29289,1,0
441,215,29543,5,6
338,315,29924,1,0
336,170,30306,1,0
78,215,30560,5,6
184,312,30941,1,0
184,216,31196,1,0
184,72,31577,1,6
448,312,32848,5,0
448,312,33102,1,4
362,267,33357,1,0
314,265,33484,1,0
341,173,33738,1,0
388,174,33865,1,0
451,101,34119,1,4
451,101,34374,1,0
87,325,34882,5,0
12,265,35136,1,4
96,218,35391,1,0
9,176,35645,1,0
96,137,35899,2,0,B|175:108|119:76|198:54,1,120,0|4
487,33,36916,5,0
487,33,37170,1,4
396,65,37424,1,0
396,65,37552,1,0
425,157,37806,1,0
425,157,37933,2,0,B|378:134|366:184|297:157,1,120,0|4
222,118,38441,1,0
139,167,38696,1,0
214,226,38950,1,0
127,266,39204,2,0,B|47:310|144:370,1,120,4|0
125,357,39586,1,0
210,312,39840,1,0
210,312,39967,1,0
480,38,40984,6,0,B|472:117|351:134,1,120,0|4
329,61,41492,1,0
292,92,41619,1,0
291,188,41874,1,0
251,214,42001,1,0
175,273,42255,1,4
175,273,42509,1,0
32,352,43018,5,0
96,280,43272,1,4
96,184,43526,1,0
96,88,43780,2,0,L|96:43|96:43|24:9,1,120
28,11,44289,1,4
478,356,45052,5,0
403,295,45306,1,4
404,199,45560,1,0
404,199,45687,1,0
404,199,45941,1,0
403,199,46069,1,0
328,139,46323,2,0,B|200:77,1,120,4|0
134,42,46831,1,4
66,110,47086,1,0
141,168,47340,1,4
83,244,47594,1,0
83,244,47721,2,0,B|93:305|156:211|224:320,1,120
186,277,48102,1,4
256,192,48230,12,4,48865
477,188,49119,5,0
417,111,49374,1,8
332,65,49628,1,0
347,159,49882,2,0,B|196:159,1,120
167,234,50391,1,8
235,301,50645,1,0
323,337,50899,1,0
53,40,51408,5,2
464,39,51916,6,2,B|401:77|368:5|272:59,2,180
434,130,52933,1,12
352,180,53187,1,0
320,270,53441,1,0
268,351,53696,1,0
172,352,53950,2,0,B|88:344|72:249,2,120,8|0|0
183,256,54713,1,0
228,171,54967,1,8
323,58,55221,5,0
372,140,55475,1,2
347,233,55730,1,0
442,235,55984,2,2,B|502:141|416:28,2,180,2|2|2
399,321,57001,1,12
284,330,57255,5,0
190,350,57509,1,0
98,321,57763,1,0
91,224,58018,1,8
35,145,58272,1,0
73,57,58526,2,0,B|191:4|321:63,1,240,0|8
260,141,59289,5,0
336,199,59543,1,0
272,271,59797,1,0
334,344,60052,2,2,B|433:348|479:251,2,180
133,323,61323,5,0
91,299,61450,1,0
65,258,61577,1,8
26,169,61831,2,0,B|3:105|42:37,2,120
109,120,62594,1,8
194,164,62848,1,0
279,120,63102,1,0
428,319,63611,6,2,B|172:319,1,240
256,192,64501,1,2
256,48,64882,1,6
358,287,72509,5,0
286,222,72763,1,0
197,260,73018,1,0
118,315,73272,2,6,B|14:217|96:82,1,240
276,60,74289,2,0,B|418:71|431:227,1,240,0|4
334,230,75052,1,0
396,302,75306,2,0,B|134:302,1,240,0|4
156,302,76069,1,0
156,302,76323,1,0
65,211,76577,5,0
65,211,76831,1,4
44,89,77086,5,0
44,89,77340,1,0
130,46,77594,1,0
130,46,77721,1,0
130,46,77848,1,4
213,92,78102,2,0,B|346:92,2,120
130,141,78865,1,4
128,236,79119,1,0
212,281,79374,5,0
303,308,79628,1,0
303,308,79755,1,0
303,308,79882,2,0,B|397:306|393:226,3,120,4|0|0|0
466,185,80899,1,4
439,92,81153,1,0
323,39,81408,6,6,B|69:39,1,240
107,267,82424,5,0
197,300,82679,1,0
290,277,82933,1,4
385,289,83187,1,0
457,225,83441,2,0,B|496:154|446:77,1,120
392,174,83950,2,0,B|264:174,2,120,4|0|0
407,78,84713,1,0
318,40,84967,1,4
317,135,85221,1,0
194,92,85475,5,2
110,43,85730,1,0
18,72,85984,2,0,B|-13:215|109:297,1,240,6|2
178,241,86747,1,0
193,335,87001,2,0,B|283:349|290:246,1,120,6|0
351,210,87509,1,2
278,146,87763,1,0
233,60,88018,1,6
149,12,88272,1,0
92,89,88526,2,6,B|44:154|171:226|55:322,1,240,2|6
457,323,89543,6,0,B|376:343|322:253,1,120,4|0
295,208,90052,1,4
224,142,90306,1,0
224,142,90433,2,0,B|162:99|123:186|84:132,1,120
110,150,90814,1,0
43,80,91069,1,4
19,172,91323,1,0
69,253,91577,5,0
117,335,91831,1,0
212,347,92086,1,4
298,306,92340,1,0
298,306,92467,1,0
298,306,92594,2,0,B|366:242|338:130,1,180
340,139,93102,1,4
284,60,93357,1,0
193,26,93611,1,4
97,87,93865,5,0
46,168,94119,1,4
69,261,94374,1,0
93,301,94501,1,0
173,248,94755,1,0
196,289,94882,1,0
282,327,95136,2,0,B|339:356|410:320,2,120,4|0|0
341,251,95899,1,0
385,165,96153,1,4
385,68,96408,2,0,B|353:30|296:109,1,60
332,67,96789,1,0
332,67,96916,1,0
111,119,97424,5,2
111,119,97552,1,0
111,119,97679,1,4
47,190,97933,5,0
110,262,98187,1,4
199,296,98441,1,0
199,296,98569,1,0
290,325,98823,1,0
290,325,98950,2,0,B|290:192,2,120,0|4|0
366,266,99713,1,0
372,170,99967,5,0
452,117,100221,1,4
378,55,100475,1,0
378,55,100602,1,0
378,55,100730,2,0,B|308:102|244:40,1,120
265,57,101111,1,0
132,129,101492,5,0
132,129,101747,1,4
135,224,102001,1,0
135,224,102255,1,4
176,310,102509,1,0
176,310,102636,1,0
176,310,102891,1,0
176,310,103018,1,0
270,323,103272,2,0,B|320:264|391:338,2,120,4|0|0
243,230,104035,1,0
319,172,104289,1,4
234,127,104543,2,0,B|186:76|151:177|86:102,1,120
256,192,105052,12,4,105814
208,88,106069,5,0
304,88,106323,1,0
192,184,106577,1,0
320,184,106831,1,4
176,280,107086,1,0
336,280,107340,2,0,L|256:280|256:232,2,120,0|0|4
419,326,108102,1,0
494,265,108357,1,8
49,80,108865,6,0,B|102:21|166:151|257:37,2,180,8|8|8
98,162,109882,1,4
118,285,110136,5,0
208,318,110391,1,0
303,313,110645,1,0
387,268,110899,1,4
415,176,111153,2,0,B|327:122|408:30,2,120
488,238,111916,1,4
479,87,112170,5,0
377,76,112424,2,2,B|319:35|253:87,1,120,2|0
265,78,112933,2,2,B|80:78,2,180
265,78,113950,1,4
137,178,114204,5,0
180,263,114458,1,0
273,284,114713,1,0
345,221,114967,1,4
437,246,115221,1,0
479,160,115475,2,0,B|450:92|332:89,1,120
273,56,115984,5,4
273,56,116111,1,0
273,56,116238,1,0
197,115,116492,1,0
106,148,116747,1,0
18,109,117001,2,2,B|-36:193|35:288,2,180
124,55,118018,5,4
196,118,118272,1,0
289,138,118526,1,0
384,137,118780,1,0
384,137,118908,1,0
384,137,119035,1,4
340,222,119289,1,0
249,253,119543,1,0
155,272,119797,2,0,B|36:269|22:188,1,120,0|4
259,45,120560,5,2
259,45,120814,1,0
197,119,121069,1,2
197,119,121196,1,0
271,179,121450,1,0
271,179,121577,2,0,B|271:326,1,120,0|0
271,299,122086,1,4
136,106,130221,6,0,B|259:21|401:137,2,240,4|4|4
188,186,131492,1,0
283,174,131747,1,4
365,223,132001,1,0
380,317,132255,2,4,B|257:402|115:286,3,240
114,227,134035,1,0
70,141,134289,6,0,B|60:57|143:12,2,120,4|0|4
166,135,135052,1,0
257,164,135306,2,0,B|211:232|285:292,2,120,4|0|4
345,126,136069,1,0
434,92,136323,2,4,B|505:194|426:332,2,240
348,47,137594,1,0
257,79,137848,1,4
162,64,138102,1,0
80,115,138357,6,4,B|45:244|218:148|208:316,1,240
389,338,139374,2,4,B|470:234|404:99,1,240
320,147,140136,1,0
273,62,140391,2,4,B|27:62,3,240
33,62,142170,1,0
42,157,142424,6,4,B|77:267|259:309,1,240
356,161,143441,2,4,B|378:290|251:390,2,240
187,253,144967,2,0,B|117:226|134:151,1,120,4|0
133,158,145475,1,4
256,56,145730,5,0
256,56,145857,1,0
256,56,145984,1,8
256,56,146111,1,0
256,56,146238,1,8
256,56,146365,1,0
256,56,146492,1,4
160,71,146747,5,8
96,143,147002,1,0
153,219,147256,2,0,B|2:219,1,120
47,314,147765,1,8
138,344,148019,1,0
232,329,148273,1,0
327,333,148526,1,0
446,40,149035,5,2
53,44,149543,6,2,B|116:82|149:10|245:64,2,180,2|2|2
49,140,150560,1,12
93,224,150814,1,0
185,249,151068,1,0
255,314,151323,1,0
349,330,151577,2,0,B|433:322|449:227,2,120,8|0|0
349,330,152340,1,0
348,331,152594,1,8
309,207,152848,5,0
226,157,153102,1,2
145,209,153357,1,0
138,304,153611,2,2,B|232:364|345:278,2,180,2|2|2
65,241,154628,1,12
111,114,154882,5,0
201,82,155136,1,0
278,138,155390,1,0
357,192,155645,1,8
441,237,155899,1,0
360,289,156153,2,0,B|242:342|112:283,1,240,0|8
122,187,156916,5,0
190,120,157170,1,0
251,193,157424,1,0
323,256,157679,2,2,B|422:260|468:163,2,180
133,323,158950,5,0
91,299,159077,1,0
65,258,159204,1,8
26,169,159458,2,0,B|3:105|42:37,2,120
109,120,160221,1,8
194,164,160475,1,0
279,120,160729,1,0
136,304,161238,6,2,B|392:304,1,240
256,224,162128,1,2
256,80,162509,1,6
201,40,165306,6,2,B|129:83|224:184,1,120
258,211,165814,1,4
382,282,166196,1,0
256,352,166577,1,6
429,45,169374,6,2,B|429:304,1,240
344,240,170136,1,0
344,240,170263,1,0
344,240,170391,2,0,B|206:239,1,120,12|0
128,239,170899,1,4
76,43,173441,5,10
76,43,173569,1,0
76,43,173696,1,4
135,118,173950,1,4
105,209,174204,1,0
105,209,174331,1,0
105,209,174458,2,0,B|85:284|162:329,2,120,0|0|6
383,67,177001,5,4
383,67,177128,1,0
383,67,177255,2,0,B|318:29|250:77,1,120,0|8
192,123,177763,1,0
249,200,178018,2,2,B|433:201,2,180
256,192,178908,12,0,179797
