osu file format v9

[General]
AudioFilename: suno sutairu.mp3
AudioLeadIn: 2000
PreviewTime: 83791
Countdown: 0
SampleSet: Soft
StackLeniency: 0.7
Mode: 0
LetterboxInBreaks: 1

[Editor]
DistanceSpacing: 1.6
BeatDivisor: 4
GridSize: 8

[Metadata]
Title:Snow Style
Artist:False&Trues
Creator:rEdo
Version:Lunatic
Source:Touhou
Tags:fujimiya yuki cirno embodiment of scarlet devil eosd

[Difficulty]
HPDrainRate:7
CircleSize:5
OverallDifficulty:8
ApproachRate:8
SliderMultiplier:1.7
SliderTickRate:0.5

[Events]
//Background and Video events
0,0,"kawaiicirnobg.jpg"
//Break Periods
2,29630,40465
2,111915,122751
//Storyboard Layer 0 (Background)
//Storyboard Layer 1 (Fail)
//Storyboard Layer 2 (Pass)
//Storyboard Layer 3 (Foreground)
//Storyboard Sound Samples
//Background Colour Transformations
3,100,163,162,255

[TimingPoints]
287,428.571428571429,4,2,0,60,1,0
1911,-100,4,2,0,100,0,0
2125,-100,4,2,0,75,0,0
15714,-100,4,2,0,100,0,0
15715,-100,4,2,0,100,0,1
15716,-100,4,2,0,100,0,0
56125,-100,4,2,0,60,0,0
56768,-100,4,2,0,100,0,0
70696,-100,4,2,0,70,0,0
84180,-100,4,2,0,100,0,0
84297,-100,4,2,0,100,0,1
104858,-100,4,2,0,100,0,0
111715,-100,4,2,0,100,0,1
111716,-100,4,2,0,100,0,0
138197,-100,4,2,0,60,0,0
139054,-100,4,2,0,100,0,0
152965,-100,4,2,0,70,0,0
166465,-100,4,2,0,70,0,0
166573,-100,4,2,0,100,0,1
193037,-100,4,2,0,1,0,1
193144,-100,4,2,0,1,0,0
193251,-100,4,2,0,100,0,0
194001,-100,4,2,0,100,0,1
214583,-100,4,2,0,100,0,0
221430,-100,4,2,0,100,0,1
221431,-100,4,2,0,100,0,0

[Colours]
Combo1 : 255,255,255
Combo2 : 63,94,129
Combo3 : 200,255,255
SliderBorder : 200,200,200

[HitObjects]
168,208,1144,1,0
219,140,1358,1,0
173,67,1573,1,0
89,89,1787,1,0
80,173,2001,2,0,B|70:271|141:310|206:304|246:255,1,255,4|0
328,224,2858,1,0
320,312,3073,1,0
400,280,3287,1,0
328,224,3501,2,0,B|312:176|352:136,1,85
344,144,4144,1,0
192,224,4573,5,0
160,144,4787,1,0
104,208,5001,1,0
136,288,5215,1,0
216,312,5430,2,0,B|280:312|312:224|250:168,1,170
264,184,6287,1,0
323,123,6501,1,0
243,93,6716,1,0
184,155,6930,1,0
264,184,7144,2,0,B|320:264|405:226|416:184,2,170
344,32,8430,1,0
176,32,8858,6,0,B|128:56|120:112,1,85
208,112,9287,2,0,B|248:143|248:192,1,85,0|0
160,184,9715,2,0,B|106:201|72:152,2,85,0|0|2
248,184,10358,1,0
240,272,10572,1,0
240,272,10787,1,0
320,304,11001,1,0
320,304,11215,1,0
408,296,11430,2,0,B|480:224|432:128,1,170,0|2
208,56,12287,6,0,B|168:24|88:56,2,85
256,128,12930,1,0
168,128,13144,2,0,B|120:152|128:208,1,85
216,200,13572,2,0,B|227:257|168:284,1,85,2|0
104,288,14001,2,0,B|128:344|176:360|224:352|248:336,1,170
400,256,14858,1,0
456,192,15072,1,0
376,160,15287,1,2
432,96,15501,1,0
408,64,15608,1,0
368,48,15715,6,0,B|312:96|272:-8|184:64,1,170,4|2
144,104,16358,1,0
224,136,16572,2,0,B|272:160|272:224,1,85
184,216,17001,1,2
136,288,17215,2,0,B|88:264|88:200,1,85
64,136,17644,1,0
81,52,17858,1,2
144,104,18073,2,0,B|192:104|227:140,1,85
304,104,18501,5,0
384,136,18715,1,2
432,208,18930,1,0
424,296,19144,2,0,B|372:340|283:330|270:249,1,170,0|2
200,312,19787,1,0
278,275,20001,1,0
208,232,20215,1,0
128,261,20430,2,0,B|96:224|112:168,1,85,2|0
176,128,20858,5,0
96,88,21073,2,0,B|56:56,2,42.5,0|0|2
168,48,21501,1,0
248,80,21715,1,0
328,56,21930,1,0
360,80,22037,1,0
368,120,22144,1,2
440,168,22358,1,2
456,208,22465,1,0
440,248,22573,1,0
276,300,23001,5,0
208,248,23215,2,0,B|176:288|192:344,1,85
112,288,23644,2,0,B|59:298|44:352,2,85
130,204,24287,1,0
130,204,24501,1,0
208,248,24715,1,0
208,248,24930,1,0
226,164,25144,2,0,B|224:85|314:44|379:90,1,170
392,296,26001,6,0,B|360:344|288:328,2,85
344,224,26644,1,0
261,246,26858,2,0,B|244:200|286:160,1,85
328,96,27287,1,0
416,96,27501,1,0
256,192,27715,12,4,29430
296,88,41215,5,0
216,296,41858,1,0
184,120,42287,1,0
256,80,42501,1,2
296,88,42608,1,0
328,120,42715,1,0
376,192,42930,1,0
392,232,43037,1,0
376,272,43144,6,0,B|368:336|288:344,1,85,4|0
296,256,43573,1,2
240,320,43787,2,0,B|176:312|136:248|176:160,1,170
216,120,44430,1,2
304,128,44644,1,0
216,120,44858,1,0
256,200,45072,2,0,B|240:256|176:272,1,85,0|2
136,320,45501,2,0,B|81:285|72:210|145:147,1,170
56,120,46144,1,2
136,88,46358,1,0
64,40,46572,5,0
136,88,46787,2,0,B|168:48|224:64,1,85,0|2
200,144,47215,1,0
360,80,47644,1,0
336,248,48072,2,0,B|383:297|320:386|253:348,1,170
232,344,48608,1,0
208,320,48715,1,2
232,240,48930,1,0
152,216,49144,2,0,B|168:168|224:152,2,85,0|0|2
128,296,49787,1,0
64,240,50001,5,0
88,160,50215,1,0
152,216,50430,1,2
88,160,50644,2,0,B|109:66|219:50,1,170
288,72,51287,1,2
224,128,51501,1,0
304,152,51715,2,0,B|360:144|368:88,2,85,0|0|2
248,216,52358,2,0,B|280:256|336:232,1,85
408,264,52787,2,0,B|480:232,2,42.5,0|0|2
324,236,53215,1,0
384,176,53430,5,0
464,200,53644,1,0
408,264,53858,1,2
384,176,54072,2,0,B|362:115|414:51|500:66,2,170
320,232,55144,1,0
256,176,55358,1,0
240,136,55465,1,0
256,96,55572,1,2
256,96,55787,1,0
256,96,56001,1,0
256,288,56430,1,0
256,96,56858,6,0,B|176:80|128:136,1,127.5,4|0
128,136,57287,1,2
160,216,57501,1,0
80,200,57715,2,0,B|32:232|48:288,2,85,0|0|2
160,216,58358,1,0
192,296,58572,2,0,B|239:284|243:228,1,85
216,152,59001,1,2
296,168,59215,2,0,B|336:216|312:280,1,85
320,328,59644,1,0
360,336,59751,1,0
400,328,59858,1,2
472,280,60072,1,0
456,200,60287,5,0
384,152,60501,1,0
311,195,60715,1,2
384,152,60930,1,0
256,40,61358,1,0
124,150,61787,2,0,B|64:192|96:280|160:272,1,170,0|0
184,272,62322,1,0
216,272,62430,1,2
292,309,62644,2,0,B|276:365|212:357,2,85
363,260,63287,5,2
432,216,63501,1,0
352,176,63715,2,0,B|296:120|208:160|208:224,1,170,4|2
288,248,64358,2,0,B|298:188|278:135|219:91,1,170
152,56,65001,1,2
115,134,65215,1,0
192,176,65430,2,0,B|248:200|312:160|312:96,1,170,0|2
264,24,66072,2,0,B|336:-16|415:37|400:120,1,170
371,158,66715,1,2
376,328,67144,6,0,B|409:354|459:344,2,85,0|0|2
288,328,67787,2,0,B|192:328,1,85
120,312,68215,2,0,B|80:352|80:352,2,42.5,0|0|2
176,248,68644,1,0
92,232,68858,1,0
244,198,69287,1,2
128,72,69715,1,0
104,152,69930,1,0
128,72,70144,1,2
177,142,70358,1,0
128,72,70572,6,0,B|50:62|10:134|42:190,1,170,6|8
86,245,71215,1,8
5,258,71430,1,0
86,245,71644,2,0,B|102:290|61:338,2,85,0|8|0
168,264,72287,2,0,B|200:328|296:328|328:296,1,170,0|8
376,248,72930,1,8
397,330,73144,1,0
316,304,73358,2,0,B|283:260|312:207,1,85,0|8
432,192,73787,6,0,B|472:128|440:56|385:43,1,170,0|0
312,32,74430,1,8
336,112,74644,1,8
252,95,74858,2,0,B|197:79|164:119,2,85,0|0|8
280,176,75501,1,0
312,256,75715,2,0,B|313:305|252:339|195:294|232:216,1,170,0|8
280,176,76358,1,8
336,112,76572,1,0
420,123,76787,2,0,B|465:165|448:224,1,85,0|8
336,112,77215,6,0,B|332:48|250:4|173:72,1,170
248,128,77858,1,8
160,120,78072,2,0,B|115:95|119:29,2,85
96,176,78715,1,8
176,208,78930,1,0
112,264,79144,2,0,B|120:328|184:368|256:320,1,170,0|8
320,352,79787,1,8
296,272,80001,1,0
238,330,80215,2,0,B|208:296|224:240,1,85,0|8
377,293,80644,6,0,B|388:229|323:172|264:202,1,170
192,168,81287,1,0
256,112,81501,2,0,B|256:24,1,85
320,80,81930,2,0,B|320:192,1,85
292,248,82358,1,0
256,328,82572,1,0
256,328,83858,1,0
88,192,84287,6,8,B|47:140|95:31|179:63,1,170,4|2
160,144,84930,1,0
176,184,85037,1,0
168,224,85144,1,0
96,272,85358,2,0,B|56:304|72:360,2,85,0|2|0
176,312,86001,2,0,B|240:336|208:288|272:320,1,85
297,326,86322,1,0
336,312,86430,1,2
392,248,86644,2,0,B|428:279|417:325,1,85
464,200,87072,5,0
384,160,87287,1,2
392,248,87501,1,0
464,200,87715,2,0,B|480:144|456:80|400:72|360:80,1,170,0|2
320,136,88358,1,0
256,80,88572,2,0,B|215:127|251:194,1,85
296,224,89001,1,2
296,224,89215,1,0
216,248,89430,6,0,B|160:238|148:178,1,85
128,160,89751,1,0
129,116,89858,1,2
192,56,90072,1,0
272,88,90287,2,0,B|258:136|203:147,1,85
272,88,90715,2,0,B|313:59|363:86,1,85,2|0
320,160,91144,6,0,B|376:192|383:289|313:331,1,170,0|2
256,280,91787,2,0,B|198:309|212:372,1,85
152,280,92215,2,0,B|96:280|68:338,2,85,0|2|0
216,224,92858,1,0
216,224,93072,1,0
168,152,93287,1,2
168,152,93501,1,0
104,208,93715,2,0,B|63:133|105:63|176:64,1,170,0|2
384,48,94572,6,0,B|430:74|424:121,2,85,0|0|2
336,120,95215,1,0
280,184,95430,2,0,B|328:232|392:192,1,85
416,272,95858,1,2
416,272,96072,1,0
352,328,96287,2,0,B|272:264|272:376|184:312,1,170,0|2
152,248,96930,1,0
104,320,97144,1,0
64,240,97358,5,2
48,200,97465,1,0
64,160,97572,1,0
104,88,97787,1,2
134,57,97894,1,0
176,57,98001,2,0,B|176:128|272:160|314:85,1,170,4|2
376,64,98644,1,0
299,105,98858,1,0
376,152,99072,2,0,B|424:184|416:248,2,85,0|2|0
304,200,99715,2,0,B|272:144|152:200|200:272,1,170,0|2
251,313,100358,2,0,B|220:357|159:332,1,85
96,184,100787,5,0
120,104,101001,1,2
192,56,101215,1,0
280,64,101430,2,0,B|264:144|368:176|424:104,1,170,0|2
456,192,102072,1,0
376,216,102287,2,0,B|368:264|408:312,1,85
312,272,102715,2,0,B|275:303|274:366,2,85,2|0|4
197,82,103572,5,4
121,291,104001,1,0
200,248,104215,1,2
174,216,104322,1,0
134,202,104430,1,0
115,119,104644,1,0
200,112,104858,6,0,B|224:32|324:24|360:88,1,170,4|0
288,128,105501,1,0
368,144,105715,2,0,B|416:120|424:72,1,85
472,152,106144,2,0,B|497:181|485:233,1,85,2|0
408,200,106572,1,0
408,284,106787,2,0,B|343:279|329:215,1,85
296,316,107215,1,0
248,248,107430,2,0,B|193:315|114:300|80:233,1,170,0|2
312,64,108287,6,0,B|346:34|401:47,2,85
368,128,108930,1,0
288,144,109144,2,0,B|240:112|184:152,1,85
181,57,109572,2,0,B|139:64|120:111,1,85,2|0
256,192,110001,12,4,111715
200,95,123501,5,0
312,288,124144,1,0
305,117,124572,1,0
163,208,125001,1,0
312,288,125430,5,4
360,216,125644,1,0
312,288,125858,1,2
400,296,126072,2,0,B|456:272|480:192|424:136,1,170
384,88,126715,1,2
304,72,126930,1,0
256,144,127144,2,0,B|216:112|220:59,2,85,0|0|2
168,144,127787,2,0,B|128:88|24:152|64:224,1,170
44,287,128430,2,0,B|107:303|135:231,1,85,2|0
200,288,128858,5,0
264,238,129072,1,0
186,204,129287,1,2
200,288,129501,2,0,B|248:352|344:320|344:240,1,170
416,296,130144,1,2
400,216,130358,1,0
388,172,130465,1,0
361,138,130572,1,0
280,103,130787,2,0,B|263:60|303:18,2,85,0|2|0
216,160,131430,2,0,B|152:112|72:192|128:256,1,170,0|2
80,312,132072,1,0
168,304,132287,6,0,B|195:260|183:221,2,85,0|0|2
248,328,132930,2,0,B|256:248|368:232|408:288,1,170
456,296,133572,1,2
445,211,133787,1,0
368,176,134001,2,0,B|384:128|448:120,2,85,0|0|2
304,120,134644,2,0,B|296:40|184:24|144:80,1,170
200,136,135287,2,0,B|144:160|104:104,1,85,2|0
88,48,135715,5,0
88,48,135930,1,0
56,128,136144,2,0,B|32:176|80:232,1,85,2|0
232,248,136787,1,0
176,312,137001,1,2
96,296,137215,1,0
264,336,137644,5,0
320,272,137858,1,2
400,288,138072,1,0
456,224,138287,1,0
376,208,138501,2,0,B|334:169|262:204,1,85
216,168,138930,1,0
224,256,139144,6,0,B|136:280|88:208,1,127.5,4|0
102,216,139572,1,2
72,136,139787,2,0,B|48:80|104:24,1,85
144,112,140215,2,0,B|185:142|245:118,2,85,0|2|0
194,43,140858,1,0
280,56,141072,1,0
325,128,141287,1,2
368,56,141501,2,0,B|440:40|488:128|432:184,1,170
376,216,142144,2,0,B|413:258|464:248,1,85,2|0
392,312,142572,5,0
312,283,142787,1,0
248,339,143001,1,2
312,283,143215,1,0
160,208,143644,1,0
304,112,144072,2,0,B|352:136,2,42.5
240,168,144501,1,0
224,88,144715,2,0,B|236:38|283:27,1,85,2|0
360,56,145144,2,0,B|416:64|464:16,2,85,0|0|2
416,120,145787,5,0
496,104,146001,2,0,B|536:168|488:240|416:216,1,170,4|2
288,304,146858,2,0,B|261:364|184:336,2,85,0|0|2
216,256,147501,1,0
136,288,147715,2,0,B|72:256|64:168|136:120,1,170,0|2
168,208,148358,2,0,B|100:231|39:200|22:141,1,170
26,151,149001,1,2
178,76,149430,6,0,B|148:34|85:45,2,85,0|0|2
334,142,150287,2,0,B|363:100|426:111,2,85,0|0|2
402,193,150930,1,0
418,233,151037,1,0
402,273,151144,1,0
328,304,151358,2,0,B|240:336,1,85,0|2
264,248,151787,2,0,B|160:248,1,85
104,208,152215,1,0
104,208,152430,1,2
176,160,152644,1,0
96,128,152858,6,0,B|40:48|144:-16|192:48,1,170,4|8
240,64,153501,2,0,B|274:26|330:38,2,85,8|0|0
304,120,154144,1,8
304,120,154358,1,0
224,144,154573,2,0,B|160:208|224:304|288:288,1,170,0|8
320,232,155215,2,0,B|349:273|331:320,1,85,8|0
408,264,155644,2,0,B|450:292|449:343,1,85,0|8
488,208,156073,6,0,B|416:224|352:144|400:72,1,170
456,56,156715,2,8,B|424:12|368:22,1,85
320,80,157144,1,0
320,168,157358,1,0
320,168,157573,1,8
248,120,157787,1,0
248,40,158001,2,0,B|144:59|148:163|201:188,1,170,0|8
232,232,158644,2,0,B|197:261|150:248,1,85
192,320,159073,1,0
272,344,159287,1,8
120,368,159501,6,0,B|64:344|32:272|72:208,1,170
136,184,160144,1,8
64,144,160358,2,0,B|32:112|48:56,2,85,8|0|0
136,96,161001,1,8
136,96,161215,1,0
216,120,161430,2,0,B|272:72|360:120|328:192,1,170,0|8
264,224,162073,2,0,B|296:272|365:263,1,85,8|0
264,312,162501,2,0,B|267:369|332:396,1,85,0|8
192,288,162930,6,0,B|120:304|80:224|120:176,1,170
93,98,163573,1,0
173,66,163787,1,0
232,129,164001,2,0,B|189:208,1,85
275,192,164430,2,0,B|318:113,1,85
256,56,164858,1,0
256,56,166144,1,0
424,192,166573,6,0,B|445:250|368:288,1,85,4|2
376,288,166894,1,0
344,296,167001,1,0
272,256,167215,2,0,B|208:256|200:328,1,85
152,232,167644,2,0,B|96:240|59:187,2,85,2|0|0
160,153,168287,1,0
99,94,168501,1,2
123,62,168608,1,0
163,62,168715,1,0
240,104,168930,2,0,B|296:128|344:64,1,85
416,232,169358,5,2
368,296,169573,1,0
288,312,169787,2,0,B|320:264|276:200,1,85
216,264,170215,1,2
184,288,170323,1,0
144,288,170430,2,0,B|107:242|145:175,1,85
167,130,170858,1,0
167,130,171072,1,2
119,59,171287,1,0
85,138,171501,1,0
167,130,171715,5,0
210,136,171823,1,0
247,114,171930,1,2
304,176,172144,1,0
328,96,172358,2,0,B|353:36|427:51,1,85,0|0
408,136,172787,1,2
392,224,173001,6,0,B|382:282|449:321,1,85
304,272,173430,2,0,B|273:322|197:309,1,85,0|2
152,296,173858,1,0
200,224,174073,2,0,B|160:192|96:224,1,85
168,144,174501,1,2
128,136,174608,1,0
88,152,174715,2,0,B|33:156|20:230,1,85
48,288,175144,2,0,B|84:254|146:276,1,85,0|2
154,303,175465,1,0
196,300,175573,1,0
272,263,175787,1,0
349,298,176001,2,0,B|429:290|461:178|405:146,1,170
152,96,176858,6,0,B|128:56|72:64,2,85,0|2|0
88,152,177501,2,0,B|48:192|80:264|80:256,1,85
128,296,177930,1,2
168,312,178037,1,0
208,296,178144,1,0
168,224,178358,1,0
252,229,178573,2,0,B|268:308|375:323|393:247,1,170
464,256,179215,2,0,B|465:190|387:169,1,85
472,112,179644,5,2
448,80,179751,1,0
408,72,179858,1,0
352,136,180073,1,2
318,113,180180,1,0
277,119,180287,2,0,B|248:168|184:152,1,85,4|2
208,72,180715,1,0
136,120,180930,1,0
104,144,181037,1,0
112,184,181144,1,0
80,264,181358,2,0,B|55:304|7:304,2,85,2|0|0
168,264,182001,5,0
144,296,182108,1,0
136,336,182215,1,2
224,328,182430,2,0,B|269:328|294:288,1,85
352,352,182858,1,0
432,200,183073,5,2
345,209,183287,1,0
289,141,183501,1,0
313,58,183715,2,0,B|272:24|216:48,1,85,0|2
152,16,184144,1,0
168,96,184358,2,0,B|176:144|144:176,1,85
88,112,184787,1,2
56,144,184894,1,0
56,184,185001,1,0
107,251,185215,1,0
192,272,185430,6,0,B|184:330|128:336,2,85,0|2|0
264,320,186073,1,0
304,336,186180,1,0
344,320,186287,1,0
424,336,186501,1,2
400,256,186715,6,0,B|440:232|432:176,1,85
367,127,187144,2,0,B|399:80|468:104,2,85,0|2|0
304,72,187787,1,0
264,56,187894,1,0
224,72,188001,1,0
160,128,188215,2,0,B|158:77|117:58,1,85,2|0
75,132,188644,1,0
160,128,188858,2,0,B|135:172|161:209,1,85,0|2
112,280,189287,1,0
200,288,189501,2,0,B|250:308|303:267,1,85
432,192,190144,6,0,B|460:120|411:53|322:61,1,170
352,152,190787,1,2
280,104,191001,1,0
224,168,191215,2,0,B|186:133|199:90,2,85,0|2|0
240,252,191858,1,0
256,335,192073,1,2
256,192,192287,12,0,193144
173,313,193573,5,2
338,70,194001,2,0,B|382:91|397:140,2,85,4|0|2
256,56,194644,1,0
217,54,194751,1,0
187,80,194858,1,0
224,142,195073,1,0
230,180,195180,1,0
201,206,195287,1,2
132,230,195501,1,0
139,268,195608,1,0
169,292,195715,1,0
256,280,195930,2,0,B|292:248|351:265,1,85,0|2
416,296,196358,2,0,B|433:250|396:201,1,85
368,64,196787,6,0,B|424:40|472:96,2,85,0|2|0
402,141,197430,2,0,B|353:171|276:135|284:57,1,170,0|2
208,32,198073,1,0
144,88,198287,2,0,B|108:125|54:104,1,85
121,172,198715,2,0,B|96:216|38:210,2,85,2|0|0
149,252,199358,1,0
175,286,199465,1,0
218,292,199573,1,2
306,269,199787,2,0,B|326:310|289:353,1,85
376,344,200215,1,0
344,176,200430,6,0,B|384:198|378:254,1,85,2|0
464,264,200858,1,0
434,184,201073,1,0
434,184,201287,1,2
400,104,201501,2,0,B|428:71|476:80,2,85
368,24,202144,2,0,B|322:44|317:87,1,85,2|0
248,136,202573,1,0
239,51,202787,1,0
239,51,203001,1,2
169,99,203215,1,0
178,184,203430,2,0,B|121:195|61:135|91:64,1,170,0|2
104,248,204287,6,0,B|96:304|53:320,2,85,0|0|2
176,296,204930,1,0
256,272,205144,2,0,B|304:296|344:264,1,85
408,312,205573,2,0,B|440:272|408:216,1,85,2|0
344,184,206001,2,0,B|320:88|200:104|192:168,1,170,0|2
128,120,206644,1,0
184,56,206858,1,0
128,120,207073,2,0,B|162:154|159:205,1,85,0|2
227,248,207501,1,0
174,314,207715,6,0,B|130:293|115:244,2,85,4|0|2
256,328,208358,1,0
295,330,208465,1,0
325,304,208573,1,0
288,242,208787,1,0
282,203,208894,1,0
311,178,209001,1,2
380,154,209215,1,0
373,116,209323,1,0
343,92,209430,1,0
259,107,209644,2,0,B|228:68|251:3,2,85,0|2|0
200,168,210287,1,0
65,243,210501,5,0
150,237,210715,1,2
226,281,210930,1,0
312,275,211144,2,0,B|402:271|436:180|393:128,1,170,0|2
328,144,211787,2,0,B|336:88|400:72,2,85
248,176,212430,2,0,B|184:184|144:120,1,85,2|0
144,72,212858,5,4
392,192,213287,1,4
144,72,213715,1,0
96,144,213930,1,4
80,184,214037,1,0
96,224,214144,1,2
168,272,214358,2,0,B|143:316|88:306,1,85,0|4
376,96,215215,6,0,B|408:48|472:56,2,85
432,160,215858,2,0,B|464:216|432:256|432:248,1,85,2|0
368,296,216287,1,0
288,264,216501,1,0
288,264,216715,1,2
304,344,216930,1,0
224,312,217144,2,0,B|144:344|72:256|120:208,1,170,0|0
224,112,218001,6,0,B|224:24,1,85,2|0
288,88,218430,1,0
280,176,218644,2,0,B|312:266,1,85,0|2
256,320,219073,2,0,B|223:229,2,85,0|0|2
256,192,219715,12,4,221430
