osu file format v14

[General]
AudioFilename: Fallen Shepherd ft. RabbiTon Strings - ENDYMION.mp3
AudioLeadIn: 0
PreviewTime: 36677
Countdown: 0
SampleSet: Soft
StackLeniency: 0.7
Mode: 3
LetterboxInBreaks: 0
SpecialStyle: 0
WidescreenStoryboard: 1

[Editor]
DistanceSpacing: 0.8
BeatDivisor: 3
GridSize: 32
TimelineZoom: 2.5

[Metadata]
Title:ENDYMION
TitleUnicode:ENDYMION
Artist:Fallen Shepherd ft. RabbiTon Strings
ArtistUnicode:Fallen Shepherd ft. RabbiTon Strings
Creator:Blocko
Version:Normal
Source:Dance Dance Revolution Ace
Tags:arm iosys _underjoy
BeatmapID:1530267
BeatmapSetID:707421

[Difficulty]
HPDrainRate:7
CircleSize:7
OverallDifficulty:7
ApproachRate:7.5
SliderMultiplier:1.4
SliderTickRate:1

[Events]
//Background and Video events
0,0,"ENDYMION_no_diff.png",0,0
//Break Periods
//Storyboard Layer 0 (Background)
//Storyboard Layer 1 (Fail)
//Storyboard Layer 2 (Pass)
//Storyboard Layer 3 (Foreground)
//Storyboard Sound Samples

[TimingPoints]
1223,272.727273,5,2,0,10,1,0
3950,272.727273,3,2,0,10,1,0
8860,272.727273,5,2,0,10,1,0
27950,272.727273,4,2,0,10,1,0
89040,272.727273,5,2,0,10,1,0
95858,272.727273,4,2,0,10,1,0

[HitObjects]
329,192,1223,128,0,2586:0:0:0:0:
182,192,2586,128,0,3404:0:0:0:0:
109,192,3404,128,0,3677:0:0:0:0:
402,192,3677,128,0,3950:0:0:0:0:
329,192,3950,1,0,0:0:0:0:
329,192,4768,1,0,0:0:0:0:
182,192,5586,1,0,0:0:0:0:
36,192,5586,1,0,0:0:0:0:
182,192,7359,128,0,8860:0:0:0:0:
329,192,7359,128,0,8859:0:0:0:0:
256,192,8859,1,0,0:0:0:0:
36,192,8859,1,0,0:0:0:0:
475,192,8859,1,0,0:0:0:0:
182,192,10223,1,0,0:0:0:0:
329,192,10223,1,0,0:0:0:0:
329,192,10632,1,0,0:0:0:0:
182,192,10632,1,0,0:0:0:0:
109,192,11587,1,0,0:0:0:0:
256,192,11587,1,0,0:0:0:0:
402,192,11587,1,0,0:0:0:0:
182,192,12950,1,0,0:0:0:0:
329,192,12950,1,0,0:0:0:0:
329,192,13360,1,0,0:0:0:0:
182,192,13360,1,0,0:0:0:0:
109,192,13769,128,0,14041:0:0:0:0:
329,192,14041,1,0,0:0:0:0:
402,192,14041,1,0,0:0:0:0:
256,192,14314,1,0,0:0:0:0:
36,192,14314,1,0,0:0:0:0:
475,192,14314,1,0,0:0:0:0:
109,192,15678,1,0,0:0:0:0:
329,192,15678,1,0,0:0:0:0:
109,192,16087,1,0,0:0:0:0:
329,192,16087,1,0,0:0:0:0:
402,192,16496,128,0,16769:0:0:0:0:
182,192,16769,1,0,0:0:0:0:
109,192,16769,1,0,0:0:0:0:
36,192,17041,1,0,0:0:0:0:
256,192,17041,1,0,0:0:0:0:
475,192,17041,1,0,0:0:0:0:
182,192,18132,1,0,0:0:0:0:
402,192,18132,1,0,0:0:0:0:
36,192,18405,1,0,0:0:0:0:
475,192,18405,1,0,0:0:0:0:
329,192,18405,1,0,0:0:0:0:
182,192,18541,1,0,0:0:0:0:
329,192,18814,1,0,0:0:0:0:
182,192,18950,1,0,0:0:0:0:
109,192,19223,1,0,0:0:0:0:
256,192,19360,1,0,0:0:0:0:
402,192,19496,1,0,0:0:0:0:
475,192,19769,128,0,20314:0:0:0:0:
36,192,19769,1,0,0:0:0:0:
256,192,19769,1,0,0:0:0:0:
109,192,20041,1,0,0:0:0:0:
256,192,20314,1,0,0:0:0:0:
182,192,20587,1,0,0:0:0:0:
329,192,20587,1,0,0:0:0:0:
329,192,20860,1,0,0:0:0:0:
182,192,20860,1,0,0:0:0:0:
475,192,21132,128,0,21678:0:0:0:0:
36,192,21132,1,0,0:0:0:0:
256,192,21132,1,0,0:0:0:0:
109,192,21405,1,0,0:0:0:0:
256,192,21678,1,0,0:0:0:0:
182,192,21950,1,0,0:0:0:0:
329,192,21950,1,0,0:0:0:0:
329,192,22223,1,0,0:0:0:0:
182,192,22223,1,0,0:0:0:0:
36,192,22496,128,0,23041:0:0:0:0:
256,192,22496,1,0,0:0:0:0:
475,192,22496,1,0,0:0:0:0:
402,192,22769,1,0,0:0:0:0:
256,192,23041,1,0,0:0:0:0:
182,192,23314,1,0,0:0:0:0:
329,192,23314,1,0,0:0:0:0:
182,192,23587,1,0,0:0:0:0:
329,192,23587,1,0,0:0:0:0:
36,192,23860,128,0,24405:0:0:0:0:
256,192,23860,1,0,0:0:0:0:
475,192,23860,1,0,0:0:0:0:
402,192,24132,1,0,0:0:0:0:
256,192,24405,1,0,0:0:0:0:
182,192,24678,1,0,0:0:0:0:
329,192,24678,1,0,0:0:0:0:
182,192,24950,1,0,0:0:0:0:
329,192,24950,1,0,0:0:0:0:
329,192,25223,128,0,25769:0:0:0:0:
36,192,25223,1,0,0:0:0:0:
475,192,25223,1,0,0:0:0:0:
109,192,25496,1,0,0:0:0:0:
256,192,25769,1,0,0:0:0:0:
329,192,26041,1,0,0:0:0:0:
182,192,26041,1,0,0:0:0:0:
182,192,26314,1,0,0:0:0:0:
329,192,26314,1,0,0:0:0:0:
182,192,26587,128,0,27132:0:0:0:0:
475,192,26587,1,0,0:0:0:0:
36,192,26587,1,0,0:0:0:0:
402,192,26860,1,0,0:0:0:0:
256,192,27132,1,0,0:0:0:0:
182,192,27405,1,0,0:0:0:0:
329,192,27405,1,0,0:0:0:0:
182,192,27678,1,0,0:0:0:0:
329,192,27678,1,0,0:0:0:0:
36,192,27950,1,0,0:0:0:0:
256,192,27950,1,0,0:0:0:0:
475,192,27950,1,0,0:0:0:0:
329,192,28222,1,0,0:0:0:0:
182,192,28495,1,0,0:0:0:0:
475,192,28768,1,0,0:0:0:0:
36,192,29040,1,0,0:0:0:0:
329,192,29313,1,0,0:0:0:0:
182,192,29586,1,0,0:0:0:0:
475,192,29859,1,0,0:0:0:0:
36,192,30131,1,0,0:0:0:0:
256,192,30131,1,0,0:0:0:0:
329,192,30404,1,0,0:0:0:0:
256,192,30677,1,0,0:0:0:0:
182,192,30677,1,0,0:0:0:0:
475,192,30950,1,0,0:0:0:0:
36,192,31222,1,0,0:0:0:0:
256,192,31222,1,0,0:0:0:0:
402,192,31495,1,0,0:0:0:0:
182,192,31495,1,0,0:0:0:0:
329,192,31768,1,0,0:0:0:0:
109,192,31768,1,0,0:0:0:0:
256,192,32040,1,0,0:0:0:0:
475,192,32040,1,0,0:0:0:0:
36,192,32313,1,0,0:0:0:0:
182,192,32313,1,0,0:0:0:0:
402,192,32313,1,0,0:0:0:0:
329,192,32450,1,0,0:0:0:0:
109,192,32586,1,0,0:0:0:0:
402,192,32722,1,0,0:0:0:0:
182,192,32859,1,0,0:0:0:0:
475,192,32995,1,0,0:0:0:0:
109,192,33131,1,0,0:0:0:0:
402,192,33268,1,0,0:0:0:0:
36,192,33404,1,0,0:0:0:0:
256,192,33540,1,0,0:0:0:0:
109,192,33677,1,0,0:0:0:0:
329,192,33813,1,0,0:0:0:0:
182,192,33950,1,0,0:0:0:0:
402,192,34086,1,0,0:0:0:0:
256,192,34222,1,0,0:0:0:0:
475,192,34359,1,0,0:0:0:0:
182,192,35586,1,0,0:0:0:0:
329,192,35722,1,0,0:0:0:0:
329,192,35995,1,0,0:0:0:0:
182,192,36131,1,0,0:0:0:0:
329,192,36404,1,0,0:0:0:0:
182,192,36540,1,0,0:0:0:0:
36,192,36677,1,0,0:0:0:0:
256,192,36677,1,0,0:0:0:0:
475,192,36677,1,0,0:0:0:0:
475,192,36950,1,0,0:0:0:0:
402,192,37086,1,0,0:0:0:0:
329,192,37222,1,0,0:0:0:0:
256,192,37359,1,0,0:0:0:0:
182,192,37495,1,0,0:0:0:0:
109,192,37631,1,0,0:0:0:0:
36,192,37768,1,0,0:0:0:0:
182,192,37904,1,0,0:0:0:0:
329,192,38040,1,0,0:0:0:0:
182,192,38313,128,0,38586:0:0:0:0:
329,192,38586,128,0,38859:0:0:0:0:
475,192,38859,1,0,0:0:0:0:
36,192,38859,1,0,0:0:0:0:
36,192,39131,1,0,0:0:0:0:
109,192,39268,1,0,0:0:0:0:
182,192,39404,1,0,0:0:0:0:
256,192,39540,1,0,0:0:0:0:
329,192,39677,1,0,0:0:0:0:
402,192,39813,1,0,0:0:0:0:
475,192,39950,1,0,0:0:0:0:
329,192,40086,1,0,0:0:0:0:
182,192,40222,1,0,0:0:0:0:
329,192,40495,128,0,40768:0:0:0:0:
182,192,40768,128,0,41040:0:0:0:0:
475,192,41040,1,0,0:0:0:0:
36,192,41040,1,0,0:0:0:0:
402,192,41313,1,0,0:0:0:0:
329,192,41450,1,0,0:0:0:0:
256,192,41586,1,0,0:0:0:0:
109,192,41722,1,0,0:0:0:0:
182,192,41859,1,0,0:0:0:0:
256,192,41995,1,0,0:0:0:0:
329,192,42131,1,0,0:0:0:0:
182,192,42268,1,0,0:0:0:0:
329,192,42404,1,0,0:0:0:0:
109,192,42677,128,0,42950:0:0:0:0:
402,192,42950,128,0,43222:0:0:0:0:
36,192,43222,128,0,43495:0:0:0:0:
256,192,43222,1,0,0:0:0:0:
109,192,43495,1,0,0:0:0:0:
256,192,43768,1,0,0:0:0:0:
475,192,43768,128,0,44040:0:0:0:0:
402,192,44040,1,0,0:0:0:0:
182,192,44313,128,0,45404:0:0:0:0:
329,192,44313,128,0,45404:0:0:0:0:
256,192,45404,1,0,0:0:0:0:
36,192,45677,1,0,0:0:0:0:
475,192,45677,1,0,0:0:0:0:
329,192,45677,1,0,0:0:0:0:
182,192,45950,1,0,0:0:0:0:
329,192,46222,1,0,0:0:0:0:
182,192,46359,1,0,0:0:0:0:
329,192,46495,1,0,0:0:0:0:
182,192,46631,1,0,0:0:0:0:
329,192,46768,1,0,0:0:0:0:
182,192,46904,1,0,0:0:0:0:
402,192,47040,1,0,0:0:0:0:
256,192,47177,1,0,0:0:0:0:
109,192,47313,1,0,0:0:0:0:
256,192,47450,1,0,0:0:0:0:
36,192,47586,1,0,0:0:0:0:
475,192,47586,1,0,0:0:0:0:
182,192,47859,1,0,0:0:0:0:
329,192,48131,1,0,0:0:0:0:
182,192,48404,1,0,0:0:0:0:
329,192,48540,1,0,0:0:0:0:
36,192,48677,1,0,0:0:0:0:
109,192,48813,1,0,0:0:0:0:
182,192,48950,1,0,0:0:0:0:
256,192,49086,1,0,0:0:0:0:
475,192,49222,1,0,0:0:0:0:
402,192,49359,1,0,0:0:0:0:
329,192,49495,1,0,0:0:0:0:
256,192,49631,1,0,0:0:0:0:
36,192,49768,1,0,0:0:0:0:
475,192,49768,1,0,0:0:0:0:
256,192,50040,1,0,0:0:0:0:
402,192,50313,1,0,0:0:0:0:
402,192,50586,1,0,0:0:0:0:
182,192,50722,1,0,0:0:0:0:
109,192,50859,1,0,0:0:0:0:
109,192,51131,1,0,0:0:0:0:
329,192,51268,1,0,0:0:0:0:
402,192,51404,1,0,0:0:0:0:
256,192,51540,1,0,0:0:0:0:
109,192,51677,1,0,0:0:0:0:
256,192,51813,1,0,0:0:0:0:
475,192,51950,1,0,0:0:0:0:
36,192,51950,1,0,0:0:0:0:
329,192,53040,1,0,0:0:0:0:
182,192,53313,1,0,0:0:0:0:
402,192,53586,1,0,0:0:0:0:
109,192,53722,1,0,0:0:0:0:
402,192,53859,1,0,0:0:0:0:
109,192,53995,1,0,0:0:0:0:
475,192,54131,1,0,0:0:0:0:
36,192,54131,1,0,0:0:0:0:
329,192,54131,1,0,0:0:0:0:
329,192,54404,1,0,0:0:0:0:
329,192,54677,1,0,0:0:0:0:
256,192,54813,1,0,0:0:0:0:
182,192,55086,1,0,0:0:0:0:
182,192,55359,1,0,0:0:0:0:
182,192,55631,1,0,0:0:0:0:
182,192,55904,1,0,0:0:0:0:
256,192,56040,1,0,0:0:0:0:
182,192,56177,1,0,0:0:0:0:
402,192,56450,1,0,0:0:0:0:
402,192,56722,1,0,0:0:0:0:
109,192,56859,1,0,0:0:0:0:
402,192,56995,1,0,0:0:0:0:
109,192,57131,1,0,0:0:0:0:
402,192,57268,1,0,0:0:0:0:
256,192,57404,1,0,0:0:0:0:
109,192,57677,1,0,0:0:0:0:
256,192,57813,1,0,0:0:0:0:
402,192,58086,1,0,0:0:0:0:
256,192,58222,128,0,58495:0:0:0:0:
475,192,58495,1,0,0:0:0:0:
475,192,58768,1,0,0:0:0:0:
475,192,59040,1,0,0:0:0:0:
329,192,59177,1,0,0:0:0:0:
36,192,59450,1,0,0:0:0:0:
36,192,59722,1,0,0:0:0:0:
36,192,59995,1,0,0:0:0:0:
36,192,60268,1,0,0:0:0:0:
182,192,60404,1,0,0:0:0:0:
36,192,60540,1,0,0:0:0:0:
256,192,60677,1,0,0:0:0:0:
402,192,60813,1,0,0:0:0:0:
109,192,60950,1,0,0:0:0:0:
402,192,61086,1,0,0:0:0:0:
109,192,61222,1,0,0:0:0:0:
402,192,61359,1,0,0:0:0:0:
182,192,61495,1,0,0:0:0:0:
329,192,61631,1,0,0:0:0:0:
475,192,61768,1,0,0:0:0:0:
36,192,61768,1,0,0:0:0:0:
256,192,61904,1,0,0:0:0:0:
36,192,62177,1,0,0:0:0:0:
475,192,62177,1,0,0:0:0:0:
182,192,62586,128,0,62859:0:0:0:0:
329,192,62586,128,0,62859:0:0:0:0:
475,192,62859,1,0,0:0:0:0:
36,192,62859,1,0,0:0:0:0:
402,192,62859,1,0,0:0:0:0:
402,192,63131,1,0,0:0:0:0:
402,192,63404,1,0,0:0:0:0:
329,192,63540,1,0,0:0:0:0:
109,192,63813,1,0,0:0:0:0:
109,192,64086,1,0,0:0:0:0:
109,192,64359,1,0,0:0:0:0:
109,192,64631,1,0,0:0:0:0:
182,192,64768,1,0,0:0:0:0:
109,192,64904,1,0,0:0:0:0:
475,192,65177,1,0,0:0:0:0:
36,192,65450,1,0,0:0:0:0:
475,192,65586,1,0,0:0:0:0:
36,192,65722,1,0,0:0:0:0:
475,192,65859,1,0,0:0:0:0:
36,192,65995,1,0,0:0:0:0:
329,192,66131,1,0,0:0:0:0:
182,192,66404,1,0,0:0:0:0:
329,192,66540,1,0,0:0:0:0:
182,192,66813,1,0,0:0:0:0:
256,192,66950,128,0,67222:0:0:0:0:
36,192,67222,1,0,0:0:0:0:
109,192,67359,1,0,0:0:0:0:
182,192,67495,1,0,0:0:0:0:
256,192,67631,1,0,0:0:0:0:
475,192,67768,1,0,0:0:0:0:
402,192,67904,1,0,0:0:0:0:
329,192,68040,1,0,0:0:0:0:
256,192,68177,1,0,0:0:0:0:
182,192,68313,128,0,68450:0:0:0:0:
329,192,68450,128,0,68586:0:0:0:0:
182,192,68586,128,0,68722:0:0:0:0:
329,192,68722,128,0,68859:0:0:0:0:
36,192,68859,1,0,0:0:0:0:
182,192,68995,1,0,0:0:0:0:
329,192,69131,1,0,0:0:0:0:
475,192,69268,1,0,0:0:0:0:
256,192,69404,128,0,70495:0:0:0:0:
36,192,71586,1,0,0:0:0:0:
329,192,71586,1,0,0:0:0:0:
109,192,71722,1,0,0:0:0:0:
182,192,71859,1,0,0:0:0:0:
256,192,71995,1,0,0:0:0:0:
402,192,72131,1,0,0:0:0:0:
329,192,72268,1,0,0:0:0:0:
182,192,72404,1,0,0:0:0:0:
109,192,72540,1,0,0:0:0:0:
475,192,72677,1,0,0:0:0:0:
402,192,72813,1,0,0:0:0:0:
329,192,72950,1,0,0:0:0:0:
256,192,73086,1,0,0:0:0:0:
182,192,73222,128,0,73359:0:0:0:0:
329,192,73359,128,0,73495:0:0:0:0:
182,192,73495,128,0,73631:0:0:0:0:
329,192,73631,128,0,73768:0:0:0:0:
36,192,73768,1,0,0:0:0:0:
109,192,73904,1,0,0:0:0:0:
182,192,74040,1,0,0:0:0:0:
329,192,74177,1,0,0:0:0:0:
475,192,74313,1,0,0:0:0:0:
402,192,74450,1,0,0:0:0:0:
329,192,74586,1,0,0:0:0:0:
182,192,74722,1,0,0:0:0:0:
109,192,74859,128,0,74995:0:0:0:0:
402,192,74995,128,0,75131:0:0:0:0:
109,192,75131,128,0,75268:0:0:0:0:
402,192,75268,128,0,75404:0:0:0:0:
182,192,75404,128,0,75540:0:0:0:0:
329,192,75540,128,0,75677:0:0:0:0:
182,192,75677,128,0,75813:0:0:0:0:
329,192,75813,128,0,75950:0:0:0:0:
36,192,75950,1,0,0:0:0:0:
109,192,76086,1,0,0:0:0:0:
182,192,76222,1,0,0:0:0:0:
256,192,76359,1,0,0:0:0:0:
329,192,76495,1,0,0:0:0:0:
402,192,76631,1,0,0:0:0:0:
475,192,76768,1,0,0:0:0:0:
256,192,76904,1,0,0:0:0:0:
36,192,77040,128,0,77177:0:0:0:0:
329,192,77177,128,0,77313:0:0:0:0:
36,192,77313,128,0,77450:0:0:0:0:
329,192,77450,128,0,77586:0:0:0:0:
182,192,77586,128,0,77722:0:0:0:0:
475,192,77722,128,0,77859:0:0:0:0:
182,192,77859,128,0,77995:0:0:0:0:
475,192,77995,128,0,78131:0:0:0:0:
36,192,78131,1,0,0:0:0:0:
182,192,78268,1,0,0:0:0:0:
475,192,78404,1,0,0:0:0:0:
329,192,78540,1,0,0:0:0:0:
109,192,78677,1,0,0:0:0:0:
182,192,78813,1,0,0:0:0:0:
402,192,78950,1,0,0:0:0:0:
329,192,79086,1,0,0:0:0:0:
475,192,79222,1,0,0:0:0:0:
36,192,79222,1,0,0:0:0:0:
402,192,79404,1,0,0:0:0:0:
329,192,79586,1,0,0:0:0:0:
256,192,79768,1,0,0:0:0:0:
182,192,79950,1,0,0:0:0:0:
109,192,80131,1,0,0:0:0:0:
36,192,80313,1,0,0:0:0:0:
329,192,80313,1,0,0:0:0:0:
256,192,80518,1,0,0:0:0:0:
182,192,80722,1,0,0:0:0:0:
109,192,80859,1,0,0:0:0:0:
402,192,80859,1,0,0:0:0:0:
329,192,81063,1,0,0:0:0:0:
256,192,81268,1,0,0:0:0:0:
182,192,81404,1,0,0:0:0:0:
475,192,81404,1,0,0:0:0:0:
402,192,81609,1,0,0:0:0:0:
329,192,81813,1,0,0:0:0:0:
475,192,81950,1,0,0:0:0:0:
36,192,81950,1,0,0:0:0:0:
182,192,82086,1,0,0:0:0:0:
256,192,82222,1,0,0:0:0:0:
329,192,82359,1,0,0:0:0:0:
475,192,82495,1,0,0:0:0:0:
182,192,82495,1,0,0:0:0:0:
256,192,82700,1,0,0:0:0:0:
329,192,82904,1,0,0:0:0:0:
109,192,83040,1,0,0:0:0:0:
402,192,83040,1,0,0:0:0:0:
182,192,83245,1,0,0:0:0:0:
256,192,83450,1,0,0:0:0:0:
36,192,83586,1,0,0:0:0:0:
329,192,83586,1,0,0:0:0:0:
109,192,83722,1,0,0:0:0:0:
182,192,83859,1,0,0:0:0:0:
256,192,83995,1,0,0:0:0:0:
402,192,84131,1,0,0:0:0:0:
109,192,84268,1,0,0:0:0:0:
402,192,84404,1,0,0:0:0:0:
109,192,84540,1,0,0:0:0:0:
475,192,84677,1,0,0:0:0:0:
182,192,84677,1,0,0:0:0:0:
256,192,84881,1,0,0:0:0:0:
329,192,85086,1,0,0:0:0:0:
402,192,85222,1,0,0:0:0:0:
109,192,85222,1,0,0:0:0:0:
182,192,85427,1,0,0:0:0:0:
256,192,85631,1,0,0:0:0:0:
329,192,85768,1,0,0:0:0:0:
36,192,85768,1,0,0:0:0:0:
256,192,85972,1,0,0:0:0:0:
182,192,86177,1,0,0:0:0:0:
109,192,86313,1,0,0:0:0:0:
402,192,86313,1,0,0:0:0:0:
329,192,86518,1,0,0:0:0:0:
256,192,86722,1,0,0:0:0:0:
475,192,86859,1,0,0:0:0:0:
402,192,87063,1,0,0:0:0:0:
329,192,87268,1,0,0:0:0:0:
182,192,87404,1,0,0:0:0:0:
109,192,87609,1,0,0:0:0:0:
36,192,87813,1,0,0:0:0:0:
475,192,87950,1,0,0:0:0:0:
402,192,88086,1,0,0:0:0:0:
329,192,88222,1,0,0:0:0:0:
256,192,88359,1,0,0:0:0:0:
182,192,88495,1,0,0:0:0:0:
109,192,88631,1,0,0:0:0:0:
36,192,88768,1,0,0:0:0:0:
256,192,88904,1,0,0:0:0:0:
256,192,90403,1,0,0:0:0:0:
475,192,90403,1,0,0:0:0:0:
36,192,90403,128,0,91767:0:0:0:0:
182,192,91767,128,0,92312:0:0:0:0:
329,192,92312,128,0,93130:0:0:0:0:
475,192,93130,128,0,94494:0:0:0:0:
182,192,94494,1,0,0:0:0:0:
329,192,94494,1,0,0:0:0:0:
329,192,94903,1,0,0:0:0:0:
182,192,94903,1,0,0:0:0:0:
109,192,95585,1,0,0:0:0:0:
402,192,95585,1,0,0:0:0:0:
36,192,95858,1,0,0:0:0:0:
475,192,95858,1,0,0:0:0:0:
329,192,95858,1,0,0:0:0:0:
182,192,95994,1,0,0:0:0:0:
329,192,96267,1,0,0:0:0:0:
182,192,96403,1,0,0:0:0:0:
402,192,96676,1,0,0:0:0:0:
109,192,96812,1,0,0:0:0:0:
402,192,97085,1,0,0:0:0:0:
109,192,97221,1,0,0:0:0:0:
475,192,97494,1,0,0:0:0:0:
329,192,97630,1,0,0:0:0:0:
182,192,97767,5,0,0:0:0:0:
36,192,97903,1,0,0:0:0:0:
256,192,98039,1,0,0:0:0:0:
36,192,98312,128,0,98585:0:0:0:0:
109,192,98585,128,0,98858:0:0:0:0:
182,192,98858,128,0,99130:0:0:0:0:
256,192,99130,128,0,99403:0:0:0:0:
329,192,99403,128,0,99676:0:0:0:0:
402,192,99676,128,0,99948:0:0:0:0:
475,192,99948,128,0,100221:0:0:0:0:
329,192,100221,128,0,100630:0:0:0:0:
182,192,100221,128,0,100630:0:0:0:0:
36,192,100221,128,0,100630:0:0:0:0:
475,192,100630,1,0,0:0:0:0:
256,192,100767,1,0,0:0:0:0:
182,192,100948,1,0,0:0:0:0:
329,192,101130,1,0,0:0:0:0:
36,192,101312,1,0,0:0:0:0:
475,192,101312,1,0,0:0:0:0:
182,192,101494,1,0,0:0:0:0:
329,192,101494,1,0,0:0:0:0:
109,192,101676,1,0,0:0:0:0:
402,192,101676,1,0,0:0:0:0:
475,192,101858,5,0,0:0:0:0:
36,192,101858,1,0,0:0:0:0:
182,192,102130,128,0,102403:0:0:0:0:
329,192,102130,128,0,102403:0:0:0:0:
36,192,102403,5,0,0:0:0:0:
475,192,102403,1,0,0:0:0:0:
256,192,102403,1,0,0:0:0:0:
329,192,102585,1,0,0:0:0:0:
475,192,102767,1,0,0:0:0:0:
402,192,102948,1,0,0:0:0:0:
182,192,102948,1,0,0:0:0:0:
256,192,103130,1,0,0:0:0:0:
402,192,103312,1,0,0:0:0:0:
36,192,103494,1,0,0:0:0:0:
256,192,103494,1,0,0:0:0:0:
182,192,103676,1,0,0:0:0:0:
36,192,103858,1,0,0:0:0:0:
109,192,104039,1,0,0:0:0:0:
329,192,104039,1,0,0:0:0:0:
256,192,104221,1,0,0:0:0:0:
109,192,104403,1,0,0:0:0:0:
475,192,104585,1,0,0:0:0:0:
402,192,104585,1,0,0:0:0:0:
36,192,104585,1,0,0:0:0:0:
329,192,104721,1,0,0:0:0:0:
256,192,104858,1,0,0:0:0:0:
182,192,104994,1,0,0:0:0:0:
109,192,105130,1,0,0:0:0:0:
402,192,105130,1,0,0:0:0:0:
329,192,105267,1,0,0:0:0:0:
256,192,105403,1,0,0:0:0:0:
182,192,105539,1,0,0:0:0:0:
475,192,105676,1,0,0:0:0:0:
36,192,105676,1,0,0:0:0:0:
182,192,105812,1,0,0:0:0:0:
256,192,105948,1,0,0:0:0:0:
329,192,106085,1,0,0:0:0:0:
402,192,106221,1,0,0:0:0:0:
109,192,106221,1,0,0:0:0:0:
182,192,106358,1,0,0:0:0:0:
256,192,106494,1,0,0:0:0:0:
329,192,106630,1,0,0:0:0:0:
109,192,106767,1,0,0:0:0:0:
475,192,106767,1,0,0:0:0:0:
402,192,106903,1,0,0:0:0:0:
329,192,107039,1,0,0:0:0:0:
256,192,107176,1,0,0:0:0:0:
402,192,107312,1,0,0:0:0:0:
36,192,107312,1,0,0:0:0:0:
109,192,107448,1,0,0:0:0:0:
182,192,107585,1,0,0:0:0:0:
256,192,107721,1,0,0:0:0:0:
109,192,107858,1,0,0:0:0:0:
402,192,107858,1,0,0:0:0:0:
329,192,107994,1,0,0:0:0:0:
256,192,108130,1,0,0:0:0:0:
182,192,108267,1,0,0:0:0:0:
36,192,108403,1,0,0:0:0:0:
475,192,108403,1,0,0:0:0:0:
109,192,108539,1,0,0:0:0:0:
256,192,108676,1,0,0:0:0:0:
402,192,108812,1,0,0:0:0:0:
36,192,108948,1,0,0:0:0:0:
475,192,108948,1,0,0:0:0:0:
256,192,109085,1,0,0:0:0:0:
36,192,109221,1,0,0:0:0:0:
475,192,109221,1,0,0:0:0:0:
109,192,109494,1,0,0:0:0:0:
402,192,109494,1,0,0:0:0:0:
256,192,109630,1,0,0:0:0:0:
109,192,109767,1,0,0:0:0:0:
402,192,109767,1,0,0:0:0:0:
256,192,109903,1,0,0:0:0:0:
109,192,110176,1,0,0:0:0:0:
475,192,110176,1,0,0:0:0:0:
256,192,110312,1,0,0:0:0:0:
109,192,110448,1,0,0:0:0:0:
475,192,110448,1,0,0:0:0:0:
256,192,110585,1,0,0:0:0:0:
402,192,110721,1,0,0:0:0:0:
36,192,110721,1,0,0:0:0:0:
256,192,110858,1,0,0:0:0:0:
36,192,110994,1,0,0:0:0:0:
402,192,110994,1,0,0:0:0:0:
256,192,111130,1,0,0:0:0:0:
182,192,111403,1,0,0:0:0:0:
329,192,111403,1,0,0:0:0:0:
329,192,111676,1,0,0:0:0:0:
182,192,111676,1,0,0:0:0:0:
36,192,112085,1,0,0:0:0:0:
329,192,112085,1,0,0:0:0:0:
182,192,112221,1,0,0:0:0:0:
36,192,112494,1,0,0:0:0:0:
329,192,112494,1,0,0:0:0:0:
182,192,112630,1,0,0:0:0:0:
36,192,112767,1,0,0:0:0:0:
329,192,112767,1,0,0:0:0:0:
182,192,112903,1,0,0:0:0:0:
182,192,113176,1,0,0:0:0:0:
475,192,113176,1,0,0:0:0:0:
329,192,113312,1,0,0:0:0:0:
182,192,113585,1,0,0:0:0:0:
475,192,113585,1,0,0:0:0:0:
329,192,113721,1,0,0:0:0:0:
182,192,113858,1,0,0:0:0:0:
475,192,113858,1,0,0:0:0:0:
329,192,113994,1,0,0:0:0:0:
36,192,114267,1,0,0:0:0:0:
475,192,114267,1,0,0:0:0:0:
256,192,114403,1,0,0:0:0:0:
36,192,114539,1,0,0:0:0:0:
475,192,114539,1,0,0:0:0:0:
475,192,114812,1,0,0:0:0:0:
36,192,114812,1,0,0:0:0:0:
256,192,114948,1,0,0:0:0:0:
109,192,115085,1,0,0:0:0:0:
402,192,115085,1,0,0:0:0:0:
256,192,115221,1,0,0:0:0:0:
182,192,115358,1,0,0:0:0:0:
329,192,115358,1,0,0:0:0:0:
256,192,115494,1,0,0:0:0:0:
109,192,115630,1,0,0:0:0:0:
402,192,115630,1,0,0:0:0:0:
256,192,115767,1,0,0:0:0:0:
182,192,115903,1,0,0:0:0:0:
329,192,115903,1,0,0:0:0:0:
36,192,116039,128,0,116721:0:0:0:0:
475,192,116039,128,0,116721:0:0:0:0:
256,192,116858,128,0,118630:0:0:0:0:
109,192,116858,128,0,117676:0:0:0:0:
402,192,116858,128,0,117676:0:0:0:0:
36,192,118630,128,0,121085:0:0:0:0:
475,192,118630,128,0,121085:0:0:0:0:
182,192,118630,128,0,121085:0:0:0:0:
329,192,118630,128,0,121085:0:0:0:0:
