osu file format v14

[General]
AudioFilename: Fallen Shepherd ft. RabbiTon Strings - ENDYMION.mp3
AudioLeadIn: 0
PreviewTime: 36677
Countdown: 0
SampleSet: Soft
StackLeniency: 0.7
Mode: 3
LetterboxInBreaks: 0
SpecialStyle: 0
WidescreenStoryboard: 1

[Editor]
DistanceSpacing: 0.8
BeatDivisor: 4
GridSize: 32
TimelineZoom: 1.7

[Metadata]
Title:ENDYMION
TitleUnicode:ENDYMION
Artist:Fallen Shepherd ft. RabbiTon Strings
ArtistUnicode:Fallen Shepherd ft. RabbiTon Strings
Creator:Blocko
Version:Insane
Source:Dance Dance Revolution Ace
Tags:arm iosys _underjoy
BeatmapID:1523978
BeatmapSetID:707421

[Difficulty]
HPDrainRate:8
CircleSize:7
OverallDifficulty:8
ApproachRate:8.5
SliderMultiplier:1.4
SliderTickRate:1

[Events]
//Background and Video events
0,0,"ENDYMION_no_diff.png",0,0
//Break Periods
//Storyboard Layer 0 (Background)
//Storyboard Layer 1 (Fail)
//Storyboard Layer 2 (Pass)
//Storyboard Layer 3 (Foreground)
//Storyboard Sound Samples

[TimingPoints]
1223,272.727273,5,2,0,10,1,0
3950,272.727273,3,2,0,10,1,0
8860,272.727273,5,2,0,10,1,0
27950,272.727273,4,2,0,10,1,0
89040,272.727273,5,2,0,10,1,0
95858,272.727273,4,2,0,10,1,0

[HitObjects]
329,192,1223,5,0,0:0:0:0:
182,192,1359,1,0,0:0:0:0:
329,192,1495,1,0,0:0:0:0:
329,192,1768,1,0,0:0:0:0:
402,192,2041,1,0,0:0:0:0:
109,192,2313,1,0,0:0:0:0:
475,192,2586,1,0,0:0:0:0:
36,192,2723,1,0,0:0:0:0:
256,192,2859,1,0,0:0:0:0:
475,192,3132,1,0,0:0:0:0:
36,192,3404,128,0,3677:0:0:0:0:
475,192,3677,128,0,3950:0:0:0:0:
36,192,3950,1,0,0:0:0:0:
182,192,3950,1,0,0:0:0:0:
256,192,4086,1,0,0:0:0:0:
329,192,4222,1,0,0:0:0:0:
109,192,4495,1,0,0:0:0:0:
182,192,4768,1,0,0:0:0:0:
329,192,4768,1,0,0:0:0:0:
402,192,4904,1,0,0:0:0:0:
475,192,5040,1,0,0:0:0:0:
256,192,5313,1,0,0:0:0:0:
36,192,5586,1,0,0:0:0:0:
182,192,5586,1,0,0:0:0:0:
36,192,5859,1,0,0:0:0:0:
109,192,5995,1,0,0:0:0:0:
182,192,6131,1,0,0:0:0:0:
329,192,6336,1,0,0:0:0:0:
402,192,6540,1,0,0:0:0:0:
475,192,6813,1,0,0:0:0:0:
475,192,7359,128,0,8722:0:0:0:0:
256,192,7359,128,0,8722:0:0:0:0:
36,192,7359,128,0,8722:0:0:0:0:
36,192,8860,1,0,0:0:0:0:
109,192,8860,1,0,0:0:0:0:
329,192,8860,1,0,0:0:0:0:
475,192,8860,1,0,0:0:0:0:
256,192,8996,1,0,0:0:0:0:
182,192,9132,1,0,0:0:0:0:
329,192,9269,1,0,0:0:0:0:
256,192,9405,1,0,0:0:0:0:
182,192,9541,1,0,0:0:0:0:
329,192,9678,1,0,0:0:0:0:
109,192,9814,1,0,0:0:0:0:
402,192,9950,1,0,0:0:0:0:
182,192,10087,1,0,0:0:0:0:
329,192,10223,1,0,0:0:0:0:
36,192,10223,1,0,0:0:0:0:
109,192,10223,1,0,0:0:0:0:
256,192,10360,1,0,0:0:0:0:
182,192,10496,1,0,0:0:0:0:
329,192,10632,1,0,0:0:0:0:
36,192,10632,1,0,0:0:0:0:
109,192,10632,1,0,0:0:0:0:
256,192,10769,1,0,0:0:0:0:
182,192,10905,1,0,0:0:0:0:
329,192,11041,1,0,0:0:0:0:
109,192,11178,1,0,0:0:0:0:
402,192,11314,1,0,0:0:0:0:
182,192,11450,1,0,0:0:0:0:
329,192,11587,1,0,0:0:0:0:
36,192,11587,1,0,0:0:0:0:
109,192,11587,1,0,0:0:0:0:
475,192,11587,1,0,0:0:0:0:
256,192,11723,1,0,0:0:0:0:
182,192,11860,1,0,0:0:0:0:
329,192,11996,1,0,0:0:0:0:
256,192,12132,1,0,0:0:0:0:
182,192,12269,1,0,0:0:0:0:
329,192,12405,1,0,0:0:0:0:
109,192,12541,1,0,0:0:0:0:
402,192,12678,1,0,0:0:0:0:
182,192,12814,1,0,0:0:0:0:
329,192,12950,1,0,0:0:0:0:
36,192,12950,1,0,0:0:0:0:
109,192,12950,1,0,0:0:0:0:
256,192,13087,1,0,0:0:0:0:
182,192,13223,1,0,0:0:0:0:
329,192,13360,1,0,0:0:0:0:
109,192,13360,1,0,0:0:0:0:
36,192,13360,1,0,0:0:0:0:
256,192,13496,1,0,0:0:0:0:
182,192,13632,1,0,0:0:0:0:
475,192,13769,1,0,0:0:0:0:
402,192,13769,1,0,0:0:0:0:
329,192,13837,1,0,0:0:0:0:
256,192,13905,1,0,0:0:0:0:
182,192,13973,1,0,0:0:0:0:
402,192,14041,1,0,0:0:0:0:
109,192,14041,1,0,0:0:0:0:
36,192,14041,1,0,0:0:0:0:
329,192,14178,1,0,0:0:0:0:
402,192,14314,1,0,0:0:0:0:
182,192,14314,1,0,0:0:0:0:
36,192,14314,1,0,0:0:0:0:
475,192,14314,1,0,0:0:0:0:
256,192,14450,1,0,0:0:0:0:
109,192,14587,1,0,0:0:0:0:
402,192,14723,1,0,0:0:0:0:
256,192,14860,1,0,0:0:0:0:
109,192,14996,1,0,0:0:0:0:
329,192,15132,1,0,0:0:0:0:
182,192,15269,1,0,0:0:0:0:
475,192,15405,1,0,0:0:0:0:
256,192,15541,1,0,0:0:0:0:
402,192,15678,1,0,0:0:0:0:
109,192,15678,1,0,0:0:0:0:
36,192,15678,1,0,0:0:0:0:
329,192,15814,1,0,0:0:0:0:
256,192,15950,1,0,0:0:0:0:
402,192,16087,1,0,0:0:0:0:
109,192,16087,1,0,0:0:0:0:
36,192,16087,1,0,0:0:0:0:
329,192,16223,1,0,0:0:0:0:
256,192,16360,1,0,0:0:0:0:
109,192,16496,1,0,0:0:0:0:
36,192,16496,1,0,0:0:0:0:
182,192,16564,1,0,0:0:0:0:
256,192,16632,1,0,0:0:0:0:
329,192,16700,1,0,0:0:0:0:
475,192,16769,1,0,0:0:0:0:
402,192,16769,1,0,0:0:0:0:
109,192,16769,1,0,0:0:0:0:
182,192,16905,1,0,0:0:0:0:
329,192,17041,1,0,0:0:0:0:
402,192,17041,1,0,0:0:0:0:
36,192,17041,1,0,0:0:0:0:
475,192,17041,1,0,0:0:0:0:
256,192,17178,1,0,0:0:0:0:
182,192,17314,1,0,0:0:0:0:
329,192,17450,1,0,0:0:0:0:
256,192,17587,1,0,0:0:0:0:
182,192,17723,1,0,0:0:0:0:
402,192,17860,1,0,0:0:0:0:
109,192,17996,1,0,0:0:0:0:
475,192,18132,1,0,0:0:0:0:
36,192,18132,1,0,0:0:0:0:
329,192,18132,1,0,0:0:0:0:
256,192,18269,1,0,0:0:0:0:
182,192,18405,1,0,0:0:0:0:
109,192,18405,1,0,0:0:0:0:
475,192,18405,1,0,0:0:0:0:
36,192,18405,1,0,0:0:0:0:
329,192,18541,1,0,0:0:0:0:
182,192,18610,1,0,0:0:0:0:
109,192,18610,1,0,0:0:0:0:
402,192,18678,1,0,0:0:0:0:
475,192,18814,1,0,0:0:0:0:
109,192,18814,1,0,0:0:0:0:
182,192,18814,1,0,0:0:0:0:
329,192,18950,1,0,0:0:0:0:
182,192,19019,1,0,0:0:0:0:
109,192,19019,1,0,0:0:0:0:
475,192,19087,1,0,0:0:0:0:
36,192,19223,1,0,0:0:0:0:
329,192,19223,1,0,0:0:0:0:
256,192,19291,1,0,0:0:0:0:
182,192,19360,1,0,0:0:0:0:
109,192,19428,1,0,0:0:0:0:
36,192,19496,1,0,0:0:0:0:
475,192,19496,1,0,0:0:0:0:
402,192,19564,1,0,0:0:0:0:
329,192,19632,1,0,0:0:0:0:
256,192,19700,1,0,0:0:0:0:
182,192,19769,1,0,0:0:0:0:
36,192,19769,1,0,0:0:0:0:
475,192,19769,128,0,20314:0:0:0:0:
109,192,19769,1,0,0:0:0:0:
182,192,19905,1,0,0:0:0:0:
36,192,20041,1,0,0:0:0:0:
402,192,20041,1,0,0:0:0:0:
109,192,20110,1,0,0:0:0:0:
182,192,20178,1,0,0:0:0:0:
256,192,20246,1,0,0:0:0:0:
329,192,20314,1,0,0:0:0:0:
36,192,20314,1,0,0:0:0:0:
329,192,20450,1,0,0:0:0:0:
109,192,20587,1,0,0:0:0:0:
402,192,20587,1,0,0:0:0:0:
329,192,20655,1,0,0:0:0:0:
256,192,20723,1,0,0:0:0:0:
36,192,20860,1,0,0:0:0:0:
475,192,20860,1,0,0:0:0:0:
109,192,20928,1,0,0:0:0:0:
182,192,20996,1,0,0:0:0:0:
256,192,21064,1,0,0:0:0:0:
475,192,21132,128,0,21678:0:0:0:0:
36,192,21132,1,0,0:0:0:0:
329,192,21132,1,0,0:0:0:0:
402,192,21132,1,0,0:0:0:0:
36,192,21269,1,0,0:0:0:0:
402,192,21405,1,0,0:0:0:0:
109,192,21405,1,0,0:0:0:0:
182,192,21473,1,0,0:0:0:0:
256,192,21541,1,0,0:0:0:0:
329,192,21610,1,0,0:0:0:0:
402,192,21678,1,0,0:0:0:0:
109,192,21678,1,0,0:0:0:0:
109,192,21814,1,0,0:0:0:0:
475,192,21950,1,0,0:0:0:0:
182,192,21950,1,0,0:0:0:0:
402,192,22019,1,0,0:0:0:0:
329,192,22087,1,0,0:0:0:0:
256,192,22155,1,0,0:0:0:0:
36,192,22223,1,0,0:0:0:0:
475,192,22223,1,0,0:0:0:0:
109,192,22291,1,0,0:0:0:0:
182,192,22360,1,0,0:0:0:0:
256,192,22428,1,0,0:0:0:0:
329,192,22496,1,0,0:0:0:0:
36,192,22496,128,0,23041:0:0:0:0:
475,192,22496,1,0,0:0:0:0:
402,192,22496,1,0,0:0:0:0:
329,192,22632,1,0,0:0:0:0:
475,192,22769,1,0,0:0:0:0:
109,192,22769,1,0,0:0:0:0:
402,192,22837,1,0,0:0:0:0:
329,192,22905,1,0,0:0:0:0:
256,192,22973,1,0,0:0:0:0:
475,192,23041,1,0,0:0:0:0:
182,192,23041,1,0,0:0:0:0:
182,192,23178,1,0,0:0:0:0:
402,192,23314,1,0,0:0:0:0:
109,192,23314,1,0,0:0:0:0:
182,192,23382,5,0,0:0:0:0:
256,192,23450,1,0,0:0:0:0:
36,192,23587,1,0,0:0:0:0:
475,192,23587,1,0,0:0:0:0:
402,192,23655,1,0,0:0:0:0:
329,192,23723,1,0,0:0:0:0:
256,192,23791,1,0,0:0:0:0:
475,192,23860,1,0,0:0:0:0:
182,192,23860,1,0,0:0:0:0:
36,192,23860,128,0,24405:0:0:0:0:
109,192,23860,1,0,0:0:0:0:
475,192,23996,1,0,0:0:0:0:
109,192,24132,1,0,0:0:0:0:
402,192,24132,1,0,0:0:0:0:
329,192,24200,1,0,0:0:0:0:
256,192,24269,1,0,0:0:0:0:
182,192,24337,1,0,0:0:0:0:
402,192,24405,1,0,0:0:0:0:
109,192,24405,1,0,0:0:0:0:
402,192,24541,1,0,0:0:0:0:
36,192,24678,1,0,0:0:0:0:
182,192,24678,1,0,0:0:0:0:
256,192,24746,1,0,0:0:0:0:
329,192,24814,1,0,0:0:0:0:
402,192,24882,1,0,0:0:0:0:
475,192,24950,1,0,0:0:0:0:
36,192,24950,1,0,0:0:0:0:
109,192,25019,1,0,0:0:0:0:
182,192,25087,1,0,0:0:0:0:
256,192,25155,1,0,0:0:0:0:
36,192,25223,1,0,0:0:0:0:
329,192,25223,1,0,0:0:0:0:
475,192,25223,128,0,25769:0:0:0:0:
402,192,25223,1,0,0:0:0:0:
36,192,25360,1,0,0:0:0:0:
329,192,25496,1,0,0:0:0:0:
109,192,25496,1,0,0:0:0:0:
182,192,25564,1,0,0:0:0:0:
256,192,25632,1,0,0:0:0:0:
329,192,25700,1,0,0:0:0:0:
402,192,25769,1,0,0:0:0:0:
109,192,25769,1,0,0:0:0:0:
109,192,25905,1,0,0:0:0:0:
182,192,26041,1,0,0:0:0:0:
475,192,26041,1,0,0:0:0:0:
256,192,26110,1,0,0:0:0:0:
329,192,26178,1,0,0:0:0:0:
475,192,26314,1,0,0:0:0:0:
109,192,26314,1,0,0:0:0:0:
402,192,26382,1,0,0:0:0:0:
329,192,26450,1,0,0:0:0:0:
256,192,26519,1,0,0:0:0:0:
36,192,26587,128,0,27132:0:0:0:0:
182,192,26587,1,0,0:0:0:0:
475,192,26587,1,0,0:0:0:0:
109,192,26587,1,0,0:0:0:0:
475,192,26723,1,0,0:0:0:0:
402,192,26860,1,0,0:0:0:0:
182,192,26860,1,0,0:0:0:0:
329,192,26928,1,0,0:0:0:0:
256,192,26996,1,0,0:0:0:0:
182,192,27064,1,0,0:0:0:0:
109,192,27132,1,0,0:0:0:0:
402,192,27132,1,0,0:0:0:0:
402,192,27269,1,0,0:0:0:0:
329,192,27405,1,0,0:0:0:0:
36,192,27405,1,0,0:0:0:0:
256,192,27473,1,0,0:0:0:0:
182,192,27541,1,0,0:0:0:0:
109,192,27610,1,0,0:0:0:0:
475,192,27678,1,0,0:0:0:0:
36,192,27678,1,0,0:0:0:0:
402,192,27746,1,0,0:0:0:0:
329,192,27814,1,0,0:0:0:0:
256,192,27882,1,0,0:0:0:0:
475,192,27950,5,0,0:0:0:0:
36,192,27950,1,0,0:0:0:0:
402,192,27950,1,0,0:0:0:0:
109,192,27950,1,0,0:0:0:0:
182,192,28086,1,0,0:0:0:0:
256,192,28222,1,0,0:0:0:0:
402,192,28222,1,0,0:0:0:0:
109,192,28359,1,0,0:0:0:0:
36,192,28495,1,0,0:0:0:0:
256,192,28495,1,0,0:0:0:0:
329,192,28495,1,0,0:0:0:0:
182,192,28631,1,0,0:0:0:0:
329,192,28768,1,0,0:0:0:0:
475,192,28768,1,0,0:0:0:0:
109,192,28904,1,0,0:0:0:0:
36,192,29040,1,0,0:0:0:0:
475,192,29040,1,0,0:0:0:0:
402,192,29040,1,0,0:0:0:0:
182,192,29177,1,0,0:0:0:0:
256,192,29313,1,0,0:0:0:0:
402,192,29313,1,0,0:0:0:0:
109,192,29450,1,0,0:0:0:0:
36,192,29586,1,0,0:0:0:0:
256,192,29586,1,0,0:0:0:0:
329,192,29586,1,0,0:0:0:0:
182,192,29722,1,0,0:0:0:0:
329,192,29859,1,0,0:0:0:0:
475,192,29859,1,0,0:0:0:0:
109,192,29995,1,0,0:0:0:0:
402,192,30131,1,0,0:0:0:0:
475,192,30131,1,0,0:0:0:0:
36,192,30131,1,0,0:0:0:0:
256,192,30268,1,0,0:0:0:0:
402,192,30404,1,0,0:0:0:0:
182,192,30404,1,0,0:0:0:0:
36,192,30404,1,0,0:0:0:0:
329,192,30540,1,0,0:0:0:0:
475,192,30677,1,0,0:0:0:0:
256,192,30677,1,0,0:0:0:0:
109,192,30677,1,0,0:0:0:0:
402,192,30813,1,0,0:0:0:0:
475,192,30950,1,0,0:0:0:0:
182,192,30950,1,0,0:0:0:0:
329,192,30950,1,0,0:0:0:0:
109,192,31086,1,0,0:0:0:0:
36,192,31222,1,0,0:0:0:0:
402,192,31222,1,0,0:0:0:0:
256,192,31222,1,0,0:0:0:0:
182,192,31359,1,0,0:0:0:0:
329,192,31495,1,0,0:0:0:0:
475,192,31495,1,0,0:0:0:0:
36,192,31495,1,0,0:0:0:0:
109,192,31631,1,0,0:0:0:0:
256,192,31631,1,0,0:0:0:0:
182,192,31768,1,0,0:0:0:0:
475,192,31768,1,0,0:0:0:0:
402,192,31768,1,0,0:0:0:0:
109,192,31904,1,0,0:0:0:0:
329,192,31904,1,0,0:0:0:0:
256,192,32040,1,0,0:0:0:0:
36,192,32040,1,0,0:0:0:0:
475,192,32040,1,0,0:0:0:0:
182,192,32177,1,0,0:0:0:0:
402,192,32177,1,0,0:0:0:0:
36,192,32313,1,0,0:0:0:0:
256,192,32313,1,0,0:0:0:0:
475,192,32313,1,0,0:0:0:0:
329,192,32313,1,0,0:0:0:0:
109,192,32381,1,0,0:0:0:0:
182,192,32450,1,0,0:0:0:0:
256,192,32518,1,0,0:0:0:0:
36,192,32586,1,0,0:0:0:0:
402,192,32586,1,0,0:0:0:0:
109,192,32654,1,0,0:0:0:0:
182,192,32722,1,0,0:0:0:0:
329,192,32790,1,0,0:0:0:0:
36,192,32859,1,0,0:0:0:0:
475,192,32859,1,0,0:0:0:0:
109,192,32927,1,0,0:0:0:0:
256,192,32995,1,0,0:0:0:0:
402,192,33063,1,0,0:0:0:0:
36,192,33131,1,0,0:0:0:0:
475,192,33131,1,0,0:0:0:0:
182,192,33200,1,0,0:0:0:0:
329,192,33268,1,0,0:0:0:0:
402,192,33336,1,0,0:0:0:0:
475,192,33404,1,0,0:0:0:0:
109,192,33404,1,0,0:0:0:0:
256,192,33472,1,0,0:0:0:0:
329,192,33540,1,0,0:0:0:0:
402,192,33609,1,0,0:0:0:0:
182,192,33677,1,0,0:0:0:0:
36,192,33677,1,0,0:0:0:0:
256,192,33745,1,0,0:0:0:0:
329,192,33813,1,0,0:0:0:0:
402,192,33881,1,0,0:0:0:0:
109,192,33950,1,0,0:0:0:0:
475,192,33950,1,0,0:0:0:0:
182,192,34018,1,0,0:0:0:0:
256,192,34086,1,0,0:0:0:0:
329,192,34154,1,0,0:0:0:0:
402,192,34222,1,0,0:0:0:0:
36,192,34222,1,0,0:0:0:0:
109,192,34290,1,0,0:0:0:0:
182,192,34359,1,0,0:0:0:0:
256,192,34427,1,0,0:0:0:0:
36,192,34495,128,0,35586:0:0:0:0:
475,192,34495,128,0,35586:0:0:0:0:
256,192,35040,128,0,35586:0:0:0:0:
109,192,35586,1,0,0:0:0:0:
402,192,35722,1,0,0:0:0:0:
256,192,35859,1,0,0:0:0:0:
402,192,35995,1,0,0:0:0:0:
109,192,36131,1,0,0:0:0:0:
256,192,36268,1,0,0:0:0:0:
402,192,36404,1,0,0:0:0:0:
109,192,36540,1,0,0:0:0:0:
329,192,36677,128,0,36881:0:0:0:0:
475,192,36677,128,0,36881:0:0:0:0:
36,192,36677,128,0,36881:0:0:0:0:
182,192,36677,128,0,36881:0:0:0:0:
36,192,36950,1,0,0:0:0:0:
109,192,36950,1,0,0:0:0:0:
475,192,36950,1,0,0:0:0:0:
475,192,37086,1,0,0:0:0:0:
36,192,37222,1,0,0:0:0:0:
109,192,37222,1,0,0:0:0:0:
475,192,37222,1,0,0:0:0:0:
402,192,37359,1,0,0:0:0:0:
402,192,37495,1,0,0:0:0:0:
109,192,37495,1,0,0:0:0:0:
36,192,37495,1,0,0:0:0:0:
402,192,37631,1,0,0:0:0:0:
36,192,37768,1,0,0:0:0:0:
109,192,37768,1,0,0:0:0:0:
329,192,37768,1,0,0:0:0:0:
109,192,37904,1,0,0:0:0:0:
36,192,37904,1,0,0:0:0:0:
329,192,37904,1,0,0:0:0:0:
36,192,38040,1,0,0:0:0:0:
109,192,38040,1,0,0:0:0:0:
329,192,38040,128,0,38313:0:0:0:0:
402,192,38313,1,0,0:0:0:0:
36,192,38313,1,0,0:0:0:0:
109,192,38381,1,0,0:0:0:0:
182,192,38450,1,0,0:0:0:0:
256,192,38518,1,0,0:0:0:0:
109,192,38586,1,0,0:0:0:0:
475,192,38586,1,0,0:0:0:0:
402,192,38654,1,0,0:0:0:0:
329,192,38722,1,0,0:0:0:0:
256,192,38790,1,0,0:0:0:0:
36,192,38859,128,0,39063:0:0:0:0:
182,192,38859,128,0,39063:0:0:0:0:
402,192,38859,128,0,39063:0:0:0:0:
475,192,39131,1,0,0:0:0:0:
182,192,39131,1,0,0:0:0:0:
109,192,39131,1,0,0:0:0:0:
475,192,39268,1,0,0:0:0:0:
475,192,39404,1,0,0:0:0:0:
109,192,39404,1,0,0:0:0:0:
182,192,39404,1,0,0:0:0:0:
329,192,39540,1,0,0:0:0:0:
329,192,39677,1,0,0:0:0:0:
182,192,39677,1,0,0:0:0:0:
109,192,39677,1,0,0:0:0:0:
329,192,39813,1,0,0:0:0:0:
109,192,39950,1,0,0:0:0:0:
475,192,39950,1,0,0:0:0:0:
182,192,40018,1,0,0:0:0:0:
256,192,40086,1,0,0:0:0:0:
475,192,40086,1,0,0:0:0:0:
329,192,40154,1,0,0:0:0:0:
402,192,40222,1,0,0:0:0:0:
36,192,40222,1,0,0:0:0:0:
109,192,40290,1,0,0:0:0:0:
182,192,40359,1,0,0:0:0:0:
256,192,40427,1,0,0:0:0:0:
475,192,40495,1,0,0:0:0:0:
109,192,40495,1,0,0:0:0:0:
402,192,40563,1,0,0:0:0:0:
329,192,40631,1,0,0:0:0:0:
256,192,40700,1,0,0:0:0:0:
36,192,40768,1,0,0:0:0:0:
402,192,40768,1,0,0:0:0:0:
329,192,40836,1,0,0:0:0:0:
36,192,40904,1,0,0:0:0:0:
256,192,40904,1,0,0:0:0:0:
182,192,40972,1,0,0:0:0:0:
109,192,41040,128,0,41245:0:0:0:0:
329,192,41040,128,0,41245:0:0:0:0:
475,192,41040,128,0,41245:0:0:0:0:
182,192,41313,1,0,0:0:0:0:
36,192,41313,1,0,0:0:0:0:
402,192,41313,1,0,0:0:0:0:
402,192,41450,1,0,0:0:0:0:
402,192,41586,1,0,0:0:0:0:
182,192,41586,1,0,0:0:0:0:
36,192,41586,1,0,0:0:0:0:
329,192,41722,1,0,0:0:0:0:
329,192,41859,1,0,0:0:0:0:
36,192,41859,1,0,0:0:0:0:
182,192,41859,1,0,0:0:0:0:
329,192,41995,1,0,0:0:0:0:
256,192,42131,1,0,0:0:0:0:
182,192,42131,1,0,0:0:0:0:
36,192,42131,1,0,0:0:0:0:
475,192,42268,1,0,0:0:0:0:
182,192,42404,1,0,0:0:0:0:
36,192,42404,1,0,0:0:0:0:
475,192,42404,128,0,42677:0:0:0:0:
109,192,42677,1,0,0:0:0:0:
36,192,42677,1,0,0:0:0:0:
182,192,42745,1,0,0:0:0:0:
256,192,42813,1,0,0:0:0:0:
329,192,42881,1,0,0:0:0:0:
402,192,42950,1,0,0:0:0:0:
475,192,42950,1,0,0:0:0:0:
256,192,43018,1,0,0:0:0:0:
182,192,43086,1,0,0:0:0:0:
109,192,43154,1,0,0:0:0:0:
475,192,43222,1,0,0:0:0:0:
36,192,43222,1,0,0:0:0:0:
329,192,43222,128,0,43495:0:0:0:0:
182,192,43359,1,0,0:0:0:0:
36,192,43495,1,0,0:0:0:0:
109,192,43495,1,0,0:0:0:0:
256,192,43631,1,0,0:0:0:0:
475,192,43768,1,0,0:0:0:0:
36,192,43768,1,0,0:0:0:0:
182,192,43768,128,0,44040:0:0:0:0:
329,192,43904,1,0,0:0:0:0:
475,192,44040,1,0,0:0:0:0:
402,192,44040,1,0,0:0:0:0:
256,192,44177,1,0,0:0:0:0:
36,192,44313,128,0,44381:0:0:0:0:
109,192,44381,128,0,44450:0:0:0:0:
329,192,44450,128,0,44518:0:0:0:0:
256,192,44518,128,0,44586:0:0:0:0:
109,192,44586,128,0,44654:0:0:0:0:
182,192,44654,128,0,44722:0:0:0:0:
402,192,44722,128,0,44790:0:0:0:0:
329,192,44790,128,0,44859:0:0:0:0:
182,192,44859,128,0,44927:0:0:0:0:
256,192,44927,128,0,44995:0:0:0:0:
475,192,44995,128,0,45063:0:0:0:0:
402,192,45063,128,0,45131:0:0:0:0:
109,192,45131,128,0,45200:0:0:0:0:
182,192,45200,128,0,45268:0:0:0:0:
402,192,45268,128,0,45336:0:0:0:0:
329,192,45336,128,0,45404:0:0:0:0:
256,192,45404,128,0,45677:0:0:0:0:
329,192,45677,128,0,45881:0:0:0:0:
475,192,45677,128,0,45881:0:0:0:0:
182,192,45677,128,0,45881:0:0:0:0:
36,192,45677,128,0,45881:0:0:0:0:
36,192,45950,1,0,0:0:0:0:
256,192,45950,1,0,0:0:0:0:
475,192,45950,1,0,0:0:0:0:
475,192,46154,1,0,0:0:0:0:
329,192,46154,1,0,0:0:0:0:
182,192,46222,1,0,0:0:0:0:
36,192,46222,1,0,0:0:0:0:
475,192,46359,1,0,0:0:0:0:
329,192,46359,1,0,0:0:0:0:
182,192,46495,1,0,0:0:0:0:
36,192,46495,1,0,0:0:0:0:
329,192,46631,1,0,0:0:0:0:
475,192,46631,1,0,0:0:0:0:
182,192,46768,1,0,0:0:0:0:
36,192,46768,1,0,0:0:0:0:
329,192,46904,1,0,0:0:0:0:
475,192,46904,1,0,0:0:0:0:
36,192,47040,1,0,0:0:0:0:
256,192,47040,1,0,0:0:0:0:
109,192,47109,1,0,0:0:0:0:
402,192,47177,1,0,0:0:0:0:
182,192,47177,1,0,0:0:0:0:
256,192,47245,1,0,0:0:0:0:
36,192,47313,1,0,0:0:0:0:
475,192,47313,1,0,0:0:0:0:
402,192,47381,1,0,0:0:0:0:
329,192,47450,1,0,0:0:0:0:
109,192,47450,1,0,0:0:0:0:
256,192,47518,1,0,0:0:0:0:
36,192,47586,128,0,47790:0:0:0:0:
182,192,47586,128,0,47790:0:0:0:0:
475,192,47586,128,0,47790:0:0:0:0:
402,192,47859,1,0,0:0:0:0:
329,192,47859,1,0,0:0:0:0:
256,192,47859,1,0,0:0:0:0:
109,192,48131,1,0,0:0:0:0:
182,192,48131,1,0,0:0:0:0:
256,192,48131,1,0,0:0:0:0:
402,192,48336,1,0,0:0:0:0:
329,192,48336,1,0,0:0:0:0:
182,192,48404,1,0,0:0:0:0:
109,192,48404,1,0,0:0:0:0:
329,192,48540,1,0,0:0:0:0:
402,192,48540,1,0,0:0:0:0:
182,192,48677,1,0,0:0:0:0:
475,192,48677,1,0,0:0:0:0:
256,192,48745,1,0,0:0:0:0:
36,192,48813,1,0,0:0:0:0:
329,192,48813,1,0,0:0:0:0:
402,192,48881,1,0,0:0:0:0:
109,192,48881,1,0,0:0:0:0:
182,192,48950,1,0,0:0:0:0:
475,192,48950,1,0,0:0:0:0:
329,192,49018,1,0,0:0:0:0:
109,192,49086,1,0,0:0:0:0:
256,192,49086,1,0,0:0:0:0:
182,192,49154,1,0,0:0:0:0:
475,192,49222,1,0,0:0:0:0:
36,192,49222,1,0,0:0:0:0:
402,192,49290,1,0,0:0:0:0:
329,192,49359,1,0,0:0:0:0:
109,192,49359,1,0,0:0:0:0:
256,192,49427,1,0,0:0:0:0:
36,192,49495,1,0,0:0:0:0:
475,192,49495,1,0,0:0:0:0:
109,192,49563,1,0,0:0:0:0:
182,192,49631,1,0,0:0:0:0:
402,192,49631,1,0,0:0:0:0:
256,192,49700,1,0,0:0:0:0:
36,192,49768,128,0,49972:0:0:0:0:
329,192,49768,128,0,49972:0:0:0:0:
475,192,49768,128,0,49972:0:0:0:0:
475,192,50040,1,0,0:0:0:0:
402,192,50040,1,0,0:0:0:0:
256,192,50040,1,0,0:0:0:0:
182,192,50313,1,0,0:0:0:0:
36,192,50313,1,0,0:0:0:0:
256,192,50313,1,0,0:0:0:0:
475,192,50518,1,0,0:0:0:0:
329,192,50518,1,0,0:0:0:0:
182,192,50586,1,0,0:0:0:0:
36,192,50586,1,0,0:0:0:0:
475,192,50722,1,0,0:0:0:0:
329,192,50722,1,0,0:0:0:0:
182,192,50859,1,0,0:0:0:0:
109,192,50859,1,0,0:0:0:0:
256,192,50859,1,0,0:0:0:0:
402,192,51063,1,0,0:0:0:0:
329,192,51063,1,0,0:0:0:0:
182,192,51131,1,0,0:0:0:0:
109,192,51131,1,0,0:0:0:0:
402,192,51268,1,0,0:0:0:0:
329,192,51268,1,0,0:0:0:0:
36,192,51404,1,0,0:0:0:0:
475,192,51404,1,0,0:0:0:0:
109,192,51472,1,0,0:0:0:0:
402,192,51540,1,0,0:0:0:0:
182,192,51540,1,0,0:0:0:0:
256,192,51609,1,0,0:0:0:0:
36,192,51677,1,0,0:0:0:0:
475,192,51677,1,0,0:0:0:0:
402,192,51745,1,0,0:0:0:0:
109,192,51813,1,0,0:0:0:0:
329,192,51813,1,0,0:0:0:0:
256,192,51881,1,0,0:0:0:0:
402,192,51950,1,0,0:0:0:0:
36,192,51950,1,0,0:0:0:0:
475,192,51950,1,0,0:0:0:0:
182,192,52086,1,0,0:0:0:0:
329,192,52222,1,0,0:0:0:0:
109,192,52359,1,0,0:0:0:0:
402,192,52495,1,0,0:0:0:0:
182,192,52631,1,0,0:0:0:0:
329,192,52768,1,0,0:0:0:0:
109,192,52904,1,0,0:0:0:0:
182,192,53040,1,0,0:0:0:0:
402,192,53040,1,0,0:0:0:0:
36,192,53177,1,0,0:0:0:0:
109,192,53313,1,0,0:0:0:0:
402,192,53313,1,0,0:0:0:0:
256,192,53450,1,0,0:0:0:0:
475,192,53586,1,0,0:0:0:0:
109,192,53586,1,0,0:0:0:0:
402,192,53722,1,0,0:0:0:0:
109,192,53722,1,0,0:0:0:0:
329,192,53859,1,0,0:0:0:0:
109,192,53859,1,0,0:0:0:0:
109,192,53995,1,0,0:0:0:0:
256,192,53995,1,0,0:0:0:0:
182,192,54131,1,0,0:0:0:0:
36,192,54131,1,0,0:0:0:0:
475,192,54131,1,0,0:0:0:0:
402,192,54131,1,0,0:0:0:0:
36,192,54404,1,0,0:0:0:0:
182,192,54404,1,0,0:0:0:0:
402,192,54404,1,0,0:0:0:0:
402,192,54677,1,0,0:0:0:0:
182,192,54677,1,0,0:0:0:0:
36,192,54677,1,0,0:0:0:0:
402,192,54813,128,0,54950:0:0:0:0:
182,192,54950,1,0,0:0:0:0:
36,192,54950,1,0,0:0:0:0:
329,192,55086,1,0,0:0:0:0:
36,192,55222,1,0,0:0:0:0:
182,192,55222,1,0,0:0:0:0:
329,192,55359,1,0,0:0:0:0:
182,192,55495,1,0,0:0:0:0:
36,192,55495,1,0,0:0:0:0:
329,192,55631,1,0,0:0:0:0:
36,192,55768,1,0,0:0:0:0:
182,192,55768,1,0,0:0:0:0:
109,192,55904,1,0,0:0:0:0:
329,192,55904,1,0,0:0:0:0:
182,192,55972,1,0,0:0:0:0:
256,192,56040,1,0,0:0:0:0:
329,192,56040,1,0,0:0:0:0:
256,192,56177,1,0,0:0:0:0:
329,192,56177,1,0,0:0:0:0:
36,192,56313,1,0,0:0:0:0:
109,192,56313,1,0,0:0:0:0:
475,192,56450,1,0,0:0:0:0:
109,192,56586,1,0,0:0:0:0:
36,192,56586,1,0,0:0:0:0:
475,192,56722,1,0,0:0:0:0:
475,192,56859,1,0,0:0:0:0:
36,192,56859,1,0,0:0:0:0:
109,192,56859,1,0,0:0:0:0:
475,192,56995,1,0,0:0:0:0:
475,192,57131,1,0,0:0:0:0:
109,192,57131,1,0,0:0:0:0:
36,192,57131,1,0,0:0:0:0:
475,192,57268,1,0,0:0:0:0:
402,192,57404,1,0,0:0:0:0:
256,192,57404,1,0,0:0:0:0:
36,192,57540,1,0,0:0:0:0:
109,192,57609,1,0,0:0:0:0:
182,192,57677,1,0,0:0:0:0:
329,192,57677,1,0,0:0:0:0:
256,192,57813,1,0,0:0:0:0:
109,192,57813,1,0,0:0:0:0:
475,192,57950,1,0,0:0:0:0:
402,192,58018,1,0,0:0:0:0:
329,192,58086,1,0,0:0:0:0:
182,192,58086,1,0,0:0:0:0:
256,192,58222,1,0,0:0:0:0:
402,192,58222,1,0,0:0:0:0:
109,192,58222,128,0,58495:0:0:0:0:
329,192,58495,1,0,0:0:0:0:
475,192,58495,1,0,0:0:0:0:
182,192,58495,1,0,0:0:0:0:
475,192,58768,1,0,0:0:0:0:
329,192,58768,1,0,0:0:0:0:
182,192,58768,1,0,0:0:0:0:
329,192,59040,1,0,0:0:0:0:
475,192,59040,1,0,0:0:0:0:
182,192,59040,1,0,0:0:0:0:
182,192,59177,128,0,59313:0:0:0:0:
475,192,59313,1,0,0:0:0:0:
329,192,59313,1,0,0:0:0:0:
36,192,59450,1,0,0:0:0:0:
329,192,59586,1,0,0:0:0:0:
475,192,59586,1,0,0:0:0:0:
36,192,59722,1,0,0:0:0:0:
475,192,59859,1,0,0:0:0:0:
329,192,59859,1,0,0:0:0:0:
36,192,59995,1,0,0:0:0:0:
475,192,60131,1,0,0:0:0:0:
329,192,60131,1,0,0:0:0:0:
402,192,60268,1,0,0:0:0:0:
36,192,60268,1,0,0:0:0:0:
329,192,60336,1,0,0:0:0:0:
256,192,60404,1,0,0:0:0:0:
36,192,60404,1,0,0:0:0:0:
36,192,60540,1,0,0:0:0:0:
256,192,60540,1,0,0:0:0:0:
182,192,60677,1,0,0:0:0:0:
329,192,60677,1,0,0:0:0:0:
36,192,60813,1,0,0:0:0:0:
475,192,60813,1,0,0:0:0:0:
109,192,60881,1,0,0:0:0:0:
402,192,60881,1,0,0:0:0:0:
182,192,60950,1,0,0:0:0:0:
329,192,60950,1,0,0:0:0:0:
182,192,61086,1,0,0:0:0:0:
329,192,61086,1,0,0:0:0:0:
182,192,61222,1,0,0:0:0:0:
329,192,61222,1,0,0:0:0:0:
329,192,61359,1,0,0:0:0:0:
182,192,61359,1,0,0:0:0:0:
109,192,61495,1,0,0:0:0:0:
402,192,61495,1,0,0:0:0:0:
402,192,61631,1,0,0:0:0:0:
109,192,61631,1,0,0:0:0:0:
36,192,61768,1,0,0:0:0:0:
475,192,61768,1,0,0:0:0:0:
329,192,61768,1,0,0:0:0:0:
109,192,61904,1,0,0:0:0:0:
182,192,61972,1,0,0:0:0:0:
329,192,62040,1,0,0:0:0:0:
36,192,62177,1,0,0:0:0:0:
182,192,62177,1,0,0:0:0:0:
475,192,62177,1,0,0:0:0:0:
402,192,62313,1,0,0:0:0:0:
329,192,62381,1,0,0:0:0:0:
182,192,62450,1,0,0:0:0:0:
36,192,62586,1,0,0:0:0:0:
475,192,62586,1,0,0:0:0:0:
256,192,62586,128,0,62859:0:0:0:0:
402,192,62859,1,0,0:0:0:0:
475,192,62859,1,0,0:0:0:0:
182,192,62859,1,0,0:0:0:0:
109,192,62859,1,0,0:0:0:0:
109,192,63131,1,0,0:0:0:0:
182,192,63131,1,0,0:0:0:0:
402,192,63131,1,0,0:0:0:0:
182,192,63404,1,0,0:0:0:0:
109,192,63404,1,0,0:0:0:0:
402,192,63404,1,0,0:0:0:0:
402,192,63540,1,0,0:0:0:0:
109,192,63677,1,0,0:0:0:0:
182,192,63677,1,0,0:0:0:0:
329,192,63813,1,0,0:0:0:0:
182,192,63950,1,0,0:0:0:0:
109,192,63950,1,0,0:0:0:0:
329,192,64086,1,0,0:0:0:0:
109,192,64222,1,0,0:0:0:0:
182,192,64222,1,0,0:0:0:0:
329,192,64359,1,0,0:0:0:0:
109,192,64495,1,0,0:0:0:0:
182,192,64495,1,0,0:0:0:0:
36,192,64631,1,0,0:0:0:0:
329,192,64631,1,0,0:0:0:0:
109,192,64700,1,0,0:0:0:0:
182,192,64768,1,0,0:0:0:0:
329,192,64768,1,0,0:0:0:0:
329,192,64904,1,0,0:0:0:0:
182,192,64904,1,0,0:0:0:0:
36,192,65040,1,0,0:0:0:0:
36,192,65177,1,0,0:0:0:0:
475,192,65177,1,0,0:0:0:0:
36,192,65313,1,0,0:0:0:0:
36,192,65450,1,0,0:0:0:0:
475,192,65450,1,0,0:0:0:0:
182,192,65586,1,0,0:0:0:0:
475,192,65586,1,0,0:0:0:0:
182,192,65722,1,0,0:0:0:0:
475,192,65722,1,0,0:0:0:0:
182,192,65859,1,0,0:0:0:0:
475,192,65859,1,0,0:0:0:0:
182,192,65995,1,0,0:0:0:0:
475,192,65995,1,0,0:0:0:0:
329,192,66131,1,0,0:0:0:0:
36,192,66131,1,0,0:0:0:0:
109,192,66268,1,0,0:0:0:0:
182,192,66336,1,0,0:0:0:0:
402,192,66404,1,0,0:0:0:0:
256,192,66404,1,0,0:0:0:0:
182,192,66540,1,0,0:0:0:0:
475,192,66540,1,0,0:0:0:0:
402,192,66677,1,0,0:0:0:0:
329,192,66745,1,0,0:0:0:0:
256,192,66813,1,0,0:0:0:0:
109,192,66813,1,0,0:0:0:0:
36,192,66950,1,0,0:0:0:0:
475,192,66950,128,0,67222:0:0:0:0:
329,192,66950,1,0,0:0:0:0:
36,192,67222,5,0,0:0:0:0:
402,192,67222,1,0,0:0:0:0:
182,192,67290,1,0,0:0:0:0:
256,192,67359,1,0,0:0:0:0:
329,192,67427,1,0,0:0:0:0:
109,192,67495,1,0,0:0:0:0:
182,192,67563,1,0,0:0:0:0:
329,192,67631,1,0,0:0:0:0:
402,192,67700,1,0,0:0:0:0:
475,192,67768,1,0,0:0:0:0:
36,192,67768,1,0,0:0:0:0:
329,192,67836,1,0,0:0:0:0:
256,192,67904,1,0,0:0:0:0:
182,192,67972,1,0,0:0:0:0:
402,192,68040,1,0,0:0:0:0:
329,192,68109,1,0,0:0:0:0:
182,192,68177,1,0,0:0:0:0:
109,192,68245,1,0,0:0:0:0:
329,192,68313,1,0,0:0:0:0:
182,192,68381,1,0,0:0:0:0:
329,192,68450,1,0,0:0:0:0:
182,192,68518,1,0,0:0:0:0:
329,192,68586,1,0,0:0:0:0:
182,192,68654,1,0,0:0:0:0:
329,192,68722,1,0,0:0:0:0:
182,192,68790,1,0,0:0:0:0:
36,192,68859,1,0,0:0:0:0:
475,192,68859,1,0,0:0:0:0:
109,192,68927,1,0,0:0:0:0:
256,192,68995,1,0,0:0:0:0:
402,192,69063,1,0,0:0:0:0:
475,192,69131,1,0,0:0:0:0:
36,192,69131,1,0,0:0:0:0:
109,192,69200,1,0,0:0:0:0:
329,192,69268,1,0,0:0:0:0:
182,192,69268,1,0,0:0:0:0:
402,192,69336,1,0,0:0:0:0:
256,192,69404,1,0,0:0:0:0:
475,192,69404,1,0,0:0:0:0:
36,192,69472,128,0,70495:0:0:0:0:
256,192,69950,1,0,0:0:0:0:
475,192,70495,1,0,0:0:0:0:
329,192,70631,1,0,0:0:0:0:
36,192,70768,1,0,0:0:0:0:
182,192,70904,1,0,0:0:0:0:
329,192,71040,1,0,0:0:0:0:
36,192,71177,1,0,0:0:0:0:
475,192,71313,1,0,0:0:0:0:
182,192,71450,1,0,0:0:0:0:
36,192,71586,5,0,0:0:0:0:
402,192,71586,1,0,0:0:0:0:
109,192,71586,1,0,0:0:0:0:
329,192,71654,1,0,0:0:0:0:
256,192,71722,1,0,0:0:0:0:
182,192,71790,1,0,0:0:0:0:
475,192,71859,1,0,0:0:0:0:
402,192,71927,1,0,0:0:0:0:
329,192,71995,1,0,0:0:0:0:
256,192,72063,1,0,0:0:0:0:
109,192,72131,1,0,0:0:0:0:
182,192,72200,1,0,0:0:0:0:
256,192,72268,1,0,0:0:0:0:
329,192,72336,1,0,0:0:0:0:
36,192,72404,1,0,0:0:0:0:
109,192,72472,1,0,0:0:0:0:
182,192,72540,1,0,0:0:0:0:
256,192,72609,1,0,0:0:0:0:
402,192,72677,1,0,0:0:0:0:
329,192,72745,1,0,0:0:0:0:
256,192,72813,1,0,0:0:0:0:
182,192,72881,1,0,0:0:0:0:
475,192,72950,1,0,0:0:0:0:
402,192,73018,1,0,0:0:0:0:
329,192,73086,1,0,0:0:0:0:
256,192,73154,1,0,0:0:0:0:
109,192,73222,1,0,0:0:0:0:
402,192,73290,1,0,0:0:0:0:
109,192,73359,1,0,0:0:0:0:
402,192,73427,1,0,0:0:0:0:
109,192,73495,1,0,0:0:0:0:
402,192,73563,1,0,0:0:0:0:
109,192,73631,1,0,0:0:0:0:
402,192,73700,1,0,0:0:0:0:
256,192,73768,1,0,0:0:0:0:
182,192,73836,1,0,0:0:0:0:
109,192,73904,1,0,0:0:0:0:
36,192,73972,1,0,0:0:0:0:
402,192,74040,1,0,0:0:0:0:
329,192,74109,1,0,0:0:0:0:
182,192,74177,1,0,0:0:0:0:
109,192,74245,1,0,0:0:0:0:
475,192,74313,1,0,0:0:0:0:
402,192,74381,1,0,0:0:0:0:
329,192,74450,1,0,0:0:0:0:
256,192,74518,1,0,0:0:0:0:
109,192,74586,1,0,0:0:0:0:
182,192,74654,1,0,0:0:0:0:
329,192,74722,1,0,0:0:0:0:
402,192,74790,1,0,0:0:0:0:
109,192,74859,1,0,0:0:0:0:
329,192,74927,1,0,0:0:0:0:
109,192,74995,1,0,0:0:0:0:
329,192,75063,1,0,0:0:0:0:
109,192,75131,1,0,0:0:0:0:
329,192,75200,1,0,0:0:0:0:
109,192,75268,1,0,0:0:0:0:
329,192,75336,1,0,0:0:0:0:
182,192,75404,1,0,0:0:0:0:
402,192,75472,1,0,0:0:0:0:
182,192,75540,1,0,0:0:0:0:
402,192,75609,1,0,0:0:0:0:
182,192,75677,1,0,0:0:0:0:
402,192,75745,1,0,0:0:0:0:
182,192,75813,1,0,0:0:0:0:
402,192,75881,1,0,0:0:0:0:
329,192,75950,1,0,0:0:0:0:
256,192,76018,1,0,0:0:0:0:
182,192,76086,1,0,0:0:0:0:
109,192,76154,1,0,0:0:0:0:
402,192,76222,1,0,0:0:0:0:
329,192,76290,1,0,0:0:0:0:
256,192,76359,1,0,0:0:0:0:
182,192,76427,1,0,0:0:0:0:
36,192,76495,1,0,0:0:0:0:
109,192,76563,1,0,0:0:0:0:
182,192,76631,1,0,0:0:0:0:
256,192,76700,1,0,0:0:0:0:
475,192,76768,1,0,0:0:0:0:
402,192,76836,1,0,0:0:0:0:
329,192,76904,1,0,0:0:0:0:
256,192,76972,1,0,0:0:0:0:
36,192,77040,1,0,0:0:0:0:
329,192,77109,1,0,0:0:0:0:
36,192,77177,1,0,0:0:0:0:
329,192,77245,1,0,0:0:0:0:
36,192,77313,1,0,0:0:0:0:
329,192,77381,1,0,0:0:0:0:
36,192,77450,1,0,0:0:0:0:
329,192,77518,1,0,0:0:0:0:
182,192,77586,1,0,0:0:0:0:
475,192,77654,1,0,0:0:0:0:
182,192,77722,1,0,0:0:0:0:
475,192,77790,1,0,0:0:0:0:
182,192,77859,1,0,0:0:0:0:
475,192,77927,1,0,0:0:0:0:
182,192,77995,1,0,0:0:0:0:
475,192,78063,1,0,0:0:0:0:
109,192,78131,1,0,0:0:0:0:
182,192,78200,1,0,0:0:0:0:
256,192,78268,1,0,0:0:0:0:
329,192,78336,1,0,0:0:0:0:
475,192,78404,1,0,0:0:0:0:
402,192,78472,1,0,0:0:0:0:
329,192,78540,1,0,0:0:0:0:
256,192,78609,1,0,0:0:0:0:
36,192,78677,1,0,0:0:0:0:
109,192,78745,1,0,0:0:0:0:
182,192,78813,1,0,0:0:0:0:
256,192,78881,1,0,0:0:0:0:
402,192,78950,1,0,0:0:0:0:
329,192,79018,1,0,0:0:0:0:
256,192,79086,1,0,0:0:0:0:
182,192,79154,1,0,0:0:0:0:
475,192,79222,1,0,0:0:0:0:
36,192,79222,1,0,0:0:0:0:
329,192,79313,1,0,0:0:0:0:
475,192,79404,1,0,0:0:0:0:
182,192,79404,1,0,0:0:0:0:
256,192,79495,1,0,0:0:0:0:
402,192,79586,1,0,0:0:0:0:
109,192,79586,1,0,0:0:0:0:
256,192,79677,1,0,0:0:0:0:
329,192,79768,1,0,0:0:0:0:
36,192,79768,1,0,0:0:0:0:
182,192,79859,1,0,0:0:0:0:
329,192,79950,1,0,0:0:0:0:
36,192,79950,1,0,0:0:0:0:
109,192,80040,1,0,0:0:0:0:
256,192,80131,1,0,0:0:0:0:
402,192,80131,1,0,0:0:0:0:
109,192,80222,1,0,0:0:0:0:
36,192,80313,1,0,0:0:0:0:
475,192,80313,1,0,0:0:0:0:
329,192,80313,1,0,0:0:0:0:
109,192,80518,1,0,0:0:0:0:
256,192,80518,1,0,0:0:0:0:
182,192,80722,1,0,0:0:0:0:
329,192,80722,1,0,0:0:0:0:
402,192,80722,1,0,0:0:0:0:
256,192,80859,1,0,0:0:0:0:
36,192,80859,1,0,0:0:0:0:
475,192,80859,1,0,0:0:0:0:
109,192,81063,1,0,0:0:0:0:
329,192,81063,1,0,0:0:0:0:
182,192,81268,1,0,0:0:0:0:
256,192,81268,1,0,0:0:0:0:
402,192,81268,1,0,0:0:0:0:
329,192,81404,1,0,0:0:0:0:
475,192,81404,1,0,0:0:0:0:
36,192,81404,1,0,0:0:0:0:
109,192,81609,1,0,0:0:0:0:
256,192,81609,1,0,0:0:0:0:
182,192,81813,1,0,0:0:0:0:
402,192,81813,1,0,0:0:0:0:
329,192,81813,1,0,0:0:0:0:
256,192,81950,1,0,0:0:0:0:
475,192,81950,1,0,0:0:0:0:
36,192,81950,1,0,0:0:0:0:
402,192,82018,1,0,0:0:0:0:
329,192,82086,1,0,0:0:0:0:
256,192,82154,1,0,0:0:0:0:
109,192,82222,1,0,0:0:0:0:
182,192,82290,1,0,0:0:0:0:
256,192,82359,1,0,0:0:0:0:
329,192,82427,1,0,0:0:0:0:
109,192,82495,1,0,0:0:0:0:
475,192,82495,1,0,0:0:0:0:
36,192,82495,1,0,0:0:0:0:
182,192,82700,1,0,0:0:0:0:
402,192,82700,1,0,0:0:0:0:
256,192,82904,1,0,0:0:0:0:
109,192,82904,1,0,0:0:0:0:
329,192,82904,1,0,0:0:0:0:
475,192,83040,1,0,0:0:0:0:
36,192,83040,1,0,0:0:0:0:
182,192,83040,1,0,0:0:0:0:
402,192,83245,1,0,0:0:0:0:
256,192,83245,1,0,0:0:0:0:
182,192,83450,1,0,0:0:0:0:
329,192,83450,1,0,0:0:0:0:
109,192,83450,1,0,0:0:0:0:
475,192,83586,1,0,0:0:0:0:
36,192,83586,1,0,0:0:0:0:
256,192,83586,1,0,0:0:0:0:
109,192,83654,1,0,0:0:0:0:
182,192,83722,1,0,0:0:0:0:
256,192,83790,1,0,0:0:0:0:
402,192,83859,1,0,0:0:0:0:
329,192,83927,1,0,0:0:0:0:
256,192,83995,1,0,0:0:0:0:
182,192,84063,1,0,0:0:0:0:
475,192,84131,1,0,0:0:0:0:
36,192,84131,1,0,0:0:0:0:
36,192,84268,1,0,0:0:0:0:
475,192,84268,1,0,0:0:0:0:
475,192,84404,1,0,0:0:0:0:
36,192,84404,1,0,0:0:0:0:
36,192,84540,1,0,0:0:0:0:
475,192,84540,1,0,0:0:0:0:
402,192,84677,1,0,0:0:0:0:
109,192,84677,1,0,0:0:0:0:
182,192,84881,1,0,0:0:0:0:
329,192,84881,1,0,0:0:0:0:
109,192,85086,1,0,0:0:0:0:
256,192,85086,1,0,0:0:0:0:
402,192,85086,1,0,0:0:0:0:
329,192,85222,1,0,0:0:0:0:
36,192,85222,1,0,0:0:0:0:
475,192,85222,1,0,0:0:0:0:
329,192,85427,1,0,0:0:0:0:
182,192,85427,1,0,0:0:0:0:
109,192,85631,1,0,0:0:0:0:
256,192,85631,1,0,0:0:0:0:
402,192,85631,1,0,0:0:0:0:
182,192,85768,1,0,0:0:0:0:
36,192,85768,1,0,0:0:0:0:
475,192,85768,1,0,0:0:0:0:
182,192,85972,1,0,0:0:0:0:
329,192,85972,1,0,0:0:0:0:
109,192,86177,1,0,0:0:0:0:
256,192,86177,1,0,0:0:0:0:
402,192,86177,1,0,0:0:0:0:
329,192,86313,1,0,0:0:0:0:
475,192,86313,1,0,0:0:0:0:
36,192,86313,1,0,0:0:0:0:
182,192,86518,1,0,0:0:0:0:
329,192,86518,1,0,0:0:0:0:
109,192,86722,1,0,0:0:0:0:
402,192,86722,1,0,0:0:0:0:
475,192,86859,128,0,87063:0:0:0:0:
402,192,87063,128,0,87268:0:0:0:0:
329,192,87268,128,0,87404:0:0:0:0:
182,192,87404,128,0,87609:0:0:0:0:
109,192,87609,128,0,87813:0:0:0:0:
36,192,87813,128,0,87950:0:0:0:0:
475,192,87950,1,0,0:0:0:0:
402,192,88018,1,0,0:0:0:0:
329,192,88086,1,0,0:0:0:0:
256,192,88154,1,0,0:0:0:0:
402,192,88222,1,0,0:0:0:0:
329,192,88290,1,0,0:0:0:0:
256,192,88359,1,0,0:0:0:0:
182,192,88427,1,0,0:0:0:0:
329,192,88495,1,0,0:0:0:0:
256,192,88563,1,0,0:0:0:0:
182,192,88631,1,0,0:0:0:0:
109,192,88700,1,0,0:0:0:0:
256,192,88768,1,0,0:0:0:0:
182,192,88836,1,0,0:0:0:0:
109,192,88904,1,0,0:0:0:0:
36,192,88972,1,0,0:0:0:0:
36,192,90403,128,0,93130:0:0:0:0:
475,192,90403,1,0,0:0:0:0:
329,192,90403,1,0,0:0:0:0:
256,192,90403,1,0,0:0:0:0:
182,192,90540,1,0,0:0:0:0:
329,192,90812,1,0,0:0:0:0:
182,192,90949,1,0,0:0:0:0:
256,192,91221,1,0,0:0:0:0:
402,192,91494,1,0,0:0:0:0:
329,192,91767,1,0,0:0:0:0:
256,192,91767,1,0,0:0:0:0:
182,192,91903,1,0,0:0:0:0:
329,192,92176,1,0,0:0:0:0:
182,192,92312,1,0,0:0:0:0:
256,192,92585,1,0,0:0:0:0:
402,192,92858,1,0,0:0:0:0:
475,192,93130,128,0,95858:0:0:0:0:
256,192,93130,1,0,0:0:0:0:
109,192,93267,1,0,0:0:0:0:
256,192,93540,1,0,0:0:0:0:
109,192,93676,1,0,0:0:0:0:
182,192,93949,1,0,0:0:0:0:
329,192,94221,1,0,0:0:0:0:
36,192,94494,1,0,0:0:0:0:
256,192,94494,1,0,0:0:0:0:
109,192,94494,1,0,0:0:0:0:
36,192,94903,1,0,0:0:0:0:
109,192,94903,1,0,0:0:0:0:
256,192,94903,1,0,0:0:0:0:
329,192,95040,1,0,0:0:0:0:
256,192,95108,1,0,0:0:0:0:
182,192,95176,1,0,0:0:0:0:
109,192,95244,1,0,0:0:0:0:
402,192,95312,1,0,0:0:0:0:
329,192,95380,1,0,0:0:0:0:
256,192,95449,1,0,0:0:0:0:
182,192,95517,1,0,0:0:0:0:
109,192,95585,1,0,0:0:0:0:
36,192,95585,1,0,0:0:0:0:
402,192,95585,1,0,0:0:0:0:
36,192,95858,1,0,0:0:0:0:
402,192,95858,128,0,95994:0:0:0:0:
182,192,95858,1,0,0:0:0:0:
329,192,95858,1,0,0:0:0:0:
256,192,95994,128,0,96130:0:0:0:0:
109,192,96130,1,0,0:0:0:0:
182,192,96130,1,0,0:0:0:0:
402,192,96267,128,0,96403:0:0:0:0:
36,192,96403,1,0,0:0:0:0:
256,192,96403,128,0,96539:0:0:0:0:
182,192,96676,1,0,0:0:0:0:
475,192,96676,128,0,96812:0:0:0:0:
329,192,96812,128,0,96948:0:0:0:0:
36,192,96948,1,0,0:0:0:0:
109,192,96948,1,0,0:0:0:0:
475,192,97085,128,0,97221:0:0:0:0:
182,192,97221,1,0,0:0:0:0:
329,192,97221,128,0,97358:0:0:0:0:
36,192,97494,1,0,0:0:0:0:
475,192,97494,128,0,97630:0:0:0:0:
402,192,97630,128,0,97767:0:0:0:0:
182,192,97767,1,0,0:0:0:0:
329,192,97767,128,0,97903:0:0:0:0:
256,192,97903,128,0,98039:0:0:0:0:
109,192,98039,1,0,0:0:0:0:
402,192,98039,1,0,0:0:0:0:
36,192,98312,1,0,0:0:0:0:
109,192,98380,1,0,0:0:0:0:
182,192,98448,1,0,0:0:0:0:
329,192,98517,1,0,0:0:0:0:
109,192,98585,1,0,0:0:0:0:
182,192,98653,1,0,0:0:0:0:
329,192,98721,1,0,0:0:0:0:
402,192,98789,1,0,0:0:0:0:
182,192,98858,1,0,0:0:0:0:
329,192,98926,1,0,0:0:0:0:
402,192,98994,1,0,0:0:0:0:
475,192,99062,1,0,0:0:0:0:
36,192,99130,1,0,0:0:0:0:
182,192,99198,1,0,0:0:0:0:
256,192,99267,1,0,0:0:0:0:
402,192,99335,1,0,0:0:0:0:
109,192,99403,1,0,0:0:0:0:
256,192,99471,1,0,0:0:0:0:
329,192,99539,1,0,0:0:0:0:
475,192,99608,1,0,0:0:0:0:
36,192,99676,1,0,0:0:0:0:
182,192,99744,1,0,0:0:0:0:
256,192,99812,1,0,0:0:0:0:
402,192,99880,1,0,0:0:0:0:
109,192,99948,1,0,0:0:0:0:
256,192,100017,1,0,0:0:0:0:
329,192,100085,1,0,0:0:0:0:
475,192,100153,1,0,0:0:0:0:
256,192,100221,128,0,100562:0:0:0:0:
182,192,100221,128,0,100562:0:0:0:0:
36,192,100221,128,0,100562:0:0:0:0:
402,192,100630,1,0,0:0:0:0:
329,192,100698,1,0,0:0:0:0:
256,192,100767,1,0,0:0:0:0:
256,192,100948,1,0,0:0:0:0:
256,192,101130,1,0,0:0:0:0:
182,192,101312,1,0,0:0:0:0:
475,192,101312,1,0,0:0:0:0:
329,192,101312,1,0,0:0:0:0:
182,192,101494,1,0,0:0:0:0:
36,192,101494,1,0,0:0:0:0:
329,192,101494,1,0,0:0:0:0:
109,192,101676,1,0,0:0:0:0:
402,192,101676,1,0,0:0:0:0:
256,192,101676,1,0,0:0:0:0:
329,192,101858,1,0,0:0:0:0:
182,192,101858,1,0,0:0:0:0:
475,192,101858,1,0,0:0:0:0:
109,192,102130,128,0,102403:0:0:0:0:
402,192,102130,128,0,102403:0:0:0:0:
36,192,102403,5,0,0:0:0:0:
256,192,102403,1,0,0:0:0:0:
475,192,102403,1,0,0:0:0:0:
182,192,102494,1,0,0:0:0:0:
109,192,102585,1,0,0:0:0:0:
329,192,102585,1,0,0:0:0:0:
475,192,102676,1,0,0:0:0:0:
182,192,102767,1,0,0:0:0:0:
402,192,102767,1,0,0:0:0:0:
256,192,102858,1,0,0:0:0:0:
36,192,102948,1,0,0:0:0:0:
475,192,102948,1,0,0:0:0:0:
329,192,102948,1,0,0:0:0:0:
109,192,103039,1,0,0:0:0:0:
402,192,103130,1,0,0:0:0:0:
256,192,103130,1,0,0:0:0:0:
36,192,103221,1,0,0:0:0:0:
329,192,103312,1,0,0:0:0:0:
182,192,103312,1,0,0:0:0:0:
402,192,103403,1,0,0:0:0:0:
256,192,103494,1,0,0:0:0:0:
475,192,103494,1,0,0:0:0:0:
36,192,103494,1,0,0:0:0:0:
109,192,103585,1,0,0:0:0:0:
329,192,103676,1,0,0:0:0:0:
182,192,103676,1,0,0:0:0:0:
402,192,103767,1,0,0:0:0:0:
256,192,103858,1,0,0:0:0:0:
109,192,103858,1,0,0:0:0:0:
329,192,103948,1,0,0:0:0:0:
475,192,104039,1,0,0:0:0:0:
182,192,104039,1,0,0:0:0:0:
36,192,104039,1,0,0:0:0:0:
402,192,104130,1,0,0:0:0:0:
109,192,104221,1,0,0:0:0:0:
329,192,104221,1,0,0:0:0:0:
36,192,104312,1,0,0:0:0:0:
182,192,104403,1,0,0:0:0:0:
402,192,104403,1,0,0:0:0:0:
329,192,104494,1,0,0:0:0:0:
36,192,104585,1,0,0:0:0:0:
256,192,104585,1,0,0:0:0:0:
475,192,104585,1,0,0:0:0:0:
109,192,104653,1,0,0:0:0:0:
402,192,104721,1,0,0:0:0:0:
182,192,104721,1,0,0:0:0:0:
329,192,104789,1,0,0:0:0:0:
256,192,104858,1,0,0:0:0:0:
182,192,104926,1,0,0:0:0:0:
109,192,104994,1,0,0:0:0:0:
329,192,104994,1,0,0:0:0:0:
256,192,105062,1,0,0:0:0:0:
36,192,105130,1,0,0:0:0:0:
475,192,105130,1,0,0:0:0:0:
402,192,105198,1,0,0:0:0:0:
329,192,105267,1,0,0:0:0:0:
109,192,105267,1,0,0:0:0:0:
182,192,105335,1,0,0:0:0:0:
256,192,105403,1,0,0:0:0:0:
329,192,105471,1,0,0:0:0:0:
402,192,105539,1,0,0:0:0:0:
182,192,105539,1,0,0:0:0:0:
256,192,105608,1,0,0:0:0:0:
475,192,105676,1,0,0:0:0:0:
36,192,105676,1,0,0:0:0:0:
402,192,105744,1,0,0:0:0:0:
329,192,105812,1,0,0:0:0:0:
182,192,105812,1,0,0:0:0:0:
109,192,105880,1,0,0:0:0:0:
36,192,105948,1,0,0:0:0:0:
256,192,106017,1,0,0:0:0:0:
182,192,106085,1,0,0:0:0:0:
329,192,106085,1,0,0:0:0:0:
402,192,106153,1,0,0:0:0:0:
475,192,106221,1,0,0:0:0:0:
36,192,106221,1,0,0:0:0:0:
109,192,106289,1,0,0:0:0:0:
182,192,106358,1,0,0:0:0:0:
329,192,106358,1,0,0:0:0:0:
402,192,106426,1,0,0:0:0:0:
475,192,106494,1,0,0:0:0:0:
256,192,106562,1,0,0:0:0:0:
182,192,106630,1,0,0:0:0:0:
329,192,106630,1,0,0:0:0:0:
109,192,106698,1,0,0:0:0:0:
36,192,106767,1,0,0:0:0:0:
475,192,106767,1,0,0:0:0:0:
256,192,106835,1,0,0:0:0:0:
109,192,106903,1,0,0:0:0:0:
402,192,106903,1,0,0:0:0:0:
329,192,106971,1,0,0:0:0:0:
182,192,107039,1,0,0:0:0:0:
256,192,107108,1,0,0:0:0:0:
329,192,107176,1,0,0:0:0:0:
109,192,107176,1,0,0:0:0:0:
402,192,107244,1,0,0:0:0:0:
475,192,107312,1,0,0:0:0:0:
36,192,107312,1,0,0:0:0:0:
256,192,107380,1,0,0:0:0:0:
402,192,107448,1,0,0:0:0:0:
109,192,107448,1,0,0:0:0:0:
182,192,107517,1,0,0:0:0:0:
329,192,107585,1,0,0:0:0:0:
256,192,107653,1,0,0:0:0:0:
182,192,107721,1,0,0:0:0:0:
402,192,107721,1,0,0:0:0:0:
109,192,107789,1,0,0:0:0:0:
475,192,107858,1,0,0:0:0:0:
36,192,107858,1,0,0:0:0:0:
402,192,107926,1,0,0:0:0:0:
329,192,107994,1,0,0:0:0:0:
182,192,107994,1,0,0:0:0:0:
36,192,108062,1,0,0:0:0:0:
109,192,108130,1,0,0:0:0:0:
182,192,108198,1,0,0:0:0:0:
329,192,108198,1,0,0:0:0:0:
475,192,108267,1,0,0:0:0:0:
402,192,108335,1,0,0:0:0:0:
182,192,108403,1,0,0:0:0:0:
329,192,108403,1,0,0:0:0:0:
36,192,108471,1,0,0:0:0:0:
109,192,108539,1,0,0:0:0:0:
329,192,108608,1,0,0:0:0:0:
182,192,108608,1,0,0:0:0:0:
475,192,108676,1,0,0:0:0:0:
402,192,108744,1,0,0:0:0:0:
182,192,108812,1,0,0:0:0:0:
329,192,108812,1,0,0:0:0:0:
109,192,108880,1,0,0:0:0:0:
36,192,108948,1,0,0:0:0:0:
475,192,108948,1,0,0:0:0:0:
256,192,108948,1,0,0:0:0:0:
36,192,109085,1,0,0:0:0:0:
475,192,109085,1,0,0:0:0:0:
475,192,109221,1,0,0:0:0:0:
36,192,109221,1,0,0:0:0:0:
329,192,109358,1,0,0:0:0:0:
182,192,109426,1,0,0:0:0:0:
109,192,109494,1,0,0:0:0:0:
256,192,109494,1,0,0:0:0:0:
402,192,109494,1,0,0:0:0:0:
402,192,109630,1,0,0:0:0:0:
109,192,109630,1,0,0:0:0:0:
182,192,109767,1,0,0:0:0:0:
329,192,109767,1,0,0:0:0:0:
182,192,109903,1,0,0:0:0:0:
329,192,109903,1,0,0:0:0:0:
109,192,110039,1,0,0:0:0:0:
256,192,110176,1,0,0:0:0:0:
475,192,110176,1,0,0:0:0:0:
36,192,110176,1,0,0:0:0:0:
475,192,110312,1,0,0:0:0:0:
256,192,110312,1,0,0:0:0:0:
109,192,110448,1,0,0:0:0:0:
329,192,110448,1,0,0:0:0:0:
109,192,110585,1,0,0:0:0:0:
329,192,110585,1,0,0:0:0:0:
402,192,110721,1,0,0:0:0:0:
182,192,110721,1,0,0:0:0:0:
402,192,110858,1,0,0:0:0:0:
182,192,110858,1,0,0:0:0:0:
36,192,110994,1,0,0:0:0:0:
256,192,110994,1,0,0:0:0:0:
36,192,111130,1,0,0:0:0:0:
256,192,111130,1,0,0:0:0:0:
329,192,111267,1,0,0:0:0:0:
182,192,111335,1,0,0:0:0:0:
109,192,111403,1,0,0:0:0:0:
256,192,111403,1,0,0:0:0:0:
402,192,111403,1,0,0:0:0:0:
329,192,111539,1,0,0:0:0:0:
109,192,111676,1,0,0:0:0:0:
256,192,111676,1,0,0:0:0:0:
402,192,111676,1,0,0:0:0:0:
182,192,111812,1,0,0:0:0:0:
182,192,111948,1,0,0:0:0:0:
36,192,112085,1,0,0:0:0:0:
256,192,112085,1,0,0:0:0:0:
329,192,112085,1,0,0:0:0:0:
36,192,112221,1,0,0:0:0:0:
329,192,112221,1,0,0:0:0:0:
109,192,112358,1,0,0:0:0:0:
182,192,112494,1,0,0:0:0:0:
402,192,112494,1,0,0:0:0:0:
256,192,112494,1,0,0:0:0:0:
182,192,112630,1,0,0:0:0:0:
402,192,112630,1,0,0:0:0:0:
329,192,112767,1,0,0:0:0:0:
109,192,112767,1,0,0:0:0:0:
109,192,112903,1,0,0:0:0:0:
329,192,112903,1,0,0:0:0:0:
402,192,113039,1,0,0:0:0:0:
329,192,113108,1,0,0:0:0:0:
256,192,113176,1,0,0:0:0:0:
182,192,113176,1,0,0:0:0:0:
475,192,113176,1,0,0:0:0:0:
182,192,113312,1,0,0:0:0:0:
475,192,113312,1,0,0:0:0:0:
402,192,113448,1,0,0:0:0:0:
109,192,113585,1,0,0:0:0:0:
256,192,113585,1,0,0:0:0:0:
329,192,113585,1,0,0:0:0:0:
109,192,113721,1,0,0:0:0:0:
329,192,113721,1,0,0:0:0:0:
182,192,113858,1,0,0:0:0:0:
402,192,113858,1,0,0:0:0:0:
182,192,113994,1,0,0:0:0:0:
402,192,113994,1,0,0:0:0:0:
109,192,114130,1,0,0:0:0:0:
182,192,114198,1,0,0:0:0:0:
36,192,114267,1,0,0:0:0:0:
256,192,114267,1,0,0:0:0:0:
475,192,114267,1,0,0:0:0:0:
36,192,114403,1,0,0:0:0:0:
256,192,114403,1,0,0:0:0:0:
475,192,114403,1,0,0:0:0:0:
36,192,114539,1,0,0:0:0:0:
256,192,114539,1,0,0:0:0:0:
475,192,114539,1,0,0:0:0:0:
402,192,114676,1,0,0:0:0:0:
36,192,114812,1,0,0:0:0:0:
182,192,114812,1,0,0:0:0:0:
329,192,114812,1,0,0:0:0:0:
36,192,114948,1,0,0:0:0:0:
182,192,114948,1,0,0:0:0:0:
329,192,114948,1,0,0:0:0:0:
109,192,115085,1,0,0:0:0:0:
256,192,115085,1,0,0:0:0:0:
402,192,115085,1,0,0:0:0:0:
402,192,115221,1,0,0:0:0:0:
256,192,115221,1,0,0:0:0:0:
109,192,115221,1,0,0:0:0:0:
182,192,115358,1,0,0:0:0:0:
329,192,115358,1,0,0:0:0:0:
475,192,115358,1,0,0:0:0:0:
475,192,115494,1,0,0:0:0:0:
329,192,115494,1,0,0:0:0:0:
182,192,115494,1,0,0:0:0:0:
256,192,115630,1,0,0:0:0:0:
402,192,115630,1,0,0:0:0:0:
109,192,115630,1,0,0:0:0:0:
109,192,115767,1,0,0:0:0:0:
402,192,115767,1,0,0:0:0:0:
256,192,115767,1,0,0:0:0:0:
36,192,115903,1,0,0:0:0:0:
256,192,115903,1,0,0:0:0:0:
475,192,115903,1,0,0:0:0:0:
36,192,116039,128,0,116721:0:0:0:0:
256,192,116039,128,0,116721:0:0:0:0:
475,192,116039,128,0,116721:0:0:0:0:
36,192,116858,128,0,121085:0:0:0:0:
475,192,116858,128,0,121085:0:0:0:0:
109,192,116858,1,0,0:0:0:0:
402,192,116858,1,0,0:0:0:0:
182,192,117198,1,0,0:0:0:0:
256,192,117335,1,0,0:0:0:0:
329,192,117488,1,0,0:0:0:0:
182,192,117625,1,0,0:0:0:0:
256,192,117812,1,0,0:0:0:0:
329,192,118153,1,0,0:0:0:0:
109,192,118630,128,0,121085:0:0:0:0:
402,192,118630,128,0,121085:0:0:0:0:
256,192,118630,128,0,121085:0:0:0:0:
