osu file format v14

[General]
AudioFilename: Fallen Shepherd ft. RabbiTon Strings - ENDYMION.mp3
AudioLeadIn: 0
PreviewTime: 36677
Countdown: 0
SampleSet: Soft
StackLeniency: 0.7
Mode: 3
LetterboxInBreaks: 0
SpecialStyle: 0
WidescreenStoryboard: 1

[Editor]
DistanceSpacing: 0.8
BeatDivisor: 4
GridSize: 32
TimelineZoom: 1.6

[Metadata]
Title:ENDYMION
TitleUnicode:ENDYMION
Artist:Fallen Shepherd ft. RabbiTon Strings
ArtistUnicode:Fallen Shepherd ft. RabbiTon Strings
Creator:Blocko
Version:Easy
Source:Dance Dance Revolution Ace
Tags:arm iosys _underjoy
BeatmapID:1530265
BeatmapSetID:707421

[Difficulty]
HPDrainRate:6.5
CircleSize:7
OverallDifficulty:6.5
ApproachRate:7
SliderMultiplier:1.4
SliderTickRate:1

[Events]
//Background and Video events
0,0,"ENDYMION_no_diff.png",0,0
//Break Periods
//Storyboard Layer 0 (Background)
//Storyboard Layer 1 (Fail)
//Storyboard Layer 2 (Pass)
//Storyboard Layer 3 (Foreground)
//Storyboard Sound Samples

[TimingPoints]
1223,272.727273,5,2,0,10,1,0
3950,272.727273,3,2,0,10,1,0
8860,272.727273,5,2,0,10,1,0
27950,272.727273,4,2,0,10,1,0
89040,272.727273,5,2,0,10,1,0
95858,272.727273,4,2,0,10,1,0

[HitObjects]
256,192,7359,128,0,8859:0:0:0:0:
36,192,8859,1,0,0:0:0:0:
475,192,8859,1,0,0:0:0:0:
256,192,10223,1,0,0:0:0:0:
256,192,10632,1,0,0:0:0:0:
36,192,11587,1,0,0:0:0:0:
475,192,11587,1,0,0:0:0:0:
256,192,12950,1,0,0:0:0:0:
256,192,13360,1,0,0:0:0:0:
182,192,13769,1,0,0:0:0:0:
329,192,14041,1,0,0:0:0:0:
36,192,14314,1,0,0:0:0:0:
475,192,14314,1,0,0:0:0:0:
256,192,15678,1,0,0:0:0:0:
256,192,16087,1,0,0:0:0:0:
402,192,16496,1,0,0:0:0:0:
109,192,16769,1,0,0:0:0:0:
36,192,17041,1,0,0:0:0:0:
475,192,17041,1,0,0:0:0:0:
329,192,18132,1,0,0:0:0:0:
109,192,18405,1,0,0:0:0:0:
256,192,18405,1,0,0:0:0:0:
402,192,18814,1,0,0:0:0:0:
182,192,19223,1,0,0:0:0:0:
329,192,19496,1,0,0:0:0:0:
36,192,19769,128,0,20314:0:0:0:0:
475,192,19769,128,0,20314:0:0:0:0:
256,192,20587,1,0,0:0:0:0:
256,192,20860,1,0,0:0:0:0:
475,192,21132,128,0,21678:0:0:0:0:
36,192,21132,128,0,21678:0:0:0:0:
256,192,21950,1,0,0:0:0:0:
256,192,22223,1,0,0:0:0:0:
109,192,22496,128,0,23041:0:0:0:0:
402,192,22496,128,0,23041:0:0:0:0:
256,192,23314,1,0,0:0:0:0:
256,192,23587,1,0,0:0:0:0:
109,192,23860,128,0,24405:0:0:0:0:
402,192,23860,128,0,24405:0:0:0:0:
256,192,24678,1,0,0:0:0:0:
256,192,24950,1,0,0:0:0:0:
329,192,25223,128,0,25769:0:0:0:0:
36,192,25223,128,0,25769:0:0:0:0:
256,192,26041,1,0,0:0:0:0:
256,192,26314,1,0,0:0:0:0:
182,192,26587,128,0,27132:0:0:0:0:
475,192,26587,128,0,27132:0:0:0:0:
256,192,27405,1,0,0:0:0:0:
256,192,27678,1,0,0:0:0:0:
36,192,27950,1,0,0:0:0:0:
329,192,27950,1,0,0:0:0:0:
475,192,28495,1,0,0:0:0:0:
36,192,29040,1,0,0:0:0:0:
475,192,29586,1,0,0:0:0:0:
109,192,30131,1,0,0:0:0:0:
182,192,30404,1,0,0:0:0:0:
402,192,30677,1,0,0:0:0:0:
329,192,30950,1,0,0:0:0:0:
109,192,31222,1,0,0:0:0:0:
182,192,31495,1,0,0:0:0:0:
402,192,31768,1,0,0:0:0:0:
329,192,32040,1,0,0:0:0:0:
36,192,32313,1,0,0:0:0:0:
475,192,32313,1,0,0:0:0:0:
109,192,32586,1,0,0:0:0:0:
182,192,32859,1,0,0:0:0:0:
256,192,33131,1,0,0:0:0:0:
329,192,33404,1,0,0:0:0:0:
402,192,33677,1,0,0:0:0:0:
475,192,33950,1,0,0:0:0:0:
256,192,34222,1,0,0:0:0:0:
329,192,35586,1,0,0:0:0:0:
329,192,35995,1,0,0:0:0:0:
182,192,36404,1,0,0:0:0:0:
36,192,36677,1,0,0:0:0:0:
475,192,36677,1,0,0:0:0:0:
329,192,36950,1,0,0:0:0:0:
329,192,37222,1,0,0:0:0:0:
182,192,37495,1,0,0:0:0:0:
182,192,37768,1,0,0:0:0:0:
256,192,38040,1,0,0:0:0:0:
402,192,38313,1,0,0:0:0:0:
402,192,38586,1,0,0:0:0:0:
36,192,38859,1,0,0:0:0:0:
475,192,38859,1,0,0:0:0:0:
182,192,39131,1,0,0:0:0:0:
182,192,39404,1,0,0:0:0:0:
329,192,39677,1,0,0:0:0:0:
329,192,39950,1,0,0:0:0:0:
256,192,40222,1,0,0:0:0:0:
109,192,40495,1,0,0:0:0:0:
109,192,40768,1,0,0:0:0:0:
36,192,41040,1,0,0:0:0:0:
475,192,41040,1,0,0:0:0:0:
329,192,41313,1,0,0:0:0:0:
329,192,41586,1,0,0:0:0:0:
182,192,41859,1,0,0:0:0:0:
182,192,42131,1,0,0:0:0:0:
109,192,42404,1,0,0:0:0:0:
256,192,42677,1,0,0:0:0:0:
402,192,42950,1,0,0:0:0:0:
36,192,43222,128,0,43495:0:0:0:0:
329,192,43495,1,0,0:0:0:0:
475,192,43768,128,0,44040:0:0:0:0:
182,192,44040,1,0,0:0:0:0:
256,192,44313,128,0,45404:0:0:0:0:
36,192,45677,1,0,0:0:0:0:
329,192,45677,1,0,0:0:0:0:
182,192,45950,1,0,0:0:0:0:
182,192,46222,1,0,0:0:0:0:
182,192,46495,1,0,0:0:0:0:
182,192,46768,1,0,0:0:0:0:
402,192,47040,1,0,0:0:0:0:
256,192,47313,1,0,0:0:0:0:
182,192,47586,1,0,0:0:0:0:
475,192,47586,1,0,0:0:0:0:
329,192,47859,1,0,0:0:0:0:
329,192,48131,1,0,0:0:0:0:
329,192,48404,1,0,0:0:0:0:
109,192,48677,1,0,0:0:0:0:
182,192,48950,1,0,0:0:0:0:
402,192,49222,1,0,0:0:0:0:
329,192,49495,1,0,0:0:0:0:
36,192,49768,1,0,0:0:0:0:
475,192,49768,1,0,0:0:0:0:
256,192,50040,1,0,0:0:0:0:
329,192,50313,1,0,0:0:0:0:
329,192,50586,1,0,0:0:0:0:
182,192,50859,1,0,0:0:0:0:
182,192,51131,1,0,0:0:0:0:
109,192,51404,1,0,0:0:0:0:
402,192,51677,1,0,0:0:0:0:
36,192,51950,1,0,0:0:0:0:
475,192,51950,1,0,0:0:0:0:
329,192,53040,1,0,0:0:0:0:
329,192,53313,1,0,0:0:0:0:
182,192,53586,1,0,0:0:0:0:
182,192,53859,1,0,0:0:0:0:
36,192,54131,1,0,0:0:0:0:
402,192,54131,1,0,0:0:0:0:
256,192,54404,1,0,0:0:0:0:
402,192,54677,1,0,0:0:0:0:
256,192,55086,1,0,0:0:0:0:
109,192,55359,1,0,0:0:0:0:
256,192,55631,1,0,0:0:0:0:
109,192,55904,128,0,56313:0:0:0:0:
475,192,56450,1,0,0:0:0:0:
329,192,56722,1,0,0:0:0:0:
475,192,56995,1,0,0:0:0:0:
329,192,57268,1,0,0:0:0:0:
36,192,57404,1,0,0:0:0:0:
182,192,57813,1,0,0:0:0:0:
36,192,58222,128,0,58495:0:0:0:0:
329,192,58495,1,0,0:0:0:0:
256,192,58768,1,0,0:0:0:0:
329,192,59040,1,0,0:0:0:0:
256,192,59450,1,0,0:0:0:0:
182,192,59722,1,0,0:0:0:0:
256,192,59995,1,0,0:0:0:0:
182,192,60268,128,0,60677:0:0:0:0:
256,192,60677,128,0,61768:0:0:0:0:
475,192,61768,1,0,0:0:0:0:
36,192,61768,1,0,0:0:0:0:
36,192,62177,1,0,0:0:0:0:
475,192,62177,1,0,0:0:0:0:
256,192,62586,1,0,0:0:0:0:
109,192,62859,1,0,0:0:0:0:
402,192,62859,1,0,0:0:0:0:
329,192,63131,1,0,0:0:0:0:
402,192,63404,1,0,0:0:0:0:
109,192,63813,1,0,0:0:0:0:
182,192,64086,1,0,0:0:0:0:
109,192,64359,1,0,0:0:0:0:
182,192,64631,128,0,65040:0:0:0:0:
475,192,65177,1,0,0:0:0:0:
329,192,65450,1,0,0:0:0:0:
475,192,65722,1,0,0:0:0:0:
329,192,65995,1,0,0:0:0:0:
182,192,66131,1,0,0:0:0:0:
36,192,66540,1,0,0:0:0:0:
182,192,66950,1,0,0:0:0:0:
36,192,67222,128,0,67768:0:0:0:0:
329,192,67768,128,0,68313:0:0:0:0:
182,192,68313,128,0,68859:0:0:0:0:
475,192,68859,128,0,69404:0:0:0:0:
256,192,69404,128,0,70495:0:0:0:0:
36,192,71586,1,0,0:0:0:0:
475,192,71586,1,0,0:0:0:0:
329,192,71859,1,0,0:0:0:0:
109,192,72131,1,0,0:0:0:0:
402,192,72404,1,0,0:0:0:0:
182,192,72677,1,0,0:0:0:0:
475,192,72950,1,0,0:0:0:0:
256,192,73222,128,0,73768:0:0:0:0:
36,192,73768,1,0,0:0:0:0:
182,192,74040,1,0,0:0:0:0:
109,192,74313,1,0,0:0:0:0:
256,192,74586,1,0,0:0:0:0:
329,192,74859,128,0,75404:0:0:0:0:
182,192,75404,128,0,75950:0:0:0:0:
475,192,75950,1,0,0:0:0:0:
329,192,76222,1,0,0:0:0:0:
402,192,76495,1,0,0:0:0:0:
256,192,76768,1,0,0:0:0:0:
182,192,77040,128,0,77586:0:0:0:0:
329,192,77586,128,0,78131:0:0:0:0:
36,192,78131,1,0,0:0:0:0:
475,192,78404,1,0,0:0:0:0:
182,192,78677,1,0,0:0:0:0:
329,192,78950,1,0,0:0:0:0:
256,192,79222,128,0,80313:0:0:0:0:
36,192,80313,1,0,0:0:0:0:
329,192,80313,1,0,0:0:0:0:
109,192,80859,1,0,0:0:0:0:
402,192,80859,1,0,0:0:0:0:
182,192,81404,1,0,0:0:0:0:
475,192,81404,1,0,0:0:0:0:
256,192,81950,128,0,82495:0:0:0:0:
182,192,82495,1,0,0:0:0:0:
329,192,82495,1,0,0:0:0:0:
36,192,83040,1,0,0:0:0:0:
475,192,83040,1,0,0:0:0:0:
182,192,83586,128,0,84131:0:0:0:0:
329,192,84131,128,0,84677:0:0:0:0:
36,192,84677,1,0,0:0:0:0:
256,192,84677,1,0,0:0:0:0:
109,192,85222,1,0,0:0:0:0:
329,192,85222,1,0,0:0:0:0:
182,192,85768,1,0,0:0:0:0:
402,192,85768,1,0,0:0:0:0:
256,192,86313,1,0,0:0:0:0:
475,192,86313,1,0,0:0:0:0:
329,192,86859,128,0,87404:0:0:0:0:
182,192,87404,128,0,87950:0:0:0:0:
475,192,87950,1,0,0:0:0:0:
329,192,88222,1,0,0:0:0:0:
182,192,88495,1,0,0:0:0:0:
36,192,88768,1,0,0:0:0:0:
256,192,90403,1,0,0:0:0:0:
36,192,90403,128,0,93130:0:0:0:0:
256,192,91767,1,0,0:0:0:0:
475,192,93130,128,0,94494:0:0:0:0:
256,192,94494,1,0,0:0:0:0:
256,192,94903,1,0,0:0:0:0:
182,192,95585,1,0,0:0:0:0:
36,192,95858,1,0,0:0:0:0:
475,192,95858,1,0,0:0:0:0:
329,192,96130,1,0,0:0:0:0:
36,192,96403,1,0,0:0:0:0:
329,192,96676,1,0,0:0:0:0:
182,192,96948,1,0,0:0:0:0:
475,192,97221,1,0,0:0:0:0:
182,192,97494,1,0,0:0:0:0:
475,192,97767,1,0,0:0:0:0:
256,192,98039,1,0,0:0:0:0:
402,192,99130,128,0,99676:0:0:0:0:
256,192,99676,128,0,99948:0:0:0:0:
109,192,99948,128,0,100221:0:0:0:0:
36,192,100221,1,0,0:0:0:0:
475,192,100221,1,0,0:0:0:0:
182,192,101312,1,0,0:0:0:0:
36,192,101312,1,0,0:0:0:0:
329,192,101494,1,0,0:0:0:0:
182,192,101676,1,0,0:0:0:0:
329,192,101858,1,0,0:0:0:0:
475,192,101858,1,0,0:0:0:0:
256,192,102130,1,0,0:0:0:0:
36,192,102403,1,0,0:0:0:0:
402,192,102403,1,0,0:0:0:0:
109,192,102948,1,0,0:0:0:0:
475,192,102948,1,0,0:0:0:0:
36,192,103494,1,0,0:0:0:0:
329,192,103494,1,0,0:0:0:0:
182,192,104039,1,0,0:0:0:0:
475,192,104039,1,0,0:0:0:0:
36,192,104585,1,0,0:0:0:0:
329,192,104585,1,0,0:0:0:0:
402,192,104858,1,0,0:0:0:0:
475,192,105130,1,0,0:0:0:0:
182,192,105130,1,0,0:0:0:0:
109,192,105403,1,0,0:0:0:0:
36,192,105676,1,0,0:0:0:0:
475,192,105676,1,0,0:0:0:0:
402,192,105948,1,0,0:0:0:0:
329,192,106221,1,0,0:0:0:0:
36,192,106221,1,0,0:0:0:0:
109,192,106494,1,0,0:0:0:0:
182,192,106767,1,0,0:0:0:0:
329,192,106767,1,0,0:0:0:0:
402,192,107039,1,0,0:0:0:0:
475,192,107312,1,0,0:0:0:0:
256,192,107312,1,0,0:0:0:0:
182,192,107585,1,0,0:0:0:0:
109,192,107858,1,0,0:0:0:0:
402,192,107858,1,0,0:0:0:0:
329,192,108130,1,0,0:0:0:0:
256,192,108403,1,0,0:0:0:0:
36,192,108403,1,0,0:0:0:0:
109,192,108676,1,0,0:0:0:0:
182,192,108948,1,0,0:0:0:0:
475,192,108948,1,0,0:0:0:0:
475,192,109221,1,0,0:0:0:0:
329,192,109494,1,0,0:0:0:0:
36,192,109494,1,0,0:0:0:0:
36,192,109767,1,0,0:0:0:0:
109,192,110176,1,0,0:0:0:0:
402,192,110176,1,0,0:0:0:0:
402,192,110448,1,0,0:0:0:0:
109,192,110721,1,0,0:0:0:0:
109,192,110994,1,0,0:0:0:0:
182,192,111403,1,0,0:0:0:0:
329,192,111403,1,0,0:0:0:0:
182,192,111676,1,0,0:0:0:0:
329,192,111676,1,0,0:0:0:0:
109,192,112085,1,0,0:0:0:0:
256,192,112085,1,0,0:0:0:0:
109,192,112494,1,0,0:0:0:0:
256,192,112494,1,0,0:0:0:0:
109,192,112767,1,0,0:0:0:0:
402,192,113176,1,0,0:0:0:0:
256,192,113176,1,0,0:0:0:0:
256,192,113585,1,0,0:0:0:0:
402,192,113585,1,0,0:0:0:0:
402,192,113858,1,0,0:0:0:0:
36,192,114267,1,0,0:0:0:0:
329,192,114267,1,0,0:0:0:0:
36,192,114539,1,0,0:0:0:0:
475,192,114812,1,0,0:0:0:0:
182,192,114812,1,0,0:0:0:0:
475,192,115085,1,0,0:0:0:0:
182,192,115358,1,0,0:0:0:0:
182,192,115630,1,0,0:0:0:0:
329,192,115903,1,0,0:0:0:0:
256,192,116039,128,0,116858:0:0:0:0:
109,192,116858,128,0,117676:0:0:0:0:
402,192,116858,128,0,117676:0:0:0:0:
36,192,118630,128,0,121085:0:0:0:0:
256,192,118630,128,0,121085:0:0:0:0:
475,192,118630,128,0,121085:0:0:0:0:
