osu file format v14

[General]
AudioFilename: Fall Out Boy - Save Rock and Roll.mp3
AudioLeadIn: 0
PreviewTime: 46620
Countdown: 0
SampleSet: Soft
StackLeniency: 0.7
Mode: 0
LetterboxInBreaks: 0
WidescreenStoryboard: 0

[Editor]
Bookmarks: 276,6896,20138,33379,46620,59862,73103,84689,99586,112827,126069,139310,152551,164138,165793
DistanceSpacing: 1
BeatDivisor: 4
GridSize: 32
TimelineZoom: 1.4

[Metadata]
Title:Save Rock and Roll (feat. Elton John)
TitleUnicode:Save Rock and Roll (feat. Elton John)
Artist:Fall Out Boy
ArtistUnicode:Fall Out Boy
Creator:Lumael
Version:Normal
Source:
Tags:pop punk full ver. version Patrick Stump Pete Wentz Andy Hurley Joe Trohman ft. featuring 2013 American Beauty/American Psycho
BeatmapID:811623
BeatmapSetID:370299

[Difficulty]
HPDrainRate:3.5
CircleSize:3
OverallDifficulty:4
ApproachRate:5
SliderMultiplier:2
SliderTickRate:1

[Events]
//Background and Video events
0,0,"falloutboy.jpg",0,0
//Break Periods
2,86544,98386
//Storyboard Layer 0 (Background)
//Storyboard Layer 1 (Fail)
//Storyboard Layer 2 (Pass)
//Storyboard Layer 3 (Foreground)
//Storyboard Sound Samples

[TimingPoints]
276,827.586206896552,4,2,0,30,1,0
6896,-100,4,2,0,45,0,0
59862,-100,4,2,0,70,0,1
84689,-100,4,2,0,45,0,0
139310,-100,4,2,0,70,0,1
164138,-100,4,2,0,45,0,0

[Colours]
Combo1 : 244,167,23
Combo2 : 128,128,255

[HitObjects]
75,75,276,6,0,P|125:90|183:67,2,100,2|0|8,0:0|0:0|0:0,0:0:0:0:
12,211,1724,1,2,0:0:0:0:
46,247,1931,2,0,L|49:357,2,100,0|0|8,0:0|0:0|0:0,0:0:0:0:
181,181,3379,1,0,0:0:0:0:
225,204,3586,6,0,P|263:217|326:196,1,100,2|0,0:0|0:0,0:0:0:0:
359,171,4207,2,0,L|426:173,1,50,0|8,0:0|0:0,0:0:0:0:
460,313,5034,1,2,0:0:0:0:
419,341,5241,2,0,P|377:328|308:344,2,100,0|0|8,0:0|0:0|0:0,0:0:0:0:
296,253,6689,1,0,0:0:0:0:
257,284,6896,6,0,L|148:286,1,100,2|0,0:0|0:0,0:0:0:0:
124,190,7724,2,0,L|223:188,1,100,8|0,0:0|0:0,0:0:0:0:
288,111,8551,2,0,P|330:127|387:109,2,100,2|0|8,0:0|0:0|0:0,0:0:0:0:
204,55,9793,2,0,L|146:62,1,50,0|0,0:0|0:0,0:0:0:0:
110,35,10207,6,0,P|74:56|3:44,1,100,2|0,0:0|0:0,0:0:0:0:
11,151,11034,2,0,P|59:145|103:168,1,100,8|0,0:0|0:0,0:0:0:0:
40,246,11862,2,0,L|34:349,2,100,2|0|8,0:0|0:0|0:0,0:0:0:0:
103,168,13103,2,0,L|155:163,1,50,0|0,0:0|0:0,0:0:0:0:
194,134,13517,5,2,0:0:0:0:
276,190,13931,2,0,P|328:200|378:187,2,100,0|8|0,0:0|0:0|0:0,0:0:0:0:
194,134,15172,2,0,P|142:124|92:137,2,100,2|0|8,0:0|0:0|0:0,0:0:0:0:
275,192,16413,1,0,0:0:0:0:
358,246,16827,6,0,P|410:256|460:243,1,100,2|0,0:0|0:0,0:0:0:0:
490,209,17448,2,0,P|496:172|493:147,2,50,0|8|0,0:0|0:0|0:0,0:0:0:0:
455,245,18069,1,0,0:0:0:0:
403,159,18482,2,0,L|299:155,1,100,2|0,0:0|0:0,0:0:0:0:
258,242,19310,2,0,L|357:245,1,100,8|0,0:0|0:0,0:0:0:0:
308,332,20138,6,0,L|208:328,2,100,2|0|10,0:0|0:0|0:0,0:0:0:0:
405,356,21379,1,0,0:0:0:0:
474,283,21793,2,0,P|484:233|469:180,1,100,0|0,0:0|0:0,0:0:0:0:
391,127,22620,2,0,P|379:78|389:30,1,100,10|0,0:0|0:0,0:0:0:0:
289,20,23448,6,0,P|251:37|185:27,1,100,2|0,0:0|0:0,0:0:0:0:
196,131,24276,2,0,P|244:124|303:158,1,100,8|0,0:0|0:0,0:0:0:0:
229,223,25103,1,2,0:0:0:0:
196,131,25517,2,0,L|200:29,2,100,0|8|0,0:0|0:0|0:0,0:0:0:0:
216,176,26551,1,0,0:0:0:0:
231,222,26758,6,0,L|227:321,2,100,2|0|10,0:0|0:0|0:0,0:0:0:0:
314,167,28000,1,0,0:0:0:0:
388,233,28413,2,0,P|431:244|492:224,2,100,0|2|10,0:0|0:0|0:0,0:0:0:0:
314,167,29655,2,0,L|248:171,1,50,0|0,0:0|0:0,0:0:0:0:
219,147,30069,6,0,P|178:168|106:157,1,100,2|0,0:0|0:0,0:0:0:0:
108,67,30896,2,0,P|149:46|221:57,1,100,8|0,0:0|0:0,0:0:0:0:
299,26,31724,2,0,P|345:41|416:24,1,100,2|0,0:0|0:0,0:0:0:0:
478,89,32551,1,8,0:0:0:0:
427,175,32965,2,0,L|437:236,1,50,0|0,0:0|0:0,0:0:0:0:
463,265,33379,6,0,P|433:284|421:363,1,100,2|0,0:0|0:0,0:0:0:0:
323,302,34207,2,0,P|313:253|274:223,1,100,10|0,0:0|0:0,0:0:0:0:
186,177,35034,2,0,P|131:191|79:169,1,100,2|0,0:0|0:0,0:0:0:0:
50,148,35655,2,0,L|45:87,2,50,2|8|0,0:0|0:0|0:0,0:0:0:0:
41,197,36276,1,0,0:0:0:0:
100,277,36689,6,0,L|208:274,1,100,2|0,0:0|0:0,0:0:0:0:
282,331,37517,2,0,L|381:328,1,100,8|0,0:0|0:0,0:0:0:0:
418,293,38138,1,0,0:0:0:0:
442,249,38344,2,0,P|451:206|435:143,2,100,2|0|8,0:0|0:0|0:0,0:0:0:0:
351,206,39586,2,0,L|281:213,1,50,0|0,0:0|0:0,0:0:0:0:
252,198,40000,6,0,L|263:316,2,100,2|0|10,0:0|0:0|0:0,0:0:0:0:
167,143,41241,1,0,0:0:0:0:
94,211,41655,2,0,L|105:329,2,100,2|0|10,0:0|0:0|0:0,0:0:0:0:
167,143,42896,1,0,0:0:0:0:
237,72,43310,6,0,P|283:78|342:55,1,100,2|0,0:0|0:0,0:0:0:0:
419,112,44138,2,0,P|430:156|417:229,1,100,8|0,0:0|0:0,0:0:0:0:
394,249,44758,1,0,0:0:0:0:
348,269,44965,6,0,L|231:286,2,100,2|0|8,0:0|0:0|0:0,0:0:0:0:
419,338,46207,2,0,L|478:328,1,50,0|0,0:0|0:0,0:0:0:0:
499,290,46620,6,0,L|497:168,2,100,2|0|8,0:0|0:0|0:0,0:0:0:0:
352,324,48069,1,2,0:0:0:0:
309,297,48276,2,0,P|272:324|202:320,2,100,0|0|8,0:0|0:0|0:0,0:0:0:0:
315,197,49517,2,0,L|255:194,1,50,0|0,0:0|0:0,0:0:0:0:
223,166,49931,6,0,L|212:58,2,100,2|0|8,0:0|0:0|0:0,0:0:0:0:
125,280,51379,1,0,0:0:0:0:
79,300,51586,2,0,P|35:313|-24:282,2,100,2|0|8,0:0|0:0|0:0,0:0:0:0:
170,260,52827,2,0,L|226:268,1,50,0|0,0:0|0:0,0:0:0:0:
265,245,53241,6,0,P|254:285|282:354,1,100,2|0,0:0|0:0,0:0:0:0:
314,363,53862,1,0,0:0:0:0:
419,193,54689,1,0,0:0:0:0:
378,163,54896,2,0,L|267:157,2,100,2|0|8,0:0|0:0|0:0,0:0:0:0:
460,220,56138,2,0,L|466:280,1,50,0|0,0:0|0:0,0:0:0:0:
443,314,56551,6,0,L|328:322,1,100,2|0,0:0|0:0,0:0:0:0:
256,192,57379,12,0,59034,0:0:0:0:
99,77,59862,6,0,L|103:188,1,100,6|0,0:0|0:0,0:0:0:0:
196,212,60689,2,0,L|192:112,1,100,10|0,0:0|0:0,0:0:0:0:
271,50,61517,2,0,P|324:38|375:54,2,100,2|0|10,0:0|0:0|0:0,0:0:0:0:
192,112,62758,2,0,L|194:168,1,50,2|0,0:0|0:0,0:0:0:0:
228,198,63172,6,0,L|222:315,2,100,6|0|10,0:0|0:0|0:0,0:0:0:0:
308,138,64413,1,0,0:0:0:0:
380,206,64827,2,0,P|432:220|489:198,1,100,2|0,0:0|0:0,0:0:0:0:
506,168,65448,2,0,L|504:104,2,50,0|10|0,0:0|0:0|0:0,0:0:0:0:
475,207,66069,1,2,0:0:0:0:
474,306,66482,6,0,L|366:315,1,100,6|0,0:0|0:0,0:0:0:0:
289,260,67310,2,0,L|189:268,1,100,10|0,0:0|0:0,0:0:0:0:
149,298,67931,1,0,0:0:0:0:
107,326,68138,2,0,P|61:324|5:342,2,100,2|2|10,0:0|0:0|0:0,0:0:0:0:
189,268,69379,1,0,0:0:0:0:
274,320,69793,6,0,P|326:326|379:316,1,100,2|0,0:0|0:0,0:0:0:0:
437,241,70620,2,0,P|442:179|431:134,1,100,10|0,0:0|0:0,0:0:0:0:
358,76,71448,2,0,P|296:71|251:82,2,100,2|0|10,0:0|0:0|0:0,0:0:0:0:
448,33,72689,2,0,L|459:85,1,50,2|0,0:0|0:0,0:0:0:0:
486,123,73103,6,0,P|472:166|483:237,1,100,6|0,0:0|0:0,0:0:0:0:
387,265,73931,2,0,P|391:215|377:168,1,100,10|0,0:0|0:0,0:0:0:0:
283,134,74758,2,0,P|251:151|176:147,2,100,2|0|10,0:0|0:0|0:0,0:0:0:0:
327,44,76000,2,0,L|381:54,1,50,2|0,0:0|0:0,0:0:0:0:
422,35,76413,6,0,L|433:140,1,100,6|0,0:0|0:0,0:0:0:0:
376,217,77241,2,0,L|386:316,1,100,10|0,0:0|0:0,0:0:0:0:
294,357,78069,2,0,P|245:349|185:364,1,100,2|0,0:0|0:0,0:0:0:0:
99,332,78896,2,0,L|35:346,2,50,10|0|2,0:0|0:0|0:0,0:0:0:0:
127,290,79517,1,0,0:0:0:0:
154,247,79724,6,0,P|186:267|255:256,1,100,6|0,0:0|0:0,0:0:0:0:
263,162,80551,2,0,P|231:142|162:153,1,100,10|0,0:0|0:0,0:0:0:0:
154,247,81379,2,0,L|152:369,2,100,2|2|10,0:0|0:0|0:0,0:0:0:0:
171,147,82620,2,0,L|163:93,1,50,0|0,0:0|0:0,0:0:0:0:
133,57,83034,6,0,P|92:76|29:62,2,100,2|0|10,0:0|0:0|0:0,0:0:0:0:
224,16,84276,1,0,0:0:0:0:
256,192,84689,12,2,86344,0:0:0:0:
111,83,99586,6,0,P|154:73|210:86,2,100,2|0|10,0:0|0:0|0:0,0:0:0:0:
56,166,100827,1,0,0:0:0:0:
134,228,101241,2,0,L|137:335,1,100,2|0,0:0|0:0,0:0:0:0:
236,342,102069,2,0,L|233:242,1,100,10|0,0:0|0:0,0:0:0:0:
290,160,102896,6,0,P|326:138|391:141,2,100,2|0|8,0:0|0:0|0:0,0:0:0:0:
233,242,104138,1,0,0:0:0:0:
174,160,104551,2,0,P|138:138|73:141,2,100,2|0|8,0:0|0:0|0:0,0:0:0:0:
233,242,105793,1,0,0:0:0:0:
184,329,106207,6,0,P|225:340|288:325,1,100,2|0,0:0|0:0,0:0:0:0:
357,265,107034,2,0,P|405:253|453:265,1,100,8|0,0:0|0:0,0:0:0:0:
492,172,107862,2,0,L|483:65,2,100,2|0|10,0:0|0:0|0:0,0:0:0:0:
453,265,109103,1,0,0:0:0:0:
378,198,109517,6,0,L|278:206,1,100,2|0,0:0|0:0,0:0:0:0:
201,270,110344,2,0,L|101:278,1,100,8|0,0:0|0:0,0:0:0:0:
32,205,111172,2,0,P|22:155|38:97,2,100,2|0|10,0:0|0:0|0:0,0:0:0:0:
101,278,112413,1,0,0:0:0:0:
172,207,112827,6,0,L|287:212,1,100,2|0,0:0|0:0,0:0:0:0:
353,269,113655,2,0,L|468:264,1,100,10|0,0:0|0:0,0:0:0:0:
461,165,114482,2,0,L|361:169,2,100,2|0|8,0:0|0:0|0:0,0:0:0:0:
491,69,115724,1,0,0:0:0:0:
406,15,116138,6,0,P|375:35|306:37,1,100,2|0,0:0|0:0,0:0:0:0:
220,75,116965,2,0,P|189:55|120:53,1,100,8|0,0:0|0:0,0:0:0:0:
82,140,117793,2,0,L|92:258,2,100,2|0|8,0:0|0:0|0:0,0:0:0:0:
127,50,119034,1,0,0:0:0:0:
210,105,119448,6,0,P|258:114|311:104,1,100,2|0,0:0|0:0,0:0:0:0:
403,74,120276,2,0,P|451:65|500:74,1,100,10|0,0:0|0:0,0:0:0:0:
503,174,121103,2,0,P|454:182|405:173,1,100,2|0,0:0|0:0,0:0:0:0:
336,246,121931,1,10,0:0:0:0:
314,343,122344,1,0,0:0:0:0:
240,275,122758,6,0,P|185:282|148:331,1,100,2|0,0:0|0:0,0:0:0:0:
115,220,123586,2,0,P|60:213|23:164,1,100,8|0,0:0|0:0,0:0:0:0:
70,91,124413,2,0,P|125:98|162:147,2,100,2|0|8,0:0|0:0|0:0,0:0:0:0:
30,182,125655,1,0,0:0:0:0:
59,277,126069,6,0,L|161:275,1,100,2|0,0:0|0:0,0:0:0:0:
251,314,126896,2,0,L|350:312,1,100,8|0,0:0|0:0,0:0:0:0:
389,279,127517,1,2,0:0:0:0:
422,241,127724,2,0,P|430:190|414:131,2,100,0|0|8,0:0|0:0|0:0,0:0:0:0:
350,312,128965,2,0,L|289:320,1,50,0|0,0:0|0:0,0:0:0:0:
263,283,129379,6,0,P|220:298|156:284,2,100,2|0|8,0:0|0:0|0:0,0:0:0:0:
138,199,130827,1,0,0:0:0:0:
101,233,131034,2,0,P|62:255|-2:256,2,100,2|0|8,0:0|0:0|0:0,0:0:0:0:
60,141,132276,2,0,L|54:89,1,50,0|0,0:0|0:0,0:0:0:0:
76,46,132689,6,0,L|195:40,1,100,2|0,0:0|0:0,0:0:0:0:
256,100,133517,2,0,L|355:94,1,100,8|0,0:0|0:0,0:0:0:0:
360,194,134344,2,0,L|260:199,2,100,2|0|8,0:0|0:0|0:0,0:0:0:0:
457,215,135586,2,0,L|474:268,1,50,0|0,0:0|0:0,0:0:0:0:
481,311,136000,6,0,P|439:335|409:383,2,100,2|0|8,0:0|0:0|0:0,0:0:0:0:
256,192,137241,12,0,138482,0:0:0:0:
60,213,139310,6,0,L|69:321,2,100,6|0|10,0:0|0:0|0:0,0:0:0:0:
130,141,140551,1,0,0:0:0:0:
209,202,140965,2,0,P|250:213|312:196,1,100,2|0,0:0|0:0,0:0:0:0:
379,133,141793,2,0,P|426:120|475:131,1,100,10|2,0:0|0:0,0:0:0:0:
502,172,142413,1,0,0:0:0:0:
497,221,142620,6,0,L|505:328,2,100,6|0|10,0:0|0:0|0:0,0:0:0:0:
404,259,143862,1,0,0:0:0:0:
308,229,144276,2,0,P|260:237|215:285,1,100,2|0,0:0|0:0,0:0:0:0:
138,216,145103,2,0,L|69:213,2,50,10|0|2,0:0|0:0|0:0,0:0:0:0:
171,178,145724,1,0,0:0:0:0:
201,138,145931,6,0,P|238:145|304:118,1,100,6|0,0:0|0:0,0:0:0:0:
277,26,146758,2,0,P|240:19|174:46,1,100,10|0,0:0|0:0,0:0:0:0:
133,29,147379,1,0,0:0:0:0:
102,68,147586,6,0,P|65:95|4:89,2,100,2|2|10,0:0|0:0|0:0,0:0:0:0:
167,143,148827,1,0,0:0:0:0:
104,221,149241,2,0,L|96:335,2,100,6|0|10,0:0|0:0|0:0,0:0:0:0:
192,174,150482,1,0,0:0:0:0:
266,240,150896,6,0,P|306:251|370:236,1,100,2|0,0:0|0:0,0:0:0:0:
413,153,151724,2,0,P|373:142|309:157,1,100,10|2,0:0|0:0,0:0:0:0:
287,111,152344,1,0,0:0:0:0:
244,137,152551,6,0,P|201:150|141:137,1,100,6|0,0:0|0:0,0:0:0:0:
70,76,153379,2,0,L|53:192,1,100,10|0,0:0|0:0,0:0:0:0:
103,263,154207,2,0,L|223:258,2,100,2|0|10,0:0|0:0|0:0,0:0:0:0:
58,285,155241,2,0,L|0:277,2,50,0|2|0,0:0|0:0|0:0,0:0:0:0:
103,263,155862,6,0,P|122:213|108:156,1,100,6|0,0:0|0:0,0:0:0:0:
55,87,156689,2,0,L|168:78,1,100,10|0,0:0|0:0,0:0:0:0:
244,123,157517,2,0,L|343:115,2,100,2|0|10,0:0|0:0|0:0,0:0:0:0:
220,167,158551,2,0,L|216:231,2,50,0|2|0,0:0|0:0|0:0,0:0:0:0:
177,139,159172,6,0,P|139:150|69:131,1,100,6|0,0:0|0:0,0:0:0:0:
87,38,160000,2,0,P|125:27|195:46,1,100,10|0,0:0|0:0,0:0:0:0:
230,23,160620,1,0,0:0:0:0:
268,54,160827,2,0,P|309:71|379:57,2,100,2|2|10,0:0|0:0|0:0,0:0:0:0:
189,116,162069,2,0,L|191:180,1,50,0|0,0:0|0:0,0:0:0:0:
230,196,162482,6,0,L|219:313,2,100,2|0|10,0:0|0:0|0:0,0:0:0:0:
315,143,163724,1,0,0:0:0:0:
256,192,164138,12,10,165793,0:0:0:0:
