osu file format v14

[General]
AudioFilename: 07 Novocaine.mp3
AudioLeadIn: 0
PreviewTime: 134877
Countdown: 1
SampleSet: None
StackLeniency: 0.7
Mode: 0
LetterboxInBreaks: 1
WidescreenStoryboard: 0

[Editor]
Bookmarks: 18342
DistanceSpacing: 1.3
BeatDivisor: 4
GridSize: 4
TimelineZoom: 1

[Metadata]
Title:Novocaine
TitleUnicode:Novocaine
Artist:Fall Out Boy
ArtistUnicode:Fall Out Boy
Creator:Danny
Version:Novocaine
Source:
Tags:
BeatmapID:662639
BeatmapSetID:294788

[Difficulty]
HPDrainRate:6
CircleSize:4
OverallDifficulty:7
ApproachRate:8
SliderMultiplier:2.1
SliderTickRate:1

[Events]
//Background and Video events
0,0,"mh.jpg",0,0
//Break Periods
//Storyboard Layer 0 (Background)
//Storyboard Layer 1 (Fail)
//Storyboard Layer 2 (Pass)
//Storyboard Layer 3 (Foreground)
//Storyboard Sound Samples

[TimingPoints]
760,441.176470588235,4,1,0,50,1,0
53701,-86.9565217391304,4,1,0,50,0,1
81936,-100,4,1,0,50,0,0
134877,-86.9565217391304,4,1,0,50,0,1
163112,-100,4,1,0,50,0,0
198407,-80,4,1,0,50,0,1
217818,-100,4,1,0,50,0,0

[HitObjects]
200,96,760,6,0,P|200:160|184:208,1,105
323,198,1201,2,0,P|310:148|312:96,1,105
424,128,1642,2,0,P|448:192|384:272,1,157.5
344,280,2083,1,0,0:0:0:0:
232,224,2304,2,0,P|225:172|248:126,1,105
352,200,2745,1,0,0:0:0:0:
232,312,2965,2,0,B|184:296|184:296|152:320|120:320,1,105
104,192,3407,2,0,P|88:96|136:48,1,157.5
184,40,3848,1,0,0:0:0:0:
256,144,4068,1,0,0:0:0:0:
328,40,4290,6,0,L|416:96,1,105
256,144,4731,2,0,L|168:200,1,105
248,296,5172,2,0,B|296:288|296:288|328:312|392:312|432:256,1,157.5
432,232,5613,1,0,0:0:0:0:
448,104,5834,2,0,P|400:88|368:40,1,105
256,104,6275,1,0,0:0:0:0:
64,103,6496,2,0,P|112:87|142:45,1,105
256,104,6937,5,0,0:0:0:0:
311,213,7158,1,0,0:0:0:0:
256,104,7378,1,0,0:0:0:0:
199,287,7599,2,0,P|293:305|310:212,1,210
196,160,8260,6,0,P|180:84|200:44,1,105
311,212,8702,2,0,P|376:254|390:296,1,105
200,288,9143,2,0,B|136:288|136:288|116:212|52:212,1,157.5
81,153,9584,2,0,B|115:157|135:81|135:81|195:81,1,157.5
244,124,10025,2,0,P|288:150|339:143,1,105
360,264,10466,2,0,P|409:251|441:210,1,105
339,143,10908,1,0,0:0:0:0:
256,48,11128,2,0,P|212:56|168:116,1,105
88,192,11569,5,0,0:0:0:0:
176,284,11790,1,0,0:0:0:0:
88,192,12010,1,0,0:0:0:0:
176,104,12231,2,0,P|160:176|87:191,1,157.5
48,144,12672,2,0,P|72:92|64:44,2,105
56,268,13334,5,0,0:0:0:0:
168,328,13555,2,0,B|208:312|208:312|248:280|248:280|280:296|320:296,1,157.5
372,284,13996,5,0,0:0:0:0:
408,164,14216,1,0,0:0:0:0:
372,284,14437,1,0,0:0:0:0:
328,100,14658,1,0,0:0:0:0:
372,284,14878,6,0,P|300:320|260:312,1,105
408,164,15319,2,0,P|475:208|488:246,1,105
285,192,15760,2,0,P|289:111|316:81,1,105
432,24,16202,1,0,0:0:0:0:
408,164,16422,1,0,0:0:0:0:
432,308,16643,2,0,L|328:340,1,105
80,308,17084,2,0,L|184:340,1,105
256,212,17525,5,0,0:0:0:0:
184,84,17746,1,0,0:0:0:0:
256,288,17966,1,0,0:0:0:0:
328,84,18187,1,0,0:0:0:0:
184,84,18408,6,0,P|176:156|132:184,1,105
120,240,18738,2,0,P|154:298|189:312,1,105
256,288,19069,1,0,0:0:0:0:
368,192,19290,2,0,B|376:128|376:128|376:84|376:84|316:84,1,157.5
268,128,19731,2,0,P|212:120|184:80,1,105
43,36,20172,2,0,P|42:87|72:129,1,105
73,204,20503,2,0,P|42:245|44:297,1,105
108,340,20834,1,0,0:0:0:0:
256,324,21055,6,0,L|320:236,1,105
200,152,21496,2,0,L|136:64,1,105
72,204,21937,5,0,0:0:0:0:
184,300,22158,1,0,0:0:0:0:
72,204,22378,1,0,0:0:0:0:
184,84,22599,1,0,0:0:0:0:
72,204,22819,2,0,P|88:264|120:304,1,105
256,340,23260,2,0,P|295:292|341:269,1,105
388,136,23702,5,0,0:0:0:0:
256,72,23922,1,0,0:0:0:0:
124,136,24143,1,0,0:0:0:0:
256,224,24363,1,0,0:0:0:0:
256,72,24584,2,0,L|136:48,1,105
256,224,25025,2,0,L|376:248,1,105
420,112,25466,5,0,0:0:0:0:
476,248,25687,1,0,0:0:0:0:
348,172,25908,1,0,0:0:0:0:
292,308,26127,1,0,0:0:0:0:
348,172,26349,2,0,P|328:108|256:56,1,157.5
196,100,26790,2,0,P|152:168|112:176,1,105
28,280,27231,5,0,0:0:0:0:
160,346,27452,1,0,0:0:0:0:
337,327,27672,1,0,0:0:0:0:
204,260,27893,1,0,0:0:0:0:
332,192,28113,2,0,L|284:32,1,157.5
225,41,28555,2,0,L|184:180,1,105
332,192,28996,5,0,0:0:0:0:
471,221,29216,1,0,0:0:0:0:
332,192,29437,1,0,0:0:0:0:
397,61,29657,1,0,0:0:0:0:
332,192,29878,2,0,P|312:272|280:292,1,105
264,140,30319,2,0,P|304:107|355:105,1,105
412,240,30760,5,0,0:0:0:0:
300,336,30981,1,0,0:0:0:0:
100,240,31202,1,0,0:0:0:0:
212,336,31421,1,0,0:0:0:0:
312,228,31643,2,0,B|312:176|312:176|332:116,1,105
183,125,32084,2,0,B|200:176|200:176|200:228,1,105
84,320,32525,5,0,0:0:0:0:
40,180,32746,1,0,0:0:0:0:
200,228,32966,1,0,0:0:0:0:
267,97,33187,1,0,0:0:0:0:
260,280,33408,2,0,P|204:304|144:288,1,105
183,125,33849,1,0,0:0:0:0:
260,280,34069,1,0,0:0:0:0:
408,300,34290,5,0,0:0:0:0:
452,160,34510,1,0,0:0:0:0:
336,68,34731,1,0,0:0:0:0:
380,208,34951,1,0,0:0:0:0:
259,279,35171,2,0,P|214:254|163:245,1,105
20,204,35612,2,0,P|58:139|104:108,1,105
228,100,36054,5,0,0:0:0:0:
368,60,36274,1,0,0:0:0:0:
344,204,36495,2,0,P|368:264|408:292,1,105
476,164,36936,1,0,0:0:0:0:
368,60,37157,1,0,0:0:0:0:
228,100,37377,2,0,P|204:160|164:188,1,105
92,64,37818,5,0,0:0:0:0:
32,200,38039,1,0,0:0:0:0:
168,144,38259,1,0,0:0:0:0:
145,290,38480,1,0,0:0:0:0:
262,201,38701,1,0,0:0:0:0:
277,348,38922,1,0,0:0:0:0:
365,230,39142,1,0,0:0:0:0:
418,368,39363,1,0,0:0:0:0:
365,230,39583,6,0,P|368:148|380:120,1,105
256,40,40024,1,0,0:0:0:0:
256,188,40245,1,0,0:0:0:0:
135,127,40465,2,0,P|150:177|147:230,1,105
256,344,40907,1,0,0:0:0:0:
256,188,41127,1,0,0:0:0:0:
140,280,41348,5,0,0:0:0:0:
52,164,41568,1,0,0:0:0:0:
196,188,41789,1,0,0:0:0:0:
189,41,42009,1,0,0:0:0:0:
312,124,42230,1,0,0:0:0:0:
296,252,42451,1,0,0:0:0:0:
280,290,42561,1,0,0:0:0:0:
250,319,42671,1,0,0:0:0:0:
312,124,42892,1,0,0:0:0:0:
350,140,43002,1,0,0:0:0:0:
379,170,43112,6,0,P|432:228|472:236,1,105
348,340,43554,2,0,P|314:300|306:249,1,105,0|0,0:3|0:0,0:0:0:0:
132,170,43995,2,0,P|104:213|56:234,1,105
164,340,44436,2,0,P|197:300|205:249,1,105,0|0,0:3|0:0,0:0:0:0:
184,104,44877,5,0,0:0:0:0:
52,44,45098,1,0,0:0:0:0:
4,172,45318,2,0,L|64:300,1,105
164,340,45759,1,0,0:0:0:0:
308,252,45980,1,0,0:0:0:0:
256,116,46201,1,0,0:0:0:0:
164,340,46421,1,0,0:0:0:0:
156,192,46642,5,0,0:0:0:0:
44,96,46862,1,0,0:0:0:0:
156,192,47083,1,0,0:0:0:0:
156,44,47304,1,0,0:0:0:0:
156,192,47524,1,0,0:0:0:0:
268,96,47745,1,0,0:0:0:0:
156,192,47965,6,0,P|144:268|156:312,1,105
292,252,48407,1,0,0:0:0:0:
268,96,48627,1,0,0:0:0:0:
404,152,48848,2,0,L|460:264,1,105
221,189,49289,2,0,L|268:96,1,105
412,72,49730,2,0,P|476:128|424:228,1,210
256,192,50282,12,0,51715,0:0:0:0:
168,240,51936,5,0,0:0:0:0:
150,202,52046,1,0,0:0:0:0:
149,160,52156,1,0,0:0:0:0:
256,264,52377,1,0,0:0:0:0:
362,160,52598,5,0,0:0:0:0:
361,202,52708,1,0,0:0:0:0:
344,240,52818,1,0,0:0:0:0:
256,120,53039,1,0,0:0:0:0:
384,52,53259,1,0,0:0:0:0:
464,176,53480,1,0,0:0:0:0:
383,312,53701,6,0,P|325:320|276:287,1,120.750002303124
169,262,54142,2,0,P|228:253|277:287,1,120.750002303124
124,332,54583,2,0,P|88:268|104:212,1,120.750002303124
196,104,55024,1,0,0:0:0:0:
300,256,55245,1,0,0:0:0:0:
348,104,55465,2,0,P|412:140|428:212,1,120.750002303124
300,256,55907,1,0,0:0:0:0:
272,88,56127,2,0,P|308:40|392:40,1,120.750002303124
460,156,56568,1,0,0:0:0:0:
304,180,56789,2,0,P|264:192|224:260,1,120.750002303124
108,340,57230,5,0,0:0:0:0:
48,264,57451,1,0,0:0:0:0:
48,156,57671,1,0,0:0:0:0:
104,48,57892,1,0,0:0:0:0:
188,152,58112,1,0,0:0:0:0:
332,160,58333,1,0,0:0:0:0:
400,304,58554,1,0,0:0:0:0:
460,148,58774,1,0,0:0:0:0:
308,244,58995,1,0,0:0:0:0:
116,252,59215,1,0,0:0:0:0:
216,72,59436,2,0,P|296:40|340:48,1,120.750002303124
460,148,59877,5,0,0:0:0:0:
404,280,60098,1,0,0:0:0:0:
316,168,60318,1,0,0:0:0:0:
260,300,60539,1,0,0:0:0:0:
212,307,60649,1,0,0:0:0:0:
166,293,60759,5,0,0:0:0:0:
52,184,60980,1,0,0:0:0:0:
166,91,61201,1,0,0:0:0:0:
316,168,61421,1,0,0:0:0:0:
428,56,61642,2,0,B|430:113|430:113|466:173,1,120.750002303124
316,168,62083,2,0,B|348:113|348:113|350:56,1,120.750002303124
196,28,62524,5,0,0:0:0:0:
60,112,62745,1,0,0:0:0:0:
60,272,62965,1,0,0:0:0:0:
200,192,63186,2,0,L|328:192,1,120.750002303124
452,272,63627,1,0,0:0:0:0:
452,112,63848,2,0,B|400:68|400:68|320:96|252:40,1,181.125003454685
212,64,64289,6,0,P|148:84|80:80,1,120.750002303124
44,232,64730,1,0,0:0:0:0:
164,332,64951,1,0,0:0:0:0:
192,176,65171,1,0,0:0:0:0:
92,296,65392,1,0,0:0:0:0:
192,176,65612,2,0,P|264:120|320:124,1,120.750002303124
316,276,66054,5,0,0:0:0:0:
420,160,66274,1,0,0:0:0:0:
426,112,66384,1,0,0:0:0:0:
408,68,66494,1,0,0:0:0:0:
260,124,66715,1,0,0:0:0:0:
120,52,66936,5,0,0:0:0:0:
44,192,67157,1,0,0:0:0:0:
120,52,67377,1,0,0:0:0:0:
196,192,67598,1,0,0:0:0:0:
202,239,67708,1,0,0:0:0:0:
184,283,67818,1,0,0:0:0:0:
44,192,68039,5,0,0:0:0:0:
120,52,68259,2,0,P|176:64|240:48,1,120.750002303124
304,192,68701,2,0,P|362:177|420:189,1,120.750002303124
480,336,69142,1,0,0:0:0:0:
324,360,69362,1,0,0:0:0:0:
200,260,69583,5,0,0:0:0:0:
312,124,69804,1,0,0:0:0:0:
152,184,70024,1,0,0:0:0:0:
360,200,70245,1,0,0:0:0:0:
172,104,70465,1,0,0:0:0:0:
340,280,70686,1,0,0:0:0:0:
248,64,70907,6,0,P|308:40|380:64,1,120.750002303124
248,64,71348,1,0,0:0:0:0:
348,184,71568,1,0,0:0:0:0:
264,320,71789,2,0,P|204:344|132:320,1,120.750002303124
264,320,72230,1,0,0:0:0:0:
164,184,72451,1,0,0:0:0:0:
308,120,72671,2,0,P|384:120|420:164,1,120.750002303124
320,276,73112,6,0,P|244:300|196:292,1,120.750002303124
84,192,73554,1,0,0:0:0:0:
208,60,73774,1,0,0:0:0:0:
204,294,73995,1,0,0:0:0:0:
428,192,74215,1,0,0:0:0:0:
304,60,74435,1,0,0:0:0:0:
307,294,74657,1,0,0:0:0:0:
255,320,74767,1,0,0:0:0:0:
204,294,74877,1,0,0:0:0:0:
84,192,75098,5,0,0:0:0:0:
124,40,75318,1,0,0:0:0:0:
240,144,75539,1,0,0:0:0:0:
388,100,75759,2,0,B|388:160|388:160|324:236,1,120.750002303124
163,206,76201,2,0,B|124:160|124:160|124:100,1,120.750002303124
256,12,76642,5,0,0:0:0:0:
388,100,76862,1,0,0:0:0:0:
124,100,77083,2,0,P|72:136|56:188,1,120.750002303124
256,372,77524,1,0,0:0:0:0:
124,284,77744,1,0,0:0:0:0:
124,100,77965,2,0,P|176:136|192:188,1,120.750002303124
256,332,78407,5,0,0:0:0:0:
324,192,78627,1,0,0:0:0:0:
256,48,78848,1,0,0:0:0:0:
256,332,79068,1,0,0:0:0:0:
188,192,79289,1,0,0:0:0:0:
324,192,79509,1,0,0:0:0:0:
148,120,79730,1,0,0:0:0:0:
364,120,79951,1,0,0:0:0:0:
384,276,80171,6,0,L|264:336,1,120.750002303124
236,330,80612,2,0,L|128:276,1,120.750002303124
112,208,81054,2,0,P|188:120|232:144,1,181.125003454685
285,138,81495,2,0,P|369:129|400:208,1,181.125003454685
384,276,81936,6,0,P|340:236|336:176,1,105
179,193,82377,2,0,P|167:243|128:275,1,105
48,164,82818,2,0,B|72:112|72:112|136:104|148:52,1,157.5
216,52,83259,1,0,0:0:0:0:
256,184,83480,1,0,0:0:0:0:
296,52,83701,5,0,0:0:0:0:
428,88,83921,1,0,0:0:0:0:
464,220,84142,2,0,B|440:272|440:272|376:280|364:328,1,157.5
296,328,84583,2,0,B|284:279|220:271|220:271|196:219,1,157.5
128,208,85024,1,0,0:0:0:0:
112,344,85245,1,0,0:0:0:0:
296,328,85465,6,0,P|344:280|344:232,1,105
104,136,85907,2,0,P|56:184|56:232,1,105
256,192,86348,2,0,B|276:132|276:132|240:96|240:96|256:44,1,157.5
316,28,86789,1,0,0:0:0:0:
444,76,87009,1,0,0:0:0:0:
