osu file format v5

[General]
AudioFilename: Fall Out Boy - Headfirst Slide Into Cooperstown On A Bad Bet.mp3
AudioLeadIn: 0
PreviewTime: 112086
Countdown: 1
SampleSet: Normal
StackLeniency: 0.7
Mode: 0
LetterboxInBreaks: 1
EditorBookmarks: 0

[Metadata]
Title:Headfirst Slide Into Cooperstown On A Bad Bet
Artist:Fall Out Boy
Creator:EEeee
Version:A Safe Bet
Source:
Tags:

[Difficulty]
HPDrainRate:5
CircleSize:5
OverallDifficulty:4
SliderMultiplier:1.4
SliderTickRate:2

[Events]
//Background and Video events
0,0,"Picture1-11.png"
//Break Periods
2,56125,59855
2,132875,135605
//Storyboard Layer 0 (Background)
//Storyboard Layer 1 (Failing)
//Storyboard Layer 2 (Passing)
//Storyboard Layer 3 (Foreground)
//Storyboard Sound Samples
//Background Colour Transformations
3,100,128,128,255

[TimingPoints]
4427,500,4,1,0,71,1
56323,-100,4,2,0,72,0
71947,-100,4,1,0,63,0
98947,-100,4,2,0,61,0
99447,-100,4,2,0,74,0
144455,-100,4,2,0,93,0
160072,-100,4,1,0,74,0
192149,-100,4,2,0,100,0
208046,-100,4,1,0,49,0

[Colours]
Combo1 : 0,230,57
Combo2 : 0,251,251
Combo3 : 236,0,236
Combo4 : 0,0,255

[HitObjects]
80,288,4427,1,0
80,144,4927,1,0
216,144,5427,1,0
80,144,5927,2,0,B|168:144,2,70
216,144,6927,5,0
352,144,7427,1,0
352,280,7927,1,0
352,144,8427,2,0,B|264:144,4,70
208,144,9927,6,0,B|304:144,4,70
64,144,11427,2,0,B|168:144,4,70,4|0|4|0|4
64,216,12677,1,0
64,288,12927,1,0
136,288,13177,1,0
208,288,13427,6,0,B|288:288,2,70,0|8|0
64,288,14427,2,0,B|64:72,2,210,0|8|0
200,288,16427,5,8
336,288,16927,1,8
336,144,17427,1,8
336,0,17927,1,8
264,0,18177,1,0
192,0,18427,1,8
192,144,18927,2,0,B|32:144,2,140,0|8|0
192,280,20427,5,0
48,280,20927,1,0
192,280,21427,1,0
328,280,21927,2,0,B|416:280,4,70,0|8|0|8|0
328,208,23177,5,0
328,136,23427,1,0
328,64,23677,2,0,B|408:64,2,70,0|8|4
256,64,24427,6,0,B|152:24|104:80,2,140,0|4|0
256,200,25927,2,0,B|256:56,1,140,4|8
184,56,26677,5,0
112,56,26927,1,8
112,192,27427,1,8
184,192,27677,1,0
112,312,28177,5,8
184,312,28427,1,0
320,312,28927,1,8
392,312,29177,1,0
320,192,29677,6,0,B|416:192,1,70,8|0
392,48,30427,2,0,B|296:48,1,70,8|0
184,48,31177,2,0,B|264:48,4,70,0|0|0|0|4
184,256,32927,6,0,B|328:256,2,140
112,256,34177,1,0
112,112,34677,1,0
112,256,35177,1,0
112,112,35677,1,4
248,112,36177,6,0,B|168:112,3,70
40,112,37427,1,0
40,248,37927,2,0,B|120:248,1,70
176,248,38427,2,0,B|256:248,3,70
384,248,39677,2,0,B|384:144,1,70
384,40,40427,5,8
240,40,40927,1,0
96,40,41427,1,8
96,176,41927,1,0
96,312,42427,1,8
232,312,42927,2,0,B|288:352|368:312,1,140,0|4
368,176,43927,5,0
224,176,44427,1,8
368,176,44927,1,0
224,176,45427,1,8
368,176,45927,2,0,B|368:96,1,70,0|0
368,32,46427,1,8
368,104,46677,1,0
224,104,47177,6,0,B|224:16,4,70,8|0|8|0|8
224,176,48427,1,0
80,176,48927,1,0
80,104,49177,1,0
80,32,49427,1,4
216,32,49927,6,0,B|320:32,3,70,0|8|0|8
352,32,50927,1,0
424,32,51177,1,8
424,104,51427,1,4
424,240,51927,6,2,B|376:272|296:272|288:240,7,140,0|2|2|2|2|2|2|0
224,248,55677,1,8
224,248,55927,1,12
72,96,61177,6,0,B|72:200,3,70
144,160,62177,2,0,B|224:160,3,70
352,160,63427,2,0,B|256:160,2,70
424,160,64177,1,4
224,160,64927,5,0
80,160,65427,5,0
224,160,65927,5,0
360,160,66427,5,0
224,160,66927,6,0,B|224:304,2,140,0|4|0
80,152,68427,2,0,B|128:80|192:72,1,140,0|4
328,72,69427,2,0,B|440:112|440:192,1,140,0|4
432,296,70427,2,0,B|328:352|272:320,1,140,0|4
160,328,71427,2,0,B|56:328,4,70,0|8|0|8|0
296,328,72927,1,0
152,328,73427,6,0,B|296:328|280:96,1,280,0|4
144,120,74927,1,0
280,120,75427,1,0
144,120,75927,1,0
280,120,76427,1,0
280,256,76927,6,0,B|336:320|432:256,5,140,0|8|0|8|0|8
280,256,79927,5,4
136,256,80427,5,0
240,168,80927,1,0
136,256,81427,5,0
232,352,81927,1,0
136,256,82427,5,0
32,352,82927,1,0
136,256,83427,5,0
32,160,83927,1,0
136,256,84427,5,0
136,112,84927,1,0
136,256,85427,1,0
272,256,85927,1,0
136,256,86427,1,0
272,256,86927,2,0,B|328:264,12,35,0|0|0|0|0|0|0|0|0|0|0|0|0
88,272,88927,6,0,B|88:184,2,70
224,272,89927,2,0,B|136:272,1,70
152,200,90427,2,0,B|72:200,1,70,0|0
80,128,90927,2,0,B|184:128,6,70
216,128,92927,6,0,B|320:128,1,70
352,128,93427,2,0,B|352:232,3,70,0|0|0|4
232,128,94677,5,4
88,128,95177,1,4
160,248,95677,2,0,B|160:344,1,70,8|4
296,312,96427,5,0
432,312,96927,1,0
296,264,97427,1,0
432,264,97927,1,0
432,120,98427,1,0
288,120,98927,6,4,B|128:120,1,140
80,120,99677,2,0,B|80:216,2,70
152,120,100427,6,0,B|304:120,1,140
432,120,101427,1,0
432,256,101927,1,0
288,256,102427,1,8
360,256,102677,1,0
288,256,102927,1,8
144,256,103427,1,0
144,112,103927,6,0,B|144:216,3,70,0|8|0|8
280,184,105177,2,0,B|368:184,1,70
208,184,105927,6,0,B|208:88,3,70,0|8|0|8
344,112,107177,2,0,B|240:112,1,70
136,112,107927,1,0
272,112,108427,1,8
136,112,108927,1,0
136,248,109427,1,8
136,112,109927,5,0
272,112,110427,1,8
136,112,110927,1,0
136,248,111427,1,8
208,248,111677,1,8
280,248,111927,1,4
256,192,112427,12,0,114927
368,88,115427,5,0
224,88,115927,1,0
368,88,116427,1,0
224,88,116927,1,0
368,88,117427,1,0
224,88,117927,1,0
80,88,118427,5,0
80,160,118677,1,0
80,232,118927,1,0
152,232,119177,1,4
224,232,119427,1,0
376,232,119927,6,0,B|272:232,2,70
376,88,120927,2,0,B|376:192,2,70
168,88,121927,6,0,B|72:88,2,70
168,224,122927,2,0,B|168:144,2,70,0|0|4
408,160,123927,5,0
264,160,124427,1,0
120,160,124927,1,0
120,296,125427,1,0
192,296,125677,1,0
264,296,125927,6,0,B|336:296,1,70,0|4
472,296,126677,1,0
464,152,127177,1,0
320,152,127677,2,0,B|400:152,3,70,0|8|0|8
248,152,128927,5,0
248,152,129177,1,0
40,152,129927,1,0
40,152,130177,1,0
40,152,130427,2,0,B|40:296,1,140,0|12
176,296,131427,5,0
40,296,131927,1,0
112,296,132177,1,0
248,296,132677,1,0
160,144,136427,5,0
160,280,136927,1,0
296,280,137427,1,0
160,280,137927,1,0
160,144,138427,1,0
160,280,138927,1,0
232,280,139177,1,0
368,280,139677,6,0,B|368:192,1,70
368,72,140427,1,0
224,72,140927,1,0
368,72,141427,1,0
224,72,141927,1,0
368,72,142427,5,0
368,208,142927,1,0
368,72,143427,1,0
224,72,143927,1,4
224,144,144177,1,4
224,216,144427,6,4,B|224:368,4,140,4|0|4|0|4
224,72,146927,1,0
224,216,147427,1,0
224,72,147927,1,0
224,216,148427,1,0
72,72,149177,6,0,B|152:72,2,70
72,208,150177,1,0
72,280,150427,1,0
208,280,150927,5,0
72,280,151427,1,0
208,280,151927,1,0
344,280,152427,1,0
344,136,152927,6,0,B|184:136,4,140
344,136,155427,1,0
344,272,155927,1,0
200,272,156427,1,0
56,272,156927,5,0
56,128,157427,1,0
56,56,157677,1,0
128,56,157927,1,0
264,56,158427,1,0
128,56,158927,1,0
128,192,159427,5,0
200,192,159677,1,0
128,192,159927,1,0
128,120,160177,6,0,C|224:120,1,70
336,120,160927,1,0
200,120,161427,1,0
336,120,161927,1,0
336,192,162177,1,0
336,264,162427,1,0
200,264,162927,5,0
200,264,163177,1,0
200,264,163427,1,0
200,264,163677,2,0,C|200:168,1,70
200,120,164177,5,0
128,120,164427,1,0
128,192,164677,1,0
128,192,164927,1,0
128,328,165427,5,0
264,328,165927,1,0
128,328,166427,1,0
264,328,166927,1,0
264,256,167177,2,0,B|328:256,6,35
264,184,168177,6,0,B|264:80,5,70
120,120,169927,1,0
120,192,170177,1,0
120,264,170427,1,0
192,264,170677,1,0
328,264,171177,1,4
328,120,171677,5,0
256,120,171927,2,0,B|256:32,3,70
328,48,172927,2,0,B|328:144,2,70
400,48,173677,1,0
472,48,173927,2,0,B|472:128,10,70
352,120,176927,1,0
208,120,177427,1,0
64,120,177927,1,0
64,192,178177,1,0
200,192,178677,5,0
272,192,178927,1,0
408,192,179427,1,0
408,48,179927,1,0
336,48,180177,1,0
336,120,180427,1,0
184,120,180927,5,0
184,256,181427,1,0
256,256,181677,1,0
328,256,181927,1,0
400,256,182177,2,0,B|400:104,1,140
328,112,182927,6,0,B|232:112,1,70
184,112,183427,2,0,B|80:112,6,70
184,320,185677,6,0,B|184:176,1,140
344,320,186927,6,0,B|344:160,1,140
264,64,187927,6,0,B|264:224,1,140
256,192,188927,12,0,192427
168,112,192927,5,0
312,112,193427,1,0
168,112,193927,1,0
312,112,194427,5,0
272,168,194677,1,0
312,224,194927,1,0
168,224,195427,1,0
208,168,195677,1,0
168,112,195927,1,0
24,104,196427,6,0,B|24:248,1,140
160,240,197427,2,0,B|320:240,2,140
96,112,198927,1,0
232,112,199427,1,0
296,240,199927,1,0
368,240,200177,2,0,B|456:240,1,70
296,240,200927,6,0,B|144:240,4,140
432,240,203427,6,0,B|288:240,1,140
256,192,204427,12,0,207427
40,32,208427,6,0,L|472:32|472:32|472:344|472:344|40:344|40:344|40:96,1,1400
168,128,213927,1,0
240,128,214177,1,0
312,128,214427,1,0
384,128,214677,1,0
384,264,215177,2,0,C|296:304|200:240,1,210
64,136,216427,5,0
64,272,216927,1,0
200,272,217427,1,0
336,272,217927,1,0
336,64,218677,2,0,L|336:144,1,70
256,192,219927,12,0,225177
