osu file format v5

[General]
AudioFilename: Fall Out Boy - Headfirst Slide Into Cooperstown On A Bad Bet.mp3
AudioLeadIn: 0
PreviewTime: 136288
Countdown: 1
SampleSet: Normal
StackLeniency: 0.7
Mode: 0
LetterboxInBreaks: 1
EditorBookmarks: 0

[Metadata]
Title:Headfirst Slide Into Cooperstown On A Bad Bet
Artist:Fall Out Boy
Creator:EEeee
Version:A Bad Bet
Source:
Tags:

[Difficulty]
HPDrainRate:6
CircleSize:5
OverallDifficulty:7
SliderMultiplier:1.4
SliderTickRate:2

[Events]
//Background and Video events
0,0,"Picture1-11.png"
//Break Periods
2,56124,60275
2,132875,135525
//Storyboard Layer 0 (Background)
//Storyboard Layer 1 (Failing)
//Storyboard Layer 2 (Passing)
//Storyboard Layer 3 (Foreground)
//Storyboard Sound Samples
//Background Colour Transformations
3,100,0,0,0

[TimingPoints]
4427,500,4,1,0,100,1
56323,-100,4,2,0,72,0
71947,-100,4,1,0,63,0
98947,-100,4,2,0,61,0
99447,-100,4,1,0,74,0
144455,-100,4,2,0,93,0
160072,-100,4,1,0,74,0
195925,-100,4,2,0,66,0
208046,-100,4,1,0,49,0

[Colours]
Combo1 : 0,223,56
Combo2 : 0,240,240
Combo3 : 232,0,232
Combo4 : 0,0,234

[HitObjects]
400,288,4427,1,0
256,288,4927,1,0
256,144,5427,1,0
256,288,5927,1,0
224,288,6052,1,0
192,288,6177,1,0
192,216,6427,1,0
48,216,6927,5,0
192,216,7427,1,0
224,216,7552,1,0
224,144,7802,1,0
192,144,7927,1,0
192,64,8177,1,0
72,56,8427,5,4
72,192,8927,1,0
72,56,9427,1,0
208,56,9927,1,0
280,56,10177,1,0
280,128,10427,2,0,B|176:128,4,70,0|4|0|0|0
416,120,11927,5,0
464,168,12177,1,0
416,216,12427,1,4
464,168,12677,1,0
416,120,12927,1,0
344,120,13177,1,0
272,120,13427,1,0
200,120,13677,1,0
128,120,13927,2,4,B|128:192,1,70,4|0
128,256,14427,6,0,B|232:288|224:304|200:320|176:320|168:320|160:320|144:304|136:288|104:304|104:304|96:320,2,210,12|4|8
264,256,16427,5,8
120,256,16927,1,8
120,112,17427,1,8
256,112,17927,1,8
120,112,18427,2,0,B|120:184,1,70,0|8
120,248,18927,1,0
256,248,19427,2,0,B|312:280|320:248,4,70,0|8|0|8|0
392,248,20927,5,0
392,104,21427,1,8
272,104,21927,1,0
272,176,22177,1,8
200,176,22427,1,0
200,104,22677,1,8
128,104,22927,1,0
128,176,23177,1,8
200,176,23427,1,0
128,176,23677,1,4
200,176,23927,1,4
128,176,24177,1,4
128,248,24427,6,0,B|168:296|208:224,3,70,0|8|0|0
200,184,25427,1,0
336,184,25927,1,0
272,80,26427,5,8
200,80,26677,1,8
128,80,26927,2,0,B|128:160,1,70
128,216,27427,5,8
200,216,27677,1,8
272,216,27927,1,0
272,288,28177,1,0
200,288,28427,1,8
128,288,28677,1,8
128,216,28927,5,0
200,216,29177,1,0
272,216,29427,1,4
200,216,29677,1,8
272,216,29927,1,8
344,216,30177,1,0
416,216,30427,5,8
416,144,30677,1,8
344,144,30927,1,0
416,144,31177,1,0
416,216,31427,1,8
416,144,31677,1,8
416,72,31927,2,0,B|360:40|328:80,2,70,0|0|4
272,72,32927,5,0
128,72,33427,1,0
128,208,33927,1,2
200,208,34177,1,8
56,208,34677,1,0
56,64,35177,2,0,B|128:64,2,70,0|8|0
192,64,36177,5,0
264,64,36427,1,0
264,200,36927,1,4
400,200,37427,1,4
400,336,37927,1,4
264,336,38427,1,4
264,192,38927,1,8
264,120,39177,1,4
120,120,39677,5,0
120,152,39802,1,0
120,184,39927,1,0
120,216,40052,1,0
120,248,40177,1,4
128,280,40302,1,0
144,312,40427,6,8,B|184:320|240:296,3,70,0|8|8|0
240,240,41427,1,8
312,120,41927,1,8
384,240,42427,2,8,B|384:136,1,70
384,96,42927,1,4
312,96,43177,1,12
168,96,43677,5,0
312,96,44177,1,8
312,168,44427,1,8
240,48,44927,1,0
96,48,45427,1,0
96,184,45927,1,0
168,184,46177,1,0
240,184,46427,1,0
312,184,46677,5,8
240,184,46927,1,8
168,184,47177,1,8
80,104,47927,6,0,B|104:40|160:64,2,70,0|8|0
80,240,48927,1,0
152,240,49177,1,4
432,104,49927,6,0,B|408:40|352:64,2,70,0|8|0
432,240,50927,1,0
360,240,51177,1,4
336,64,51927,5,0
264,64,52177,1,0
192,64,52427,1,0
120,64,52677,1,0
192,64,52927,1,0
264,64,53177,1,0
336,64,53427,5,0
264,64,53677,1,0
192,64,53927,1,0
120,64,54177,1,0
120,136,54427,1,0
192,136,54677,1,0
192,208,54927,1,0
120,208,55177,2,2,B|96:88|240:64,1,210,2|4
336,280,61177,6,0,B|384:240|400:232,1,70
456,152,61802,1,2
368,88,62177,1,2
248,160,62677,2,2,B|320:160,1,70
456,152,63427,1,2
384,152,63677,2,2,B|480:152,1,70
384,152,64177,2,6,B|384:80,1,70
256,40,64927,5,0
184,40,65177,1,8
184,112,65427,1,0
184,184,65677,1,0
256,184,65927,2,4,B|328:184,1,70,4|4
408,184,66427,6,8,B|408:288,1,70,8|8
408,320,66927,2,0,B|304:320,1,70
264,320,67427,2,0,B|176:320,1,70,8|0
120,320,67927,2,4,B|120:240,1,70
120,176,68427,6,0,B|152:136|184:136,4,70,0|0|0|0|0
32,288,69927,1,0
32,144,70427,2,0,B|104:144,7,70,0|0|0|0|4|4|4|0
168,144,72427,5,0
240,144,72677,1,0
312,144,72927,1,0
240,144,73177,1,0
312,144,73427,1,0
384,144,73677,1,0
384,216,73927,1,0
312,216,74177,1,0
240,216,74427,1,0
208,216,74552,1,0
136,216,74802,1,0
96,216,74927,1,0
24,216,75177,1,0
24,216,75302,1,0
24,216,75427,5,0
24,144,75677,1,0
96,144,75927,1,0
168,144,76177,1,0
240,144,76427,1,0
312,144,76677,1,0
384,144,76927,1,0
312,144,77177,1,0
240,144,77427,1,0
168,144,77677,1,0
96,144,77927,5,0
24,144,78177,1,0
24,72,78427,1,0
96,72,78677,1,0
168,72,78927,1,0
240,72,79177,1,8
240,72,79302,1,0
240,72,79427,1,0
384,72,79677,5,8
384,72,79927,1,8
384,144,80177,5,4
312,144,80427,1,0
240,144,80677,1,0
168,144,80927,1,0
96,144,81177,1,0
24,144,81427,1,0
96,144,81677,1,0
24,144,81927,5,0
96,144,82177,1,0
168,144,82427,2,0,L|240:144,1,70
304,144,82927,1,0
336,144,83052,1,0
368,144,83177,1,0
368,176,83302,1,0
336,176,83427,1,0
256,192,83677,12,0,84677
256,192,84927,12,0,85677
368,80,85927,5,0
296,80,86177,1,0
224,80,86427,1,0
152,80,86677,1,0
152,152,86927,1,0
152,184,87052,1,0
152,216,87177,1,0
152,248,87302,1,0
152,280,87427,1,0
224,280,87677,2,2,L|360:224|360:216|344:176|320:144,1,210,2|4
280,288,88927,5,4
416,288,89427,1,4
416,144,89927,1,0
384,144,90052,1,0
352,144,90177,2,0,L|280:144,1,70
208,144,90677,5,0
136,144,90927,1,0
136,280,91427,1,0
272,304,91927,5,0
200,304,92177,1,0
272,304,92427,1,0
272,232,92677,1,0
272,160,92927,1,0
272,88,93177,1,8
304,88,93302,1,4
376,88,93552,1,8
408,88,93677,1,4
408,160,93927,1,0
408,232,94177,5,0
200,336,94677,1,0
408,336,95177,1,4
280,168,95677,2,4,L|384:168,1,70,4|4
488,168,96427,6,0,L|488:240,3,70
416,240,97427,1,0
336,120,97927,1,0
192,120,98427,1,0
192,256,98927,2,0,L|224:296|264:264,1,70,0|4
88,256,99677,5,0
88,184,99927,1,0
88,112,100177,2,0,L|160:112,1,70
224,112,100677,1,0
360,112,101177,1,0
360,248,101677,1,0
216,248,102177,2,0,B|144:248|112:240|104:184,1,140
104,120,102927,1,0
232,64,103427,1,0
232,208,103927,5,0
272,152,104177,1,0
312,208,104427,2,2,B|408:224|432:232|472:152,1,210,8|4
408,128,105427,2,0,L|336:128,1,70
280,208,105927,5,0
240,152,106177,1,0
200,208,106427,2,2,B|104:224|80:232|40:152,1,210,8|4
104,128,107427,2,0,L|176:128,1,70
240,152,107927,5,0
288,200,108177,1,0
352,224,108427,1,0
352,224,108552,1,0
352,224,108677,2,6,B|408:200|376:144,1,70,4|0
384,96,109177,5,0
312,96,109427,1,0
240,96,109677,1,0
168,96,109927,2,0,B|160:160|224:168,1,70,0|8
192,224,110427,1,0
48,224,110927,1,0
48,80,111427,1,0
120,80,111677,1,0
192,80,111927,1,0
192,112,112052,1,0
224,112,112177,1,0
224,80,112302,1,0
256,80,112427,5,0
328,208,112927,1,0
184,208,113427,1,0
256,328,113927,1,0
376,256,114427,2,8,B|376:360,1,70
304,328,114927,1,4
304,256,115177,2,0,C|304:152,2,70
304,112,116177,5,0
304,184,116427,1,4
304,320,116927,2,0,C|224:320,1,70
160,320,117427,1,4
104,200,117927,1,0
176,200,118177,1,0
248,200,118427,1,0
320,200,118677,1,8
248,200,118927,1,8
176,200,119177,2,8,B|96:200,1,70
96,304,119927,6,8,B|72:256|104:216,1,70
160,232,120427,1,0
160,232,120552,1,0
160,232,120677,1,0
160,232,120802,1,0
160,232,120927,2,2,B|216:232|200:112,1,140,0|4
416,304,121927,6,8,B|440:256|408:216,1,70
352,232,122427,1,0
352,232,122552,1,0
352,232,122677,1,0
352,232,122802,1,0
352,232,122927,2,2,B|296:232|312:112,1,140,0|4
184,56,123927,5,0
128,104,124177,1,8
184,144,124427,1,0
120,176,124677,1,8
184,216,124927,1,0
120,256,125177,1,8
184,288,125427,1,0
248,256,125677,1,8
304,296,125927,1,0
352,248,126177,1,8
392,304,126427,1,0
440,256,126677,1,8
408,192,126927,1,8
336,192,127177,2,10,B|264:248|272:304|456:376,1,280
144,264,128927,5,0
144,264,129052,1,0
144,264,129177,2,0,B|176:272|192:184,1,70
328,184,129927,1,0
328,184,130052,1,0
328,184,130177,1,0
328,112,130427,1,4
232,208,130927,2,0,B|200:152|256:72,1,140
112,80,131927,1,0
112,152,132177,1,0
112,288,132677,1,0
256,248,136427,6,0,B|184:208,1,70
152,152,136927,2,0,B|200:72,1,70
248,48,137427,2,0,B|336:88,1,70
352,136,137927,2,0,B|304:216,1,70
248,200,138427,2,8,B|248:96,1,70
248,48,138927,1,4
248,128,139177,2,4,C|248:296,1,140
104,232,140177,5,0
104,160,140427,1,0
224,88,140927,2,0,C|304:88,1,70
360,88,141427,1,0
400,224,141927,1,0
328,224,142177,1,0
256,224,142427,1,0
184,224,142677,1,8
256,224,142927,1,8
328,224,143177,2,8,B|408:224,3,70
296,128,144427,6,0,B|216:72|208:96,1,70
168,80,144927,1,0
112,120,145177,2,0,B|80:176|80:208,1,70
80,256,145677,1,0
152,256,145927,1,0
224,256,146177,2,0,B|280:232|264:184|264:176,3,70
40,32,147427,5,0
320,32,147927,1,0
320,312,148427,2,0,B|184:304|192:296|192:296|160:272,1,140
120,256,149177,5,0
120,184,149427,1,0
120,112,149677,1,0
120,40,149927,2,0,B|48:40,1,70
192,40,150677,5,0
256,40,150927,2,0,B|256:136,1,70
256,176,151427,1,0
256,248,151677,1,0
112,248,152177,2,0,B|176:184|192:168|256:192,1,140
296,184,152927,5,0
368,184,153177,1,0
368,112,153427,2,0,B|304:40|304:72,2,70
88,96,154427,5,0
256,320,154927,1,0
424,96,155427,1,0
256,320,155927,1,0
88,96,156427,6,0,B|160:96,3,70
232,96,157427,2,0,B|232:192,1,70,0|0
232,232,157927,2,0,B|248:296|304:240,8,70
232,160,160177,6,0,B|280:80|304:128,1,70
464,312,160927,1,4
280,112,161427,1,0
464,312,161927,1,4
280,112,162427,2,0,B|224:80|200:80,4,70
280,184,163677,6,0,B|280:288,1,70
208,256,164177,2,0,B|160:248|160:200,2,70
280,256,164927,1,0
352,256,165177,2,0,B|408:248|408:200,2,70
280,256,165927,6,0,B|280:184,1,70
280,112,166427,2,0,B|272:64|232:72,1,70
160,72,166927,1,0
88,72,167177,1,0
88,144,167427,1,0
88,144,167552,1,0
88,144,167677,1,0
88,144,167802,1,0
88,144,167927,1,0
88,216,168177,6,0,B|152:280|176:256,1,70
280,264,168927,1,0
416,264,169427,1,0
280,264,169927,1,0
208,264,170177,1,0
136,264,170427,1,0
136,192,170677,1,0
136,48,171177,1,0
272,48,171677,6,0,B|368:48,1,70
408,48,172177,2,0,B|312:48,1,70
336,120,172677,1,0
336,192,172927,1,0
264,192,173177,2,0,B|176:192,2,70
336,192,173927,6,0,B|408:192,1,70
408,264,174427,1,0
336,264,174677,1,0
304,264,174802,1,0
272,264,174927,1,0
200,264,175177,1,0
168,264,175302,1,0
136,264,175427,1,0
136,192,175677,1,0
136,160,175802,1,0
136,128,175927,1,0
136,96,176052,1,0
136,64,176177,1,0
168,64,176302,1,0
200,64,176427,6,0,B|272:64,3,70
320,72,177427,2,0,B|416:88|408:88,3,70,0|4|0|4
392,352,178677,5,0
128,352,179177,1,0
128,216,179427,2,0,B|216:216,1,70,0|4
392,216,179927,2,0,B|392:120,2,70
256,216,180927,5,0
184,216,181177,1,0
184,144,181427,2,0,B|80:144,1,70
48,144,181927,1,0
112,144,182177,2,0,B|256:144,1,140
320,144,182927,2,0,B|360:160|376:216,8,70,0|8|0|8|0|8|0|8|0
96,96,185677,5,0
152,224,185927,1,0
208,96,186177,1,4
416,96,186927,5,0
360,224,187177,1,0
304,96,187427,1,4
160,96,187927,5,8
160,168,188177,1,8
256,192,188427,12,0,190177
112,192,190677,6,0,B|184:128,1,70,8|4
272,56,191177,2,0,B|344:120,1,70,8|4
232,208,191677,2,0,B|160:272,1,70,8|4
256,192,192177,12,0,193677
112,80,193927,6,0,B|184:80,1,70
248,80,194427,1,0
320,80,194677,1,0
320,152,194927,2,0,B|232:152,1,70
176,152,195427,1,0
104,152,195677,1,0
104,224,195927,5,4
240,224,196427,2,4,B|328:208|320:224,2,70
312,216,197177,6,4,B|384:224|392:256,2,70
240,216,197927,1,0
168,216,198177,1,0
240,216,198427,1,0
168,216,198677,1,0
96,216,198927,1,0
24,216,199177,1,0
24,144,199427,2,0,B|48:72|88:72,1,70
200,80,200177,2,0,B|288:80,1,70
336,296,200927,6,0,B|280:328,4,70
336,80,202427,1,8
120,80,202927,1,8
120,288,203427,1,8
336,288,203927,5,4
328,144,204427,2,0,B|304:112|256:112,2,70,0|0|0
328,216,205177,2,0,B|328:288|320:296|288:280,1,70,0|8
248,288,205677,1,0
176,288,205927,1,8
104,288,206177,1,0
104,216,206427,1,8
176,216,206677,2,0,B|168:136|216:136,2,70,0|8|0
224,272,207427,2,0,B|272:280|304:232,1,70,8|4
416,272,208177,5,0
416,200,208427,2,0,B|416:104,2,70
344,200,209177,1,0
344,128,209427,2,0,B|344:56,2,70
272,128,210177,1,0
272,200,210427,2,0,B|272:304,2,70
200,200,211177,1,0
200,272,211427,2,0,B|200:344,3,70
272,344,212427,6,0,B|368:344,2,70
272,200,213427,1,0
128,200,213927,1,0
128,128,214177,1,0
200,128,214427,2,0,B|256:120|272:144,2,70
200,200,215177,2,0,B|224:248|328:192,1,140
72,312,216177,5,0
72,168,216427,1,0
352,168,216927,1,0
72,168,217427,1,0
208,168,217927,6,0,B|288:168,1,70,0|0
416,168,218677,2,0,B|440:232|424:256,4,70
256,192,220427,12,0,225177
