osu file format v9

[General]
AudioFilename: Fall Out Boy - Dance, Dance.mp3
AudioLeadIn: 0
PreviewTime: 39826
Countdown: 0
SampleSet: Soft
StackLeniency: 0.7
Mode: 0
LetterboxInBreaks: 1
EpilepsyWarning: 1

[Editor]
Bookmarks: 40874
DistanceSpacing: 1.3
BeatDivisor: 4
GridSize: 4

[Metadata]
Title:Dance, Dance
Artist:Fall Out Boy
Creator:Katsuri
Version:Insane
Source:
Tags:dance dance hyguys fob

[Difficulty]
HPDrainRate:7
CircleSize:4
OverallDifficulty:7
ApproachRate:9
SliderMultiplier:1.4
SliderTickRate:2

[Events]
//Background and Video events
0,0,"wallpaper2.jpg"
//Break Periods
2,56838,64423
2,81991,89576
//Storyboard Layer 0 (Background)
Sprite,Background,Centre,"colours.png",320,240 L,39858,64 F,0,0,262,0.9,0 L,90163,2 F,0,0,131,0.7,0 L,89608,4 F,0,0,131,0.7,0 L,90132,64 F,0,0,262,0.7,0 F,0,1,,0 F,0,37730,39695,0,0.4993999 F,0,39695,39826,0.4993999,0.9
//Storyboard Layer 1 (Fail)
//Storyboard Layer 2 (Pass)
//Storyboard Layer 3 (Foreground)
Sprite,Foreground,Centre,"fog.png",320,240 L,39826,5 M,0,0,3144,400,229,243,220 S,0,1,,2 F,0,38778,39826,0,0.37 F,0,39826,55546,0.37 F,0,55546,56594,0.37 F,0,56594,57642,0.37,0
//Storyboard Sound Samples
//Background Colour Transformations
3,100,163,162,255

[TimingPoints]
45,262.008733624454,4,2,1,100,1,0
29389,-100,4,1,0,100,0,0
33582,-100,4,1,0,40,0,0
33713,-100,4,1,0,50,0,0
33975,-100,4,1,0,60,0,0
34237,-100,4,1,0,70,0,0
34499,-100,4,1,0,80,0,0
35154,-100,4,1,0,90,0,0
35678,-100,4,1,0,100,0,0
39576,-100,4,1,0,100,0,0
39870,-100,4,1,2,100,0,1
56638,-100,4,1,0,100,0,0
64991,-100,4,2,0,100,0,0
66694,-100,4,1,0,69,0,0
67250,-100,4,2,1,100,0,0
90078,-100,4,1,0,100,0,0
90176,-100,4,1,2,100,0,1
106944,-100,4,1,0,100,0,0

[Colours]
Combo1 : 255,0,0
Combo2 : 255,0,128
Combo3 : 0,255,255
Combo4 : 0,255,0
Combo5 : 255,255,0

[HitObjects]
456,80,12621,2,0,B|392:56|388:104|316:72,1,140,4|8
244,124,13014,1,2
168,72,13145,2,0,B|132:84|108:112,1,70,0|2
24,140,13407,1,8
16,232,13538,1,2
64,308,13669,6,0,B|136:284|200:320,1,140,0|8
288,344,14062,1,2
444,248,14324,1,2
412,164,14455,1,8
484,108,14586,1,2
484,108,14717,6,0,B|436:52|356:72,1,140,4|8
284,124,15110,2,0,B|248:128|216:112,1,70,2|0
156,44,15372,1,2
64,56,15503,1,8
28,140,15634,1,0
60,224,15765,6,0,B|24:248|24:284,2,70,0|2|8
144,264,16158,1,2
212,324,16289,2,0,B|292:343|351:323,1,140,0|8
440,348,16682,1,2
472,264,16813,6,0,B|484:196|484:124,1,140,4|8
416,64,17206,1,2
324,72,17337,2,0,B|289:72|256:84,1,70,0|2
128,112,17599,2,0,B|156:123|196:127,1,70,8|2
100,44,17861,6,0,B|32:56|12:148,1,140,0|8
64,220,18254,1,2
100,304,18385,2,0,B|144:312|168:340,1,70,0|2
252,312,18647,1,8
336,344,18778,1,2
408,287,18909,6,0,B|404:216|423:149,1,140,4|8
488,88,19302,1,2
432,16,19433,1,0
364,76,19564,2,0,B|296:88,1,70,2|8
212,52,19826,1,2
124,36,19957,5,8
20,196,20219,1,8
176,300,20481,1,8
276,148,20743,1,8
96,140,21005,6,0,B|84:208|100:208|88:280,1,140,0|8
12,332,21398,1,2
248,344,21660,1,2
308,276,21791,1,8
392,308,21922,1,2
424,224,22053,6,0,B|412:156|436:156|424:84,1,140,0|8
504,40,22446,1,2
336,116,22577,2,0,B|312:92|272:92,1,70,0|2
140,80,22839,2,0,B|172:112|208:104,1,70,8|2
80,28,23101,6,0,B|12:52|4:140,1,140,0|8
76,192,23494,1,2
5,247,23625,2,0,B|12:332|80:356,1,140,0|8
152,300,24018,1,0
284,264,24149,6,0,B|248:248|217:269,1,70,0|2
201,143,24411,2,0,B|168:168|176:204,1,70,8|2
332,112,24673,2,0,B|301:92|265:101,1,70,0|2
364,248,24935,2,0,B|356:215|368:179,1,70,8|2
436,120,25197,6,0,B|472:180|464:256,1,140,0|8
412,328,25590,1,2
320,323,25721,2,0,B|296:300|253:311,1,70,0|2
168,340,25983,1,8
92,292,26114,1,2
160,232,26245,6,0,B|140:164|172:164|156:92,1,140,0|8
72,128,26638,1,2
92,40,26769,1,0
180,16,26900,1,2
232,88,27031,1,8
412,56,27293,5,4
480,116,27424,1,2
404,168,27555,1,8
476,336,27817,2,0,B|464:304|472:268,2,70,0|2|8
340,212,28341,5,8
240,364,28603,1,8
160,200,28865,1,8
56,352,29127,1,8
48,192,29389,5,4
156,44,29651,1,8
324,116,29913,2,0,B|396:112,2,70,0|0|8
344,204,30307,1,8
432,228,30438,5,0
304,328,30700,1,8
148,235,30962,2,0,B|112:232|83:254,1,70
32,328,31224,1,8
36,164,31355,1,0
101,98,31486,6,0,B|121:72|156:56,2,70,0|0|8
172,152,31879,1,0
252,192,32010,1,0
341,171,32141,2,0,B|344:132|374:113,1,70,0|8
272,108,32403,1,8
252,192,32534,6,0,B|250:246|260:276|252:332,1,140,0|8
160,336,32927,1,2
336,296,33189,1,2
168,228,33451,1,2
92,276,33582,5,0
164,80,33844,1,8
348,80,34106,1,0
408,252,34368,1,8
256,367,34630,6,0,B|216:304|255:235,1,140,0|8
256,17,35154,2,0,B|296:80|257:149,1,140,0|8
88,84,35678,5,0
28,152,35809,1,0
112,188,35940,2,0,B|184:172|200:84,2,140,8|0|8
92,356,36726,5,6
296,304,36988,1,2
232,104,37250,1,2
28,152,37512,1,2
28,152,37774,1,4
184,148,39870,5,4
144,68,40001,1,2
60,104,40132,1,8
100,188,40263,2,0,B|80:224|84:256,1,70,2|0
133,358,40525,2,0,B|152:328|148:292,1,70,2|8
232,260,40787,1,2
316,296,40918,6,0,B|380:272|456:296,1,140,0|8
492,212,41311,1,0
420,156,41442,2,0,B|404:120|416:88,1,70,0|2
484,3,41704,2,0,B|500:40|488:72,1,70,8|2
328,92,41966,6,0,B|260:68|260:104|188:84,1,140,4|8
108,44,42359,1,2
44,108,42490,2,0,B|32:180,2,70,0|2|8
220,148,43014,5,8
188,328,43276,1,8
8,292,43538,1,8
44,108,43800,1,8
176,232,44062,6,0,B|248:220|248:248|316:232,1,140,0|8
449,281,44455,2,0,B|412:288|380:272,1,70,2|0
416,188,44717,1,2
484,128,44848,1,8
416,68,44979,2,0,B|376:72|348:92,1,70,0|2
248,104,45241,1,0
160,44,45372,2,0,B|88:37|88:61|21:47,2,140,2|2|2
296,192,46158,6,0,B|304:232|296:264,1,70,0|2
216,261,46420,2,0,B|208:232|216:192,1,70,8|2
368,156,46682,2,0,B|384:224|368:296,1,140,0|8
144,294,47206,6,0,B|128:224|144:156,1,140,0|8
208,92,47599,1,2
300,92,47730,1,0
404,80,47861,2,0,B|444:96|472:88,1,70,2|8
500,188,48123,1,0
464,272,48254,6,0,B|392:264|388:292|324:284,1,140,0|8
244,244,48647,1,0
164,288,48778,2,0,B|140:356,1,70
52,336,49040,2,0,B|76:268,1,70,8|0
40,188,49302,6,0,B|28:120|56:48,1,140,0|8
140,24,49695,1,0
140,24,49826,2,0,B|176:20|208:40,1,70
264,112,50088,1,8
352,128,50219,1,0
428,76,50350,6,0,B|468:212,1,140,0|8
256,352,50874,2,0,B|216:216,1,140,0|8
428,76,51398,2,0,B|468:212,1,140,0|8
256,352,51922,2,0,B|296:216,1,140,0|8
116,188,52446,6,0,B|56:232|68:312,1,140,0|8
152,344,52839,1,0
212,276,52970,2,0,B|228:244|212:208,1,70
180,76,53232,2,0,B|167:108|179:144,1,70,8|0
256,92,53494,1,2
320,264,53756,1,2
492,204,54018,1,2
428,32,54280,1,2
256,192,54804,12,0,56638
256,44,65023,5,4
352,332,66857,1,4
160,332,67119,5,4
84,283,67250,2,0,B|72:250|86:215,1,70,2|8
144,99,67512,2,0,B|156:136|144:168,1,70,2|0
60,132,67774,1,0
60,40,67905,1,8
148,16,68036,1,2
229,55,68167,6,8,B|300:36|300:68|367:49,1,140,0|8
480,192,68691,2,8,B|409:211|409:179|342:198,1,140,0|8
208,324,69215,5,4
148,256,69346,1,2
64,288,69477,1,8
28,204,69608,2,0,B|16:168|28:136,1,70,2|0
97,36,69870,2,0,B|112:68|96:104,1,70,2|8
12,72,70132,1,0
188,76,70263,6,0,B|256:64|260:84|336:68,1,140,0|8
416,84,70656,1,2
424,176,70787,2,0,B|412:216|416:245,2,70,0|2|8
492,240,71180,2,2,B|496:280|486:308,1,70
412,360,71442,5,2
320,340,71573,2,0,B|248:356|180:328,1,140,8|0
120,264,71966,1,2
28,264,72097,1,8
52,84,72359,5,8
232,100,72621,1,8
216,280,72883,1,8
68,176,73145,1,8
156,148,73276,1,8
236,192,73407,6,0,B|308:184|304:204|376:196,1,140,4|8
484,143,73800,2,2,B|456:124|416:136,1,70,2|0
376,56,74062,2,0,B|340:64|300:36,1,70,2|8
224,76,74324,1,0
140,44,74455,6,0,B|84:172,1,140,0|8
80,356,74979,2,0,B|140:228,1,140,0|8
228,212,75372,1,2
316,228,75503,6,0,B|308:264|312:300,1,70,0|2
392,208,75765,2,0,B|400:172|392:136,1,70,8|2
460,76,76027,1,0
376,36,76158,1,2
316,104,76289,2,0,B|248:100,1,70,8|2
188,28,76551,6,0,B|120:56|52:27,1,140,0|8
8,112,76944,1,2
60,188,77075,2,0,B|41:221|44:255,2,70,0|2|8
148,212,77468,1,2
200,288,77599,6,0,B|168:312|124:308,1,70,0|2
276,280,77861,2,0,B|292:316|280:352,1,70,8|2
344,256,78123,2,0,B|376:276|388:308,1,70,0|2
376,188,78385,2,0,B|420:184|448:200,1,70,8|2
500,128,78647,6,8,B|432:92|352:100,1,140,0|8
12,128,79171,2,8,B|80:92|160:100,1,140,0|8
256,244,79695,6,0,B|268:280|264:312,1,70,0|2
204,180,79957,2,0,B|204:144|216:112,1,70,8|2
304,140,80219,1,0
168,264,80481,1,8
32,144,80743,5,2
176,32,81005,1,2
356,48,81267,1,2
456,200,81529,1,2
456,200,81791,1,4
460,252,90176,6,0,B|392:240|392:268|316:248,1,140,4|8
232,240,90569,1,0
172,308,90700,2,0,B|135:310|104:296,2,70,0|0|8
260,336,91093,6,0,B|328:348|400:332,1,140,0|2
472,144,91486,2,0,B|436:140|408:116,1,70,0|2
208,44,91748,2,0,B|232:80|260:92,1,70,0|2
84,140,92010,2,0,B|76:176|41:191,1,70,0|2
124,256,92272,5,4
228,236,92403,1,0
256,336,92534,1,8
352,296,92665,2,0,B|420:276|420:308|496:280,1,140
492,176,93058,1,8
448,80,93189,1,0
348,116,93320,5,2
396,368,93582,1,2
256,212,93844,1,2
116,368,94106,1,2
200,144,94368,6,0,B|173:110|111:115|77:80,1,140,0|8
156,12,94761,1,0
256,40,94892,1,0
296,136,95023,1,0
392,176,95154,2,0,B|428:168|432:180|464:172,1,70,8|0
480,276,95416,6,0,B|444:340|358:313,1,140,0|8
300,224,95809,1,0
260,320,95940,1,0
156,304,96071,1,0
128,204,96202,1,8
220,152,96333,1,0
308,96,96464,6,2,B|376:68|448:96,2,140
212,52,97119,1,0
108,52,97250,1,8
28,120,97381,1,0
40,224,97512,6,2,B|32:368,2,140
28,120,98167,1,0
120,128,98298,1,8
212,128,98429,1,0
176,228,98560,6,0,B|240:264|264:336,1,140,0|8
364,364,98953,1,0
444,296,99084,2,0,B|447:258|472:232,1,70
463,101,99346,2,0,B|460:140|436:164,1,70,8|0
360,88,99608,6,0,B|316:32|232:48,1,140,0|8
136,92,100001,1,0
76,176,100132,1,0
96,280,100263,2,0,B|80:352,2,70,0|8|0
200,300,100656,6,0,B|328:356,1,140,0|8
428,328,101049,1,0
484,240,101180,2,0,B|352:184,1,140,0|8
308,92,101573,1,0
392,28,101704,2,0,B|460:36|500:116,2,140,0|8|0
184,36,102490,1,4
24,172,102752,6,0,B|32:244|56:240|64:308,1,140,0|8
160,352,103145,1,0
248,292,103276,2,0,B|279:284|279:304|316:293,1,70
451,344,103538,2,0,B|420:352|384:332,1,70,8|0
396,228,103800,1,2
492,40,104062,1,2
284,68,104324,1,2
396,228,104586,1,0
256,192,105110,12,4,106944
