osu file format v9

[General]
AudioFilename: Fall Out Boy - Dance, Dance.mp3
AudioLeadIn: 0
PreviewTime: 39826
Countdown: 0
SampleSet: Normal
StackLeniency: 0.7
Mode: 0
LetterboxInBreaks: 1
EpilepsyWarning: 1

[Editor]
Bookmarks: 18897,40874
DistanceSpacing: 0.8
BeatDivisor: 4
GridSize: 4

[Metadata]
Title:Dance, Dance
Artist:Fall Out Boy
Creator:Katsuri
Version:Hard
Source:
Tags:dance dance hyguys fob

[Difficulty]
HPDrainRate:6
CircleSize:3
OverallDifficulty:6
ApproachRate:6
SliderMultiplier:1.2
SliderTickRate:2

[Events]
//Background and Video events
0,0,"wallpaper2.jpg"
//Break Periods
2,56838,64235
2,81791,89126
//Storyboard Layer 0 (Background)
Sprite,Background,Centre,"colours.png",320,240 L,39858,64 F,0,0,262,0.9,0 L,90163,2 F,0,0,131,0.7,0 L,89608,4 F,0,0,131,0.7,0 L,90132,64 F,0,0,262,0.7,0 F,0,1,,0 F,0,37730,39695,0,0.4993999 F,0,39695,39826,0.4993999,0.9
//Storyboard Layer 1 (Fail)
//Storyboard Layer 2 (Pass)
//Storyboard Layer 3 (Foreground)
Sprite,Foreground,Centre,"fog.png",320,240 L,39826,5 M,0,0,3144,400,229,243,220 S,0,1,,2 F,0,38778,39826,0,0.37 F,0,39826,55546,0.37 F,0,55546,56594,0.37 F,0,56594,57642,0.37,0
//Storyboard Sound Samples
//Background Colour Transformations
3,100,163,162,255

[TimingPoints]
45,262.008733624454,4,2,1,100,1,0
29389,-100,4,1,0,100,0,0
33451,-100,4,1,0,40,0,0
33713,-100,4,1,0,50,0,0
33975,-100,4,1,0,60,0,0
34237,-100,4,1,0,70,0,0
34499,-100,4,1,0,80,0,0
35154,-100,4,1,0,90,0,0
35678,-100,4,1,0,100,0,0
39576,-100,4,1,0,100,0,0
39870,-100,4,1,2,100,0,1
56638,-100,4,1,0,100,0,0
64991,-100,4,2,0,100,0,0
66694,-100,4,1,0,69,0,0
67250,-100,4,2,1,100,0,0
90078,-100,4,1,0,100,0,0
90176,-100,4,1,2,100,0,1
106944,-100,4,1,0,100,0,0

[Colours]
Combo1 : 255,0,0
Combo2 : 255,0,128
Combo3 : 0,255,255
Combo4 : 0,255,0
Combo5 : 255,255,0

[HitObjects]
176,56,12883,1,2
256,112,13145,1,0
336,56,13407,1,2
348,152,13669,2,0,B|328:216|256:236|184:216|164:152,1,240,0|2
336,328,14979,5,2
256,380,15241,1,0
176,328,15503,1,2
164,232,15765,2,0,B|184:168|256:148|328:168|348:232,1,240,0|2
84,120,17075,6,0,B|184:52,2,120,2|0|2
172,292,18123,1,2
256,244,18385,1,0
340,292,18647,1,2
428,252,18909,6,0,B|440:176|348:112|256:160|256:160|164:112|72:176|84:252,1,480,2|2
48,48,21267,5,2
76,140,21529,1,0
112,228,21791,1,2
156,312,22053,2,0,B|272:368|388:312,1,240,0|2
464,48,23363,5,2
436,140,23625,1,0
400,228,23887,1,2
356,312,24149,2,0,B|240:368|124:312,1,240,0|2
256,56,25459,5,0
256,104,25590,1,2
256,152,25721,1,0
168,192,25983,1,8
100,260,26245,1,0
160,336,26507,5,8
256,320,26769,1,0
352,336,27031,1,8
412,260,27293,5,0
344,192,27555,1,8
256,152,27817,1,0
256,104,27948,1,2
256,56,28079,1,8
163,75,28341,6,0,B|100:64|50:102,2,120,2|8|2
348,75,29127,2,0,B|412:64|461:102,1,120,8|4
464,200,29651,5,8
376,236,29913,1,0
376,236,30044,1,0
376,236,30176,1,8
312,308,30438,2,0,B|256:272|200:308,1,120,0|8
136,236,30962,1,0
136,236,31224,1,8
168,148,31486,6,0,B|104:132,2,60,0|0|8
204,120,31879,1,0
252,112,32010,1,0
308,120,32141,1,0
348,144,32272,1,8
312,232,32534,2,0,B|356:280|348:342,1,120,0|8
163,342,33058,2,0,B|156:280|199:232,1,120,0|8
124,172,33582,6,0,B|68:204,2,60,0|2|0
144,128,33975,1,2
184,104,34106,1,0
256,44,34368,1,8
328,104,34630,1,0
388,180,34892,1,8
256,320,35416,5,8
168,356,35678,2,0,B|120:344|120:288|160:248|196:256|196:256|208:208|256:180|304:208|316:256|316:256|352:248|392:288|392:344|344:356,2,480,4|4|4
140,144,39870,6,0,B|256:88|372:144,1,240,4|2
256,300,40918,1,4
64,328,41442,5,8
20,244,41704,1,0
68,160,41966,2,0,B|75:96|44:44,2,120,0|2|0
160,128,42752,2,0,B|188:72|256:40|324:72|352:128,1,240,2|0
352,224,43538,2,0,B|323:280|255:312|187:280|159:224,1,240,2|4
120,36,44586,5,2
392,36,45110,1,2
148,188,45896,5,0
84,260,46158,2,0,B|9:271|5:336,2,120,2|0|2
168,304,46944,2,0,B|180:368|256:396|332:368|344:304,1,240
428,260,47730,2,0,B|503:271|507:336,2,120,2|0|2
420,68,48778,5,2
256,172,49302,1,2
172,128,49564,1,0
88,84,49826,1,0
52,172,50088,6,0,B|12:254|44:366|180:382|255:303,1,360,2|0
192,232,51136,2,0,B|240:176|344:204|344:264|344:324|448:352|496:296,1,360,2|0
476,204,52184,1,2
364,48,52708,5,2
188,128,53232,1,0
204,224,53494,1,2
116,260,53756,1,0
52,188,54018,1,0
96,104,54280,1,2
416,104,54804,1,2
256,192,55066,12,4,56638
312,76,65285,6,0,B|344:132|312:192,1,120,2|0
199,190,65809,2,0,B|168:132|200:76,1,120,2|0
256,260,66595,1,2
16,340,67381,5,8
100,296,67643,1,0
188,340,67905,1,8
176,244,68167,2,0,B|168:184|209:132,1,120,0|8
303,131,68691,2,0,B|344:184|336:243,1,120,0|8
324,340,69215,5,0
416,320,69477,2,8,B|516:240|456:100,1,240
396,16,70263,1,0
304,48,70525,1,8
208,48,70787,1,0
116,16,71049,1,8
54,103,71311,6,8,B|-4:240|96:320,1,240
256,184,72359,1,8
308,264,72621,1,8
308,264,72752,2,0,B|411:283|449:184,1,180,2|8
424,92,73407,5,4
340,44,73669,1,8
256,92,73931,1,0
256,92,74062,1,0
256,92,74193,1,8
172,44,74455,1,0
88,92,74717,1,8
60,280,75241,5,8
88,320,75372,1,0
132,304,75503,2,0,B|140:240|210:226,1,120,0|8
300,226,76027,2,0,B|372:240|380:304,1,120,0|8
424,320,76420,1,0
452,280,76551,1,0
440,184,76813,1,8
56,56,77599,6,0,B|44:176,1,120,0|8
128,224,78123,1,2
207,280,78385,2,0,B|168:340|109:339,2,120,8|0|8
304,280,79171,2,0,B|344:340|402:339,1,120,0|8
404,244,79695,5,2
256,120,80219,1,2
108,244,80743,1,4
372,144,90176,6,0,B|256:88|140:144,1,240,4|2
256,300,91224,1,4
448,328,91748,5,8
492,244,92010,1,0
444,160,92272,2,0,B|437:96|468:44,2,120,0|2|0
352,128,93058,2,0,B|324:72|256:40|188:72|160:128,1,240,2|0
160,224,93844,2,0,B|189:280|257:312|325:280|353:224,1,240,2|4
392,36,94892,5,2
120,36,95416,1,2
364,188,96202,5,0
428,260,96464,2,0,B|503:271|507:336,2,120,2|0|2
344,304,97250,2,0,B|332:368|256:396|180:368|168:304,1,240
84,260,98036,2,0,B|9:271|5:336,2,120,2|0|2
92,68,99084,5,2
256,172,99608,1,2
340,128,99870,1,0
424,84,100132,1,0
460,172,100394,6,0,B|499:254|467:366|331:382|256:303,1,360,2|0
320,232,101442,2,0,B|272:176|168:204|168:264|168:324|64:352|16:296,1,360,2|0
36,204,102490,1,2
148,48,103014,5,2
324,128,103538,1,0
308,224,103800,1,2
396,260,104062,1,0
460,188,104324,1,0
416,104,104586,1,2
96,104,105110,1,2
256,192,105372,12,4,106944
