osu file format v9

[General]
AudioFilename: Fall Out Boy - Dance, Dance.mp3
AudioLeadIn: 0
PreviewTime: 39826
Countdown: 0
SampleSet: Normal
StackLeniency: 0.7
Mode: 0
LetterboxInBreaks: 1
EpilepsyWarning: 1

[Editor]
Bookmarks: 40874
DistanceSpacing: 1
BeatDivisor: 4
GridSize: 4

[Metadata]
Title:Dance, Dance
Artist:Fall Out Boy
Creator:Katsuri
Version:Easy
Source:
Tags:dance dance hyguys fob

[Difficulty]
HPDrainRate:1
CircleSize:3
OverallDifficulty:1
ApproachRate:2
SliderMultiplier:0.800000005960464
SliderTickRate:1

[Events]
//Background and Video events
0,0,"wallpaper2.jpg"
//Break Periods
2,56838,63463
2,81991,88616
//Storyboard Layer 0 (Background)
Sprite,Background,Centre,"colours.png",320,240 L,39858,64 F,0,0,262,0.9,0 L,90163,2 F,0,0,131,0.7,0 L,89608,4 F,0,0,131,0.7,0 L,90132,64 F,0,0,262,0.7,0 F,0,1,,0 F,0,37730,39695,0,0.4993999 F,0,39695,39826,0.4993999,0.9
//Storyboard Layer 1 (Fail)
//Storyboard Layer 2 (Pass)
//Storyboard Layer 3 (Foreground)
Sprite,Foreground,Centre,"fog.png",320,240 L,39826,5 M,0,0,3144,400,229,243,220 S,0,1,,2 F,0,38778,39826,0,0.37 F,0,39826,55546,0.37 F,0,55546,56594,0.37 F,0,56594,57642,0.37,0
//Storyboard Sound Samples
//Background Colour Transformations
3,100,163,162,255

[TimingPoints]
45,262.008733624454,4,2,1,100,1,0
29389,-100,4,1,0,100,0,0
33451,-100,4,1,0,40,0,0
33713,-100,4,1,0,50,0,0
33975,-100,4,1,0,60,0,0
34237,-100,4,1,0,70,0,0
34499,-100,4,1,0,80,0,0
35154,-100,4,1,0,90,0,0
35678,-100,4,1,0,100,0,0
39576,-100,4,1,0,100,0,0
39870,-100,4,1,2,100,0,1
56638,-100,4,1,0,100,0,0
64991,-100,4,2,0,100,0,0
66694,-100,4,1,0,69,0,0
67250,-100,4,2,1,100,0,0
73407,-100,4,1,1,100,0,0
90078,-100,4,1,0,100,0,0
90176,-100,4,1,2,100,0,1
106944,-100,4,1,0,100,0,0

[Colours]
Combo1 : 255,0,0
Combo2 : 255,0,128
Combo3 : 0,255,255
Combo4 : 0,255,0
Combo5 : 255,255,0

[HitObjects]
64,84,12621,2,0,B|140:128|216:84,1,160.000001192093,4|2
360,16,13669,1,0
456,144,14193,1,2
448,300,14717,6,0,B|372:256|296:300,1,160.000001192093,0|2
152,368,15765,1,0
56,240,16289,1,2
28,84,16813,6,0,B|72:64|104:88|104:88|136:112|180:92,1,160.000001192093,0|2
332,92,17861,2,0,B|376:112|408:88|408:88|440:64|484:84,1,160.000001192093,0|2
396,220,18909,2,0,B|336:288|256:308|176:288|116:220,1,320.000002384186
256,144,20481,1,2
112,76,21005,6,0,B|48:104|44:172|108:208|172:244|168:312|104:340,1,320.000002384186,4|0
256,284,22577,1,2
407,339,23101,6,0,B|344:312|340:244|404:208|468:172|464:104|400:76,1,320.000002384186
256,144,24673,1,2
128,48,25197,6,0,B|60:96|60:188,1,160.000001192093,0|2
176,296,26245,2,0,B|216:368,2,80.0000005960464,0|0|2
336,296,27293,2,0,B|296:368,2,80.0000005960464,0|0|2
451,185,28341,2,0,B|452:96|384:48,1,160.000001192093,2|2
256,144,29389,5,4
120,60,29913,1,2
44,200,30438,2,0,B|52:280,1,80.0000005960464,0|2
256,144,31486,5,0
392,60,32010,1,2
468,200,32534,2,0,B|460:280,1,80.0000005960464,0|2
220,304,33582,6,0,B|145:274,1,80.0000005960464
164,196,34106,1,2
176,36,34630,1,2
336,36,35154,1,2
348,196,35678,5,0
366,274,35940,2,0,B|292:304,2,80.0000005960464,2|0|2
444,272,36726,1,2
444,112,37250,1,2
96,280,39870,6,0,B|131:260|173:267,1,80.0000005960464,4|8
338,267,40656,2,0,B|380:260|416:280,2,80.0000005960464,8|0|8
256,132,41704,2,2,B|256:52,2,80.0000005960464,2|0|2
212,284,42752,2,2,B|200:328|256:368|312:328|300:284,2,160.000001192093
148,236,44062,5,4
64,100,44586,1,2
216,56,45110,1,2
256,124,45372,2,0,B|256:204,2,80.0000005960464,8|0|8
296,56,46158,5,2
448,100,46682,1,2
364,236,47206,1,4
308,296,47468,2,8,B|272:320|256:356|256:356|240:320|204:296,1,160.000001192093
148,236,48254,5,4
112,80,48778,1,8
256,148,49302,2,2,B|256:228,2,80.0000005960464
256,68,50088,5,0
416,48,50612,1,2
452,204,51136,1,2
304,268,51660,2,0,B|336:344,2,80.0000005960464,2|0|2
208,268,52446,6,0,B|176:344,2,80.0000005960464,4|0|8
60,204,53494,1,2
96,48,54018,1,2
256,68,54542,1,4
256,192,54804,12,4,56638
256,52,65023,5,4
256,52,67119,5,2
108,116,67643,1,2
176,260,68167,1,2
336,260,68691,1,2
404,116,69215,6,0,B|480:160|476:249,1,160.000001192093,0|2
332,180,70263,2,0,B|256:136|180:180,1,160.000001192093,0|2
35,249,71311,2,0,B|32:160|107:116,1,160.000001192093,0|2
216,256,72359,2,2,B|256:264|296:256,2,80.0000005960464
256,144,73407,5,4
392,60,73931,1,2
468,200,74455,2,0,B|460:280,1,80.0000005960464,0|2
256,144,75503,5,0
120,60,76027,1,2
44,200,76551,2,0,B|52:280,1,80.0000005960464,0|2
280,356,77599,6,2,B|352:316|396:344|440:372|512:332,1,240.000001788139
480,260,78647,1,0
336,192,79171,1,2
176,192,79695,5,0
32,260,80219,1,2
112,120,80743,2,8,B|176:56|256:48|336:56|400:120,1,320.000002384186,2|4
416,280,90176,6,0,B|381:260|339:267,1,80.0000005960464,4|8
174,267,90962,2,0,B|132:260|96:280,2,80.0000005960464,8|0|8
256,132,92010,2,2,B|256:52,2,80.0000005960464,2|0|2
300,284,93058,2,2,B|312:328|256:368|200:328|212:284,2,160.000001192093
364,236,94368,5,4
448,100,94892,1,2
296,56,95416,1,2
256,124,95678,2,0,B|256:204,2,80.0000005960464,8|0|8
216,56,96464,5,2
64,100,96988,1,2
148,236,97512,1,4
204,296,97774,2,8,B|240:320|256:356|256:356|272:320|308:296,1,160.000001192093
364,236,98560,5,4
400,80,99084,1,8
256,148,99608,2,2,B|256:228,2,80.0000005960464,2|2|2
256,68,100394,5,0
96,48,100918,1,2
60,204,101442,1,2
208,268,101966,2,0,B|176:344,2,80.0000005960464,2|0|2
304,268,102752,6,0,B|336:344,2,80.0000005960464,2|0|2
452,204,103800,1,2
416,48,104324,1,2
256,68,104848,1,4
256,192,105110,12,4,106944
