osu file format v8

[General]
AudioFilename: Fall Out Boy - Dance, Dance.mp3
AudioLeadIn: 0
PreviewTime: 39826
Countdown: 0
SampleSet: Normal
StackLeniency: 0.7
Mode: 0
LetterboxInBreaks: 1

[Editor]
Bookmarks: 40874
DistanceSpacing: 0.800000011920929
BeatDivisor: 2
GridSize: 8

[Metadata]
Title:Dance, Dance
Artist:Fall Out Boy
Creator:0_o
Version:Insane
Source:
Tags:dance dance

[Difficulty]
HPDrainRate:5
CircleSize:4
OverallDifficulty:8
ApproachRate:8
SliderMultiplier:2
SliderTickRate:2

[Events]
//Background and Video events
0,0,"wallpaper2.jpg"
//Break Periods
2,36882,39076
2,56794,64360
2,81423,88334
2,107100,114534
//Storyboard Layer 0 (Background)
//Storyboard Layer 1 (Fail)
//Storyboard Layer 2 (Pass)
//Storyboard Layer 3 (Foreground)
//Storyboard Sound Samples
//Background Colour Transformations
3,100,163,162,255

[TimingPoints]
1.0460142970646,262.008733624454,4,2,0,100,1,0
12577,-200,4,2,0,100,0,0
29215,-100,4,1,0,100,0,0
39564,-100,4,1,0,100,0,0
39826,-100,4,1,0,100,0,1
56594,-100,4,1,0,100,0,0
64979,-100,4,2,0,100,0,0
66682,-100,4,1,0,69,0,0
90066,-100,4,1,0,100,0,0
90132,-100,4,1,0,100,0,1
106900,-100,4,1,0,100,0,0

[Colours]
Combo1 : 255,0,0
Combo2 : 255,0,128
Combo3 : 0,255,255
Combo4 : 0,255,0
Combo5 : 255,255,0

[HitObjects]
59,77,12839,1,0
175,47,13101,1,8
272,116,13363,1,2
386,80,13625,2,2,B|501:151|503:246|503:246,2,200,0|2|0
315,176,14935,5,0
354,289,15197,1,8
239,326,15459,1,2
207,209,15721,2,0,B|112:144|96:336|12:205|12:205,1,200,4|4
0,136,16507,1,2
40,48,16769,1,0
141,23,17031,5,8
180,27,17162,1,0
209,54,17293,1,2
241,76,17424,1,0
279,88,17555,1,10
317,84,17686,1,0
354,70,17817,2,0,B|413:124|358:206|358:206,1,100,4|2
344,192,18210,5,0
320,216,18341,2,0,B|272:264|328:328,2,100,0|2|0
359,214,18996,1,0
396,226,19127,1,8
425,253,19258,2,0,B|473:314|406:381|406:381,1,100
397,370,19651,1,2
353,258,19913,2,0,B|303:220|253:260|202:297|143:233|143:233,2,200,4|2|4
396,125,21223,5,8
289,69,21485,1,2
206,155,21747,1,8
90,121,22009,2,0,B|24:180|53:240|53:240,1,100,2|0
100,314,22533,2,2,B|239:341|284:232,1,200,4|2
180,177,23319,5,8
247,77,23581,1,0
363,106,23843,1,8
470,53,24105,2,0,B|555:120|490:255|490:255,1,200,4|4
400,309,24891,1,2
287,266,25153,1,8
394,144,25415,5,2
394,144,25546,1,4
256,72,25808,1,4
320,216,26070,1,2
320,216,26201,1,4
144,184,26463,1,2
72,56,26725,1,8
224,136,26987,1,0
64,224,27249,1,0
76,337,27511,5,8
124,302,27642,1,0
183,294,27773,1,8
241,305,27904,1,0
292,335,28035,1,8
351,337,28166,1,0
407,317,28297,1,12
455,284,28428,1,0
415,113,28691,1,4
241,205,28953,1,4
119,45,29215,1,4
120,48,29346,5,4
288,104,29608,1,8
176,240,29870,1,4
240,288,30001,1,0
320,280,30132,1,10
392,240,30263,1,0
424,168,30394,2,2,B|528:240|480:392|480:392|480:400,2,200,2|10|0
344,64,31049,5,8
312,136,31180,1,0
352,208,31311,2,0,B|368:320|240:360|240:360,1,200,4|8
168,336,31704,1,0
96,304,31835,1,0
64,232,31966,1,2
80,152,32097,2,0,B|120:88|80:24|80:24,2,100,0|8|0
12,193,32490,2,2,B|-76:105|44:-31|44:-31,2,200,2|10|0
136,80,33145,5,8
200,32,33276,1,0
278,51,33407,2,0,B|374:37|356:122|484:149|484:149|492:133,1,200,4|0
502,200,33800,2,0,B|449:310|449:310,1,100,8|0
393,345,34062,1,2
317,320,34193,1,2
284,247,34324,1,8
339,188,34455,1,0
356,109,34586,2,2,B|257:77|150:109,2,200,2|10|0
256,192,35372,12,4,36682
352,288,39826,5,4
144,288,40088,1,0
80,96,40350,6,0,B|168:-32|256:120|320:264|448:64|448:64,2,400,2|4|8
0,224,41660,5,0
136,176,41922,1,4
248,296,42184,1,2
360,176,42446,1,0
163,70,42708,2,4,B|259:-2|360:72|360:72,2,200,4|0|0
436,214,43494,2,0,B|330:153|245:219|153:289|32:187|32:187,1,400,4|4
48,32,44280,1,8
256,32,44542,6,2,B|389:106|256:192|120:272|264:376,2,400,2|6|8
147,107,45852,5,0
351,172,46114,1,4
146,277,46376,1,2
346,343,46638,1,0
488,224,46900,2,0,B|480:115|384:56|384:56,2,200,4|0|4
360,320,47686,5,0
344,320,47752,1,0
328,320,47817,1,0
312,320,47883,1,0
296,320,47948,1,0
280,320,48014,1,0
264,320,48079,1,0
248,320,48145,1,0
232,320,48210,6,0,B|8:318|8:318,1,200,4|8
272,80,48734,2,0,B|496:82|496:82,1,200,4|8
448,312,49258,5,4
256,192,49520,1,8
80,64,49782,1,2
0,248,50044,2,2,B|48:392|208:416|368:312,1,400,6|10
448,200,50830,1,0
360,40,51092,2,0,B|128:40|128:40,1,200,4|0
96,224,51616,5,8
256,136,51878,1,2
400,216,52140,2,0,B|471:125|389:32,1,200,2|4
107,38,52664,2,0,B|25:131|111:241,1,200,2|4
256,80,53188,1,8
448,160,53450,5,2
368,328,53712,1,0
160,328,53974,1,0
56,160,54236,2,0,B|208:128|328:224|480:160|480:160,2,400,4|4|4
256,192,55415,12,0,56594
256,192,65110,12,0,66027
255,192,66551,5,2
312,48,66813,5,0
431,121,67075,1,4
397,256,67337,1,8
257,249,67599,1,0
150,339,67861,1,8
32,263,68123,2,2,B|13:140|179:68|179:68,1,200,2|10
249,163,68647,2,0,B|387:148|406:28|406:28,1,200,4|0
225,35,69171,5,4
96,89,69433,1,8
201,180,69695,1,0
72,235,69957,1,8
158,344,70219,1,2
256,244,70481,1,10
350,347,70743,2,0,B|471:282|473:157|473:157,2,200,0|4|0
359,153,71529,5,8
256,272,71791,2,0,B|255:382,2,100,2|0|8
144,184,72315,1,4
368,240,72577,1,8
368,240,72708,1,4
256,48,72970,1,8
256,48,73101,1,2
464,152,73363,5,4
327,318,73625,1,8
116,269,73887,1,2
63,208,74018,1,0
55,128,74149,1,8
99,52,74280,1,0
176,32,74411,2,2,B|277:104|189:276,2,200,2|10|0
58,176,75066,5,8
97,245,75197,1,0
175,259,75328,2,0,B|296:193|346:352|346:352,1,200,4|0
414,323,75721,1,8
449,251,75852,1,0
435,172,75983,1,2
368,127,76114,1,0
308,180,76245,2,0,B|249:227|209:169|209:169,1,100,10|2
263,113,76507,2,2,B|141:22|46:136|46:136,2,200,2|10|0
355,210,77162,6,0,B|322:256|268:289|268:289,1,100,0|8
209,309,77424,2,0,B|85:304|44:228|44:156|44:156,1,200,4|0
56,117,77817,1,8
120,69,77948,1,0
199,57,78079,1,2
257,111,78210,1,0
258,190,78341,1,10
298,259,78472,1,0
371,291,78603,2,2,B|486:255|505:110|505:110,2,200,2|10|0
264,336,79258,5,12
192,304,79389,1,0
144,240,79520,1,4
408,176,79782,1,10
136,128,80044,1,10
400,64,80306,1,8
400,64,80437,1,2
240,32,80699,2,0,B|176:128|224:320|424:328|424:328,1,400,4|4
64,256,89084,5,0
64,256,89215,1,0
256,336,89608,1,0
256,336,89739,1,0
256,336,89870,1,0
256,336,90001,1,0
256,336,90132,5,4
256,184,90394,1,0
432,96,90656,6,2,B|344:-32|256:120|192:264|64:64|64:64,2,400,2|4|8
440,240,91966,5,0
304,352,92228,1,4
256,200,92490,1,2
344,64,92752,1,0
176,32,93014,2,0,B|56:32|-8:136|-8:136,2,200,4|0|4
368,32,93800,2,8,B|528:64|560:248|504:368|504:368,1,400,4|4
376,200,94586,1,8
256,32,94848,6,2,B|123:106|256:192|392:272|248:376,2,400,2|6|8
352,112,96158,5,0
144,168,96420,1,4
352,280,96682,1,2
144,344,96944,1,0
256,224,97206,2,0,B|256:8|256:8,1,200,4|4
90,57,97730,5,8
21,184,97992,1,0
21,184,98058,1,0
21,184,98123,1,0
21,184,98189,1,0
21,184,98254,1,0
21,184,98320,1,0
21,184,98385,1,0
21,184,98451,1,0
21,184,98516,6,0,B|29:304|144:332|144:332,1,200,4|8
491,200,99040,2,0,B|483:80|368:52|368:52,1,200,4|8
224,336,99564,5,4
360,224,99826,1,8
184,192,100088,1,2
152,24,100350,2,2,B|8:72|-16:232|88:392,1,400,6|10
256,320,101136,1,0
160,176,101398,2,0,B|264:136|392:184|392:184,2,200,4|0|4
256,296,102184,5,2
256,56,102446,1,2
416,176,102708,2,0,B|498:269|412:379,1,200,4|8
96,176,103232,2,0,B|14:269|100:379,1,200,4|8
256,288,103756,5,2
160,152,104018,1,8
352,160,104280,1,0
96,40,104542,2,4,B|232:8|256:112|256:112|272:-8|424:48|424:48,2,400,4|4|4
72,296,105852,2,2,B|144:352|216:400|344:376|440:296|440:296,2,400,2|2|4
16,48,115284,6,0,B|32:152|112:224|248:256|344:184,1,400,4|0
384,88,116070,1,0
488,136,116332,2,4,B|472:240|392:312|256:344|160:272,1,400,4|0
96,208,117118,1,0
69,102,117380,2,4,B|255:-32|445:100|445:100,2,400,4|0|4
