osu file format v5

[General]
AudioFilename: Fall Out Boy - Dance Dance.mp3
AudioLeadIn: 0
PreviewTime: -1
Countdown: 3
SampleSet: Normal
StackLeniency: 0.7
Mode: 0
LetterboxInBreaks: 1

[Metadata]
Title:Dance Dance
Artist:Fall Out Boy
Creator:mtraill0
Version:
Source:
Tags:

[Difficulty]
HPDrainRate:2
CircleSize:4
OverallDifficulty:3
SliderMultiplier:1.4
SliderTickRate:4

[Events]
//Background and Video events
//Break Periods
//Storyboard Layer 0 (Background)
//Storyboard Layer 1 (Failing)
//Storyboard Layer 2 (Passing)
//Storyboard Layer 3 (Foreground)
//Storyboard Sound Samples
//Background Colour Transformations
3,100,64,0,64

[TimingPoints]
0,1000,4,1,0,100,1

[HitObjects]
192,160,2333,1,4
288,160,3166,1,4
224,224,3833,1,4
256,288,4666,1,4
320,288,5333,1,4
352,256,5833,1,4
320,224,6333,1,4
224,160,7333,1,4
160,192,7833,1,4
128,256,8333,1,4
192,288,8833,1,4
256,256,9500,1,4
288,224,10000,1,4
256,192,10333,1,4
96,96,12000,1,4
160,128,12833,1,4
224,160,13500,1,4
288,160,14166,1,4
288,160,19166,1,4
224,192,19833,1,4
224,256,20333,1,4
256,256,20666,1,4
288,256,21000,1,4
320,224,21333,1,4
320,192,21666,1,4
224,160,22500,1,4
192,224,23166,1,4
160,288,23666,1,4
256,320,24500,1,4
352,288,25333,1,4
320,224,26000,1,4
256,224,26666,1,4
192,224,27333,1,4
128,224,27833,1,4
32,192,28666,1,4
96,192,29333,1,4
128,192,29500,1,4
160,192,29666,1,4
192,192,29833,1,4
224,192,30000,1,4
320,96,31166,5,4
288,96,31333,1,4
256,128,31833,1,4
224,160,32333,1,4
192,224,32833,1,4
192,256,33166,1,4
192,256,33333,1,4
192,256,33500,1,4
192,288,33666,1,4
256,320,34333,1,4
320,256,35000,1,4
320,192,35500,1,4
192,224,36500,1,4
160,224,36833,1,4
160,224,37000,1,4
160,224,37166,1,4
160,192,37333,1,4
192,192,37666,1,4
192,192,37833,1,4
288,224,38666,1,4
256,288,39333,1,4
224,288,39666,1,4
192,288,40000,1,4
160,256,40166,1,4
160,224,40500,1,4
192,192,40833,1,4
224,192,41166,1,4
224,192,41333,1,4
320,160,42333,5,4
256,224,43166,1,4
160,224,44000,1,4
128,320,44833,1,4
224,288,45666,1,4
256,256,46166,1,4
288,224,46500,1,4
192,160,47500,1,4
128,192,48333,1,4
128,224,48833,1,4
256,224,50000,1,4
288,224,50166,1,4
320,224,50333,1,4
320,128,51166,1,4
256,128,51666,1,4
192,160,52333,1,4
160,192,52833,1,4
160,224,53166,1,4
288,256,54166,1,4
352,224,54666,1,4
352,128,55500,1,4
320,128,55666,1,4
288,128,55833,1,4
256,128,56166,1,4
256,128,56333,1,4
192,192,57166,1,4
192,224,57500,1,4
192,224,57666,1,4
256,256,58333,1,4
320,256,58833,1,4
352,256,59166,1,4
384,256,59333,1,4
416,256,59500,1,4
448,192,60166,1,4
384,160,60833,1,4
320,160,61500,1,4
288,160,61666,1,4
256,160,62000,1,4
192,192,62500,1,4
160,256,63166,1,4
160,288,63500,1,4
192,288,63666,1,4
224,288,64000,1,4
320,96,66000,5,4
288,96,66166,1,4
256,160,66833,1,4
256,224,67333,1,4
192,256,67833,1,4
128,224,68333,1,4
128,160,69000,1,4
160,128,69500,1,4
224,128,70000,1,4
288,128,70666,1,4
320,192,71166,1,4
256,224,71833,1,4
192,256,72500,1,4
256,288,73166,1,4
320,288,73833,1,4
320,160,75000,5,4
224,160,75666,1,4
224,224,76333,1,4
256,288,77000,1,4
320,256,77666,1,4
352,192,78166,1,4
288,160,78833,1,4
256,160,79000,1,4
224,160,79333,1,4
224,160,79500,1,4
192,160,79666,1,4
160,160,79833,1,4
352,160,81500,5,4
352,160,81666,1,4
352,160,81833,1,4
320,160,82000,1,4
224,224,82833,1,4
192,192,83166,1,4
224,128,83666,1,4
256,96,84000,1,4
288,96,84166,1,4
320,96,84500,1,4
352,96,84666,1,4
384,128,85000,1,4
384,128,85166,1,4
384,160,85500,1,4
384,192,85666,1,4
352,224,86000,1,4
352,224,86166,1,4
320,224,86500,1,4
288,224,86666,1,4
256,224,87000,1,4
224,224,87166,1,4
224,192,87500,1,4
224,160,87666,1,4
224,128,88000,1,4
224,128,88166,1,4
96,192,89500,2,4,B|352:192,3,233.333333333333
192,192,95666,2,4,B|416:192,3,210
224,160,101666,1,4
192,160,102000,1,4
160,192,102333,1,4
160,224,102500,1,4
192,256,102833,1,4
224,256,103166,1,4
256,224,103500,1,4
256,224,103666,1,4
256,192,103833,1,4
224,192,104166,1,4
256,192,105666,12,4,106666
192,192,107500,5,4
224,192,107833,1,4
224,192,108000,1,4
224,192,108166,1,4
160,192,108833,1,4
128,128,109333,1,4
192,96,109833,1,4
224,96,110333,1,4
224,160,110833,1,4
192,192,111333,1,4
160,256,112000,1,4
224,256,112666,1,4
320,128,114000,5,4
256,128,114500,1,4
192,160,115166,1,4
192,224,115666,1,4
256,256,116333,1,4
352,224,117166,1,4
320,160,117666,1,4
288,128,118000,1,4
256,128,118166,1,4
224,128,118333,1,4
160,160,119000,1,4
160,224,119500,1,4
192,256,120000,1,4
224,288,120333,1,4
256,288,120666,1,4
256,288,120833,1,4
288,288,121000,1,4
320,256,121500,1,4
352,192,122000,1,4
320,128,122666,1,4
320,128,122833,1,4
288,128,123000,1,4
256,128,123166,1,4
192,128,123833,1,4
160,160,124333,1,4
128,256,125333,1,4
128,256,125500,1,4
160,256,125666,1,4
192,256,126000,1,4
224,256,126166,1,4
288,256,126666,1,4
352,224,127333,1,4
384,192,127833,1,4
352,128,128333,1,4
288,128,128999,1,4
224,128,129499,1,4
192,128,129833,1,4
192,128,129999,1,4
192,128,130166,1,4
160,128,130333,1,4
128,128,130499,1,4
96,192,131166,1,4
128,256,131833,1,4
192,128,133000,5,4
224,192,133500,1,4
192,256,134166,1,4
224,320,134666,1,4
128,288,135500,1,4
128,224,136000,1,4
192,224,136666,1,4
224,160,137333,1,4
128,128,138166,1,4
128,128,138833,1,4
256,96,140000,1,4
192,160,140833,1,4
256,160,141500,1,4
320,192,142166,1,4
288,224,142666,1,4
224,224,143333,1,4
192,224,143500,1,4
160,224,143666,1,4
160,224,143833,1,4
160,224,144000,1,4
160,256,144166,1,4
