osu file format v14

[General]
AudioFilename: Fall_Out_Boy_-_Alone_Together_Krewella_Remix.mp3
AudioLeadIn: 0
PreviewTime: 68369
Countdown: 0
SampleSet: Normal
StackLeniency: 0.4
Mode: 0
LetterboxInBreaks: 0
WidescreenStoryboard: 0

[Editor]
Bookmarks: 3197,4231,4921,24576,35266,66300,69059,91128,112507,135266,157335,190266
DistanceSpacing: 1.1
BeatDivisor: 4
GridSize: 4
TimelineZoom: 1.6

[Metadata]
Title:Alone Together (Krewella Remix)
TitleUnicode:Alone Together (Krewella Remix)
Artist:Fall Out Boy
ArtistUnicode:Fall Out Boy
Creator:Aia
Version:Easy
Source:
Tags:fob dnb drum and bass natsu grumd kyshiro cbh come[back]home
BeatmapID:934120
BeatmapSetID:290995

[Difficulty]
HPDrainRate:2
CircleSize:2
OverallDifficulty:2.2
ApproachRate:3
SliderMultiplier:0.799999999999999
SliderTickRate:1

[Events]
//Background and Video events
0,0,"BG.jpg",0,0
//Break Periods
2,58225,62102
//Storyboard Layer 0 (Background)
//Storyboard Layer 1 (Fail)
//Storyboard Layer 2 (Pass)
//Storyboard Layer 3 (Foreground)
//Storyboard Sound Samples

[TimingPoints]
94,344.827586206897,4,1,1,100,1,0
3197,-100,4,2,1,60,0,0
12852,-100,4,1,1,65,0,0
19059,-100,4,1,1,75,0,0
23197,-100,4,1,1,85,0,0
35266,-100,4,1,1,85,0,0
35869,-100,4,2,1,50,0,0
35956,-100,4,1,1,85,0,0
36559,-100,4,2,1,50,0,0
36645,-100,4,2,1,85,0,0
37335,-100,4,1,1,85,0,0
38714,-100,4,1,1,70,0,0
39318,-100,4,2,1,50,0,0
39404,-100,4,2,1,70,0,0
40094,-100,4,1,1,70,0,0
41473,-100,4,1,1,70,0,0
42076,-100,4,2,1,50,0,0
42162,-100,4,2,1,70,0,0
42852,-100,4,1,1,70,0,0
46990,-100,4,1,1,70,0,0
47594,-100,4,2,1,50,0,0
47680,-100,4,2,1,70,0,0
48369,-100,4,1,1,70,0,0
49749,-100,4,1,1,70,0,0
50352,-100,4,2,1,50,0,0
50438,-100,4,2,1,70,0,0
51128,-100,4,1,1,70,0,0
52507,-100,4,1,1,70,0,0
53111,-100,4,2,1,50,0,0
53197,-100,4,2,1,70,0,0
53887,-100,4,1,1,70,0,0
58025,-100,4,1,1,60,0,0
68369,-100,4,1,1,70,0,0
68973,-100,4,2,1,50,0,0
69059,-100,4,1,1,80,0,1
88369,-100,4,1,1,80,0,0
89921,-100,4,1,1,40,0,0
90094,-100,4,1,1,45,0,0
90266,-100,4,1,1,50,0,0
90438,-100,4,1,1,55,0,0
90611,-100,4,1,1,60,0,0
90783,-100,4,1,1,65,0,0
90956,-100,4,1,1,70,0,0
91128,-100,4,2,1,80,0,0
93887,-100,4,1,1,80,0,0
134576,-100,4,1,1,80,0,0
135180,-100,4,2,1,50,0,0
135266,-100,4,1,1,80,0,1
155956,-100,4,1,1,80,0,0
156645,-100,4,1,1,80,0,0
157249,-100,4,2,1,50,0,0
157335,-100,4,1,1,80,0,0

[Colours]
Combo1 : 255,200,34
Combo2 : 123,62,62
Combo3 : 255,83,0
Combo4 : 95,95,95

[HitObjects]
220,80,3197,6,0,P|163:63|104:68,2,120,2|2|2,0:0|0:0|0:0,0:0:0:0:
288,137,4576,2,0,L|276:222,1,79.9999999999999,0|2,0:0|0:0,0:0:0:0:
44,344,5956,6,0,P|45:287|82:229,1,120,2|2,0:0|0:0,0:0:0:0:
192,172,6990,2,0,B|292:185|292:185|379:167|379:167|474:181,1,280,2|2,0:0|0:0,0:0:0:0:
392,71,8714,6,0,B|458:80|458:80|512:64,2,120,2|2|2,0:0|0:0|0:0,0:0:0:0:
311,34,10094,2,0,B|276:49|276:49|241:83,1,79.9999999999999,0|2,0:0|0:0,0:0:0:0:
293,339,11473,6,0,B|343:339|343:339|411:313,1,120,2|2,0:0|0:0,0:0:0:0:
300,237,12507,2,0,P|262:240|218:268,1,79.9999999999999,2|2,0:0|0:0,0:0:0:0:
171,329,13197,1,2,0:0:0:0:
90,294,13542,1,2,0:0:0:0:
12,335,13887,6,0,P|8:260|68:208,1,160,0|0,0:0|0:0,0:0:0:0:
153,228,14921,1,8,0:0:0:0:
228,180,15266,2,0,P|236:140|230:69,1,79.9999999999999,0|8,0:0|0:0,0:0:0:0:
176,36,15956,2,0,L|78:49,1,79.9999999999999,0|8,0:0|0:0,0:0:0:0:
32,108,16645,6,0,P|28:183|116:228,1,160,0|0,0:0|0:0,0:0:0:0:
176,204,17680,1,8,0:0:0:0:
256,240,18025,2,0,P|259:284|249:343,1,79.9999999999999,0|8,0:0|0:0,0:0:0:0:
184,372,18714,2,0,L|104:356,1,79.9999999999999,0|8,0:0|0:0,0:0:0:0:
60,280,19404,6,0,B|64:221|64:221|44:108,1,160,2|2,0:0|0:0,0:0:0:0:
80,40,20438,1,10,0:0:0:0:
168,32,20783,2,0,B|197:34|197:34|260:28,1,79.9999999999999,0|8,0:0|0:0,0:0:0:0:
308,92,21473,2,0,B|358:96|358:96|387:94,1,79.9999999999999,0|8,0:0|0:0,0:0:0:0:
464,140,22162,6,0,P|491:215|426:295,1,160,0|0,0:0|0:0,0:0:0:0:
368,272,23197,1,8,0:0:0:0:
308,336,23542,2,0,B|270:338|270:338|203:331,1,79.9999999999999,0|0,0:0|0:0,0:0:0:0:
158,282,24231,2,0,P|121:279|78:282,1,79.9999999999999,8|8,0:0|0:0,0:0:0:0:
8,228,24921,6,0,P|6:154|88:100,1,160,8|0,0:0|0:0,0:0:0:0:
152,120,25956,1,8,0:0:0:0:
236,140,26300,2,0,L|340:116,1,79.9999999999999,0|8,0:0|0:0,0:0:0:0:
396,152,26990,2,0,P|407:193|404:240,1,79.9999999999999,0|8,0:0|0:0,0:0:0:0:
332,276,27680,6,0,B|277:283|277:283|230:278|230:278|160:286,1,160,0|0,0:0|0:0,0:0:0:0:
88,264,28714,1,8,0:0:0:0:
36,192,29059,2,0,P|32:152|36:96,1,79.9999999999999,0|8,0:0|0:0,0:0:0:0:
99,53,29749,1,0,0:0:0:0:
171,101,30094,1,8,0:0:0:0:
214,24,30438,6,0,P|251:66|225:169,1,160,0|0,0:0|0:0,0:0:0:0:
152,197,31473,1,8,0:0:0:0:
100,268,31818,2,0,L|116:368,1,79.9999999999999,0|8,0:0|0:0,0:0:0:0:
196,372,32507,2,0,P|233:357|296:356,1,79.9999999999999,0|8,0:0|0:0,0:0:0:0:
360,368,33197,6,0,B|375:287|375:287|363:211|363:211|378:124,1,240,8|8,0:0|0:0,0:0:0:0:
336,53,34576,2,0,P|256:44|176:105,1,160,8|8,0:0|0:0,0:0:0:0:
137,251,35956,6,0,B|201:262|201:262|317:239,1,160,0|8,0:0|2:0,0:0:0:0:
401,104,37335,6,0,P|335:72|225:92,1,160,0|0,0:0|0:0,0:0:0:0:
196,148,38369,1,0,0:0:0:0:
240,224,38714,2,0,B|185:277|185:277|94:290,1,160,0|8,0:0|2:0,0:0:0:0:
56,120,40094,6,0,P|120:30|240:72,1,240,0|0,0:0|0:0,0:0:0:0:
292,120,41473,2,0,B|356:133|356:133|457:111,1,160,0|8,0:0|2:0,0:0:0:0:
396,280,42852,6,0,P|353:278|286:258,1,79.9999999999999,0|8,0:0|0:0,0:0:0:0:
232,288,43542,2,0,P|192:289|152:299,1,79.9999999999999,0|0,0:0|0:0,0:0:0:0:
66,282,44231,2,0,P|38:218|90:138,1,160,0|8,0:0|0:0,0:0:0:0:
168,156,45266,1,8,0:0:0:0:
236,100,45611,6,0,L|407:91,1,160,8|8,0:0|0:0,0:0:0:0:
468,144,46645,1,8,0:0:0:0:
412,212,46990,2,0,P|343:242|323:332,1,160,0|8,0:0|0:0,0:0:0:0:
152,268,48369,6,0,B|149:231|149:231|155:205|155:205|137:153|139:103,1,160,0|0,0:0|0:0,0:0:0:0:
196,44,49404,1,0,0:0:0:0:
272,84,49749,2,0,P|349:99|440:48,1,160,0|8,0:0|0:0,0:0:0:0:
340,224,51128,6,0,P|259:223|186:266,1,160
136,328,52162,1,0,0:0:0:0:
60,284,52507,2,0,L|44:112,1,160,0|8,0:0|0:0,0:0:0:0:
192,28,53887,2,0,P|268:44|364:24,1,160,0|0,0:0|0:0,0:0:0:0:
432,64,54921,1,0,0:0:0:0:
400,144,55266,6,0,B|384:200|384:200|400:304,1,160,0|8,0:0|0:0,0:0:0:0:
340,368,56300,1,8,0:0:0:0:
264,320,56645,2,0,P|226:317|168:332,1,79.9999999999999,8|8,0:0|0:0,0:0:0:0:
116,268,57335,2,0,P|132:235|141:187,1,79.9999999999999,8|0,0:0|0:0,0:0:0:0:
119,106,58025,1,0,0:0:0:0:
256,192,63542,12,12,67680,0:0:0:0:
112,128,69059,6,0,B|172:114|172:114|294:114,1,160,0|0,0:0|0:0,0:0:0:0:
334,174,70094,2,0,P|305:255|374:325,1,160,10|10,0:0|0:0,0:0:0:0:
394,239,71128,2,0,P|416:204|411:139,1,79.9999999999999,2|10,0:0|0:0,0:0:0:0:
370,92,71818,6,0,B|312:80|312:80|202:91,1,160,0|0,0:0|0:0,0:0:0:0:
132,132,72852,2,0,P|116:184|152:288,1,160,10|10,0:0|0:0,0:0:0:0:
231,307,73887,2,0,L|339:291,1,79.9999999999999,2|10,0:0|0:0,0:0:0:0:
368,229,74576,6,0,B|382:171|382:171|364:67,1,160
286,32,75611,1,10,0:0:0:0:
212,79,75956,2,0,L|124:69,1,79.9999999999999,0|10,0:0|0:0,0:0:0:0:
53,109,76645,2,0,P|47:151|52:192,1,79.9999999999999,2|10,0:0|0:0,0:0:0:0:
123,238,77335,5,8,0:0:0:0:
236,103,78025,1,8,0:0:0:0:
378,206,78714,2,0,P|367:279|282:333,1,160,8|8,0:0|0:0,0:0:0:0:
218,301,79749,1,8,0:0:0:0:
174,224,80094,6,0,B|165:156|165:156|183:56,1,160
259,24,81128,2,0,P|343:26|398:77,1,160,10|10,0:0|0:0,0:0:0:0:
380,160,82162,1,2,0:0:0:0:
296,188,82507,1,10,0:0:0:0:
219,144,82852,6,0,B|162:133|162:133|49:153,1,160,0|0,0:0|0:0,0:0:0:0:
3,217,83887,2,0,P|19:295|101:325,1,160,10|10,0:0|0:0,0:0:0:0:
166,288,84921,2,0,P|209:281|253:287,1,79.9999999999999,2|10,0:0|0:0,0:0:0:0:
306,347,85611,6,0,P|333:287|270:200,1,160,0|0,0:0|0:0,0:0:0:0:
208,178,86645,1,10,0:0:0:0:
235,94,86990,2,0,P|271:77|311:73,1,79.9999999999999,0|10,0:0|0:0,0:0:0:0:
370,139,87680,2,0,P|409:143|446:159,1,79.9999999999999,2|10,0:0|0:0,0:0:0:0:
453,247,88369,6,0,B|390:261|390:261|284:255,1,160,12|12,0:0|0:0,0:0:0:0:
137,175,89749,2,0,P|141:103|212:51,1,160,10|10,0:0|0:0,0:0:0:0:
358,142,91128,6,0,P|358:183|375:244,2,79.9999999999999,0|8|0,0:0|0:0|0:0,0:0:0:0:
393,61,92162,1,8,0:0:0:0:
314,20,92507,2,0,L|209:14,1,79.9999999999999,0|8,0:0|0:0,0:0:0:0:
167,73,93197,2,0,L|57:79,1,79.9999999999999,0|8,0:0|0:0,0:0:0:0:
20,134,93887,6,0,P|12:218|92:262,1,160,4|4,0:0|0:0,0:0:0:0:
148,230,94921,1,8,0:0:0:0:
216,284,95266,2,0,L|308:275,1,79.9999999999999,0|8,0:0|0:0,0:0:0:0:
346,204,95956,2,0,P|343:163|352:104,1,79.9999999999999,0|8,0:0|0:0,0:0:0:0:
312,43,96645,6,0,P|233:35|173:92,1,160,4|0,0:0|0:0,0:0:0:0:
198,170,97680,1,8,0:0:0:0:
142,238,98025,2,0,L|53:227,1,79.9999999999999,0|8,0:0|0:0,0:0:0:0:
14,154,98714,2,0,P|12:114|24:65,1,79.9999999999999,0|8,0:0|0:0,0:0:0:0:
101,41,99404,6,0,B|160:47|160:47|273:33,1,160,12|12,0:0|0:0,0:0:0:0:
404,135,100783,2,0,P|414:214|378:297,1,160,12|0,0:0|0:0,0:0:0:0:
297,284,101818,1,0,0:0:0:0:
247,211,102162,2,0,L|257:109,1,79.9999999999999,4|8,0:0|0:0,0:0:0:0:
223,48,102852,2,0,B|187:40|187:40|126:47,1,79.9999999999999,0|8,0:0|0:0,0:0:0:0:
76,100,103542,6,0,B|69:157|69:157|76:200|76:200|69:268,1,160,0|0,0:0|0:0,0:0:0:0:
131,321,104576,1,8,0:0:0:0:
212,284,104921,6,0,B|296:266|290:297|376:287,1,160,4|4,0:0|0:0,0:0:0:0:
440,233,105956,1,8,0:0:0:0:
385,164,106300,2,0,L|374:74,1,79.9999999999999,0|8,0:0|0:0,0:0:0:0:
311,24,106990,2,0,B|274:33|274:33|226:32,1,79.9999999999999,0|8,0:0|0:0,0:0:0:0:
140,31,107680,6,0,P|171:102|246:122,1,160,4|0,0:0|0:0,0:0:0:0:
309,183,108714,1,8,0:0:0:0:
258,255,109059,2,0,L|168:264,1,79.9999999999999,0|8,0:0|0:0,0:0:0:0:
107,210,109749,2,0,P|95:172|105:111,1,79.9999999999999,0|8,0:0|0:0,0:0:0:0:
165,76,110438,6,0,L|343:62,1,160,12|12,0:0|0:0,0:0:0:0:
451,185,111818,2,0,B|454:224|454:224|449:283,1,79.9999999999999,12|8,0:0|0:0,0:0:0:0:
375,310,112507,2,0,B|335:306|335:306|286:308,1,79.9999999999999,12|8,0:0|0:0,0:0:0:0:
224,254,113197,6,0,P|199:184|247:90,1,160,10|10,0:0|0:0,0:0:0:0:
386,183,114576,2,0,B|390:255|390:255|361:344,1,160,10|10,0:0|0:0,0:0:0:0:
280,370,115611,1,0,0:0:0:0:
212,316,115956,2,0,P|154:291|62:315,1,160,10|10,0:0|0:0,0:0:0:0:
142,156,117335,6,0,P|197:167|298:122,1,160,10|10,0:0|0:0,0:0:0:0:
452,192,118714,2,0,B|421:250|421:250|381:256|323:287,1,160,10|10,0:0|0:0,0:0:0:0:
278,351,119749,1,0,0:0:0:0:
210,293,120094,2,0,L|202:206,1,79.9999999999999,10|2,0:0|0:0,0:0:0:0:
254,142,120783,2,0,L|262:55,1,79.9999999999999,10|2,0:0|0:0,0:0:0:0:
177,34,121473,6,0,P|92:62|60:137,1,160,10|10,0:0|0:0,0:0:0:0:
224,191,122852,2,0,L|417:165,1,160,10|10,0:0|0:0,0:0:0:0:
282,314,124231,6,0,L|106:294,1,160,4|8,0:0|0:0,0:0:0:0:
73,222,125266,1,0,0:0:0:0:
99,137,125611,2,0,P|137:120|200:116,1,79.9999999999999,8|0,0:0|0:0,0:0:0:0:
253,152,126300,2,0,P|292:145|328:129,1,79.9999999999999,8|0,0:0|0:0,0:0:0:0:
416,120,126990,6,0,P|456:189|412:268,1,160,12|8,0:0|0:0,0:0:0:0:
338,262,128025,1,0,0:0:0:0:
266,313,128369,2,0,L|166:304,1,79.9999999999999,8|0,0:0|0:0,0:0:0:0:
187,217,129059,2,0,L|287:208,1,79.9999999999999,8|0,0:0|0:0,0:0:0:0:
256,192,129749,12,0,133887,0:0:0:0:
356,304,135266,6,0,P|256:288|240:228,1,160,0|0,0:0|0:0,0:0:0:0:
277,163,136300,2,0,B|219:145|219:145|113:155,1,160,10|10,0:0|0:0,0:0:0:0:
68,225,137335,2,0,P|64:264|69:304,1,79.9999999999999,2|10,0:0|0:0,0:0:0:0:
152,334,138025,6,0,P|232:345|332:314,1,160,0|0,0:0|0:0,0:0:0:0:
368,264,139059,2,0,B|373:210|373:210|364:164|364:164|376:100,1,160,10|10,0:0|0:0,0:0:0:0:
320,36,140094,2,0,P|279:31|220:37,1,79.9999999999999,2|10,0:0|0:0,0:0:0:0:
176,92,140783,6,0,P|187:164|156:256,1,160,0|0,0:0|0:0,0:0:0:0:
161,334,141818,2,0,B|223:343|223:343|322:330,1,160,10|10,0:0|0:0,0:0:0:0:
380,268,142852,2,0,L|368:172,1,79.9999999999999,2|10,0:0|0:0,0:0:0:0:
311,122,143542,5,8,0:0:0:0:
158,208,144231,1,8,0:0:0:0:
283,331,144921,2,0,B|347:326|347:326|452:292,1,160,8|8,0:0|0:0,0:0:0:0:
476,216,145956,1,8,0:0:0:0:
436,137,146300,6,0,P|370:107|286:131,1,160,0|0,0:0|0:0,0:0:0:0:
237,201,147335,2,0,B|174:212|174:212|72:189,1,160,10|10,0:0|0:0,0:0:0:0:
2,232,148369,2,0,P|-1:274|10:328,1,79.9999999999999,2|10,0:0|0:0,0:0:0:0:
89,335,149059,6,0,B|152:320|152:320|254:336,1,160,0|0,0:0|0:0,0:0:0:0:
327,301,150094,2,0,P|351:250|320:132,1,160,10|10,0:0|0:0,0:0:0:0:
248,131,151128,2,0,L|160:139,1,79.9999999999999,2|10,0:0|0:0,0:0:0:0:
104,199,151818,6,0,B|97:266|97:266|119:365,1,160,0|0,0:0|0:0,0:0:0:0:
204,363,152852,2,0,P|286:351|351:290,1,160,10|10,0:0|0:0,0:0:0:0:
297,226,153887,2,0,B|295:192|295:192|303:132,1,79.9999999999999,2|10,0:0|0:0,0:0:0:0:
279,61,154576,6,0,B|207:83|193:35|98:74,1,160
75,141,155611,1,0,0:0:0:0:
132,208,155956,2,0,P|201:241|303:211,1,160,0|0,0:0|0:0,0:0:0:0:
423,124,157335,6,0,B|421:179|421:179|435:222|435:222|427:289,1,160,4|8,0:0|0:0,0:0:0:0:
266,352,158714,2,0,P|259:312|262:250,1,79.9999999999999,0|0,0:0|0:0,0:0:0:0:
299,194,159404,1,8,0:0:0:0:
244,28,160094,6,0,P|174:64|88:48,1,160,12|8,0:0|0:0,0:0:0:0:
24,212,161473,2,0,B|32:245|32:245|32:300,1,79.9999999999999,0|0,0:0|0:0,0:0:0:0:
104,344,162162,2,0,P|144:346|200:332,1,79.9999999999999,8|0,0:0|0:0,0:0:0:0:
248,280,162852,6,0,B|309:266|309:266|356:282|420:280,1,160,12|8,0:0|0:0,0:0:0:0:
500,128,164231,2,0,P|424:128|372:56,1,160,0|8,0:0|0:0,0:0:0:0:
232,168,165611,6,0,B|176:176|176:176|64:152,1,160,12|8,0:0|0:0,0:0:0:0:
27,80,166645,1,0,0:0:0:0:
108,44,166990,2,0,P|148:43|192:38,1,79.9999999999999
271,67,167680,2,0,P|312:66|350:72,1,79.9999999999999,8|0,0:0|0:0,0:0:0:0:
421,123,168369,6,0,P|433:202|349:264,1,160,12|8,0:0|0:0,0:0:0:0:
224,184,169749,2,0,B|165:174|165:174|61:198,1,160,0|8,0:0|0:0,0:0:0:0:
207,303,171128,6,0,P|288:292|337:219,1,160,12|8,0:0|0:0,0:0:0:0:
312,148,172162,1,0,0:0:0:0:
232,109,172507,2,0,L|124:117,1,79.9999999999999,0|0,0:0|0:0,0:0:0:0:
92,180,173197,2,0,B|86:215|86:215|92:260,1,79.9999999999999,8|0,0:0|0:0,0:0:0:0:
172,296,173887,6,0,B|230:285|230:285|275:302|343:298,1,160,12|8,0:0|0:0,0:0:0:0:
480,208,175266,2,0,P|410:169|388:80,1,160,0|8,0:0|0:0,0:0:0:0:
221,32,176645,6,0,P|239:112|189:192,1,160,12|8,0:0|0:0,0:0:0:0:
118,163,177680,1,0,0:0:0:0:
52,221,178025,2,0,L|60:301,1,79.9999999999999,0|0,0:0|0:0,0:0:0:0:
139,339,178714,2,0,P|181:337|239:310,1,79.9999999999999,8|0,0:0|0:0,0:0:0:0:
248,244,179404,6,0,P|252:158|236:68,1,160,12|8,0:0|0:0,0:0:0:0:
94,182,180783,2,0,P|38:138|88:52,1,160,0|8,0:0|0:0,0:0:0:0:
236,100,182162,6,0,B|295:92|295:92|404:104,1,160,12|8,0:0|0:0,0:0:0:0:
458,163,183197,1,0,0:0:0:0:
416,240,183542,2,0,P|416:288|424:324,1,79.9999999999999,0|0,0:0|0:0,0:0:0:0:
340,352,184231,2,0,B|309:354|309:354|249:347,1,79.9999999999999,8|0,0:0|0:0,0:0:0:0:
196,288,184921,6,0,P|169:223|217:140,1,160,12|8,0:0|0:0,0:0:0:0:
376,100,186300,2,0,P|300:89|260:0,1,160,0|8,0:0|0:0,0:0:0:0:
116,128,187680,6,0,B|128:196|128:196|112:288,1,160,12|8,0:0|0:0,0:0:0:0:
159,359,188714,1,0,0:0:0:0:
239,322,189059,2,0,L|320:315,1,79.9999999999999,0|0,0:0|0:0,0:0:0:0:
396,276,189749,2,0,P|403:216|389:133,1,120,8|0,0:0|0:0,0:0:0:0:
