osu file format v5

[General]
AudioFilename: Falcon Paaawn~ (Iyaaaaahhh Mix).mp3
AudioLeadIn: 0
PreviewTime: -1
Countdown: 3
SampleSet: Normal

[Metadata]
Title:Falcon Paaawn~ (Iyaaaaahhh Mix)
Artist:
Creator:UselessWS
Version:Hard

[Difficulty]
HPDrainRate:3
CircleSize:5
OverallDifficulty:3
SliderMultiplier:1.4
SliderTickRate:1

[Events]
//Background and Video events
//Break Periods
//Storyboard Layer 0 (Background)
//Storyboard Layer 1 (Failing)
//Storyboard Layer 2 (Passing)
//Storyboard Layer 3 (Foreground)
//Storyboard Sound Samples
//Background Colour Transformations
3,100,163,162,255

[TimingPoints]
188,418.860624984542,4,1,0,100

[HitObjects]
128,128,2787,1,0
224,128,3364,1,0
224,288,3942,2,0,B|376:64|344:128,1,140
352,96,4664,1,0
64,64,5386,2,0,B|352:64|480:320|32:352|384:352,1,560
448,352,7308,1,0
448,224,7448,1,0
448,128,7552,1,0
256,64,7841,2,2,B|288:64|352:64,1,70
64,64,8419,2,2,B|160:64,1,70
128,96,8984,2,0,B|320:192|64:288|416:288|384:288|320:352|352:352,1,350
384,352,10240,1,0
448,352,10380,1,0
448,288,10440,5,0
448,224,10729,1,0
448,160,11018,1,0
448,96,11307,1,0
320,64,11740,1,0
384,96,12029,1,0
384,160,12318,1,0
96,128,13040,2,2,B|256:192|224:416|192:416,1,280
160,320,14195,1,0
160,320,14484,1,0
288,320,14917,1,0
128,96,15639,1,0
160,96,15783,1,0
192,96,15928,1,0
256,96,16072,5,0
320,96,16217,1,0
320,160,16361,2,0,B|480:160,1,140
320,224,16939,5,0
384,224,17228,1,0
448,224,17516,1,0
512,224,17805,1,0
320,320,18238,1,0
384,320,18672,1,2
448,320,19249,1,2
512,320,19538,1,2
512,256,19827,1,2
512,192,20116,1,2
256,192,20982,12,2,23140
96,64,23870,5,0
192,96,24448,1,0
256,96,24881,1,0
128,96,25459,1,0
64,96,26036,1,0
224,96,26614,1,0
320,96,26995,1,0
320,96,27204,1,0
320,96,27413,1,0
320,96,27623,1,0
320,96,27769,1,0
96,96,28251,5,0
160,96,28810,1,0
224,96,28949,1,0
352,96,29647,1,0
416,128,30066,1,0
416,192,30206,1,0
416,256,30625,1,0
416,320,30904,2,0,B|128:128|128:192,1,326.666666666667
96,96,32300,1,0
160,96,32579,1,0
224,96,32859,1,0
288,96,33138,1,0
256,192,33696,12,0,37745
96,96,38583,1,0
160,96,39002,1,0
224,96,39142,1,0
288,96,39421,1,0
352,96,39560,1,0
416,96,39840,1,0
480,96,39979,1,0
480,160,40119,1,0
480,224,40677,1,0
480,288,40817,1,0
448,352,40957,1,0
384,352,41375,1,0
320,352,42074,1,0
256,352,42632,1,0
192,352,43330,1,0
96,96,43889,5,2
128,96,44028,1,0
160,96,44168,1,0
192,96,44307,1,0
224,96,44447,1,0
256,96,44587,1,0
288,96,44726,1,0
288,128,44866,1,0
256,160,45006,1,0
224,160,45145,1,0
192,160,45285,1,0
160,160,45424,2,2,B|416:320,1,280
128,64,46541,5,2
160,64,46681,1,0
192,64,46821,1,0
224,64,46960,1,0
256,64,47100,1,0
288,64,47240,1,0
320,64,47379,1,0
352,96,47519,1,0
352,128,47658,1,0
320,160,47798,1,0
288,160,47938,1,0
256,160,48077,1,2
96,64,48775,5,2
128,96,48915,1,0
160,128,49055,1,0
192,128,49194,1,0
224,128,49334,1,0
256,160,49473,1,0
288,192,49613,1,0
320,224,49753,1,0
352,256,49892,1,0
384,256,50032,1,0
416,224,50172,1,0
448,192,50311,1,0
416,160,50451,1,0
384,128,50590,5,0
352,96,50730,1,0
320,96,50870,1,0
288,96,51149,1,0
32,32,51428,2,2,C|480:32|480:320,1,746.666666666667
256,192,53941,12,0,56175
256,192,56594,12,0,58828
96,64,59247,1,2
160,64,59386,1,0
224,96,59526,1,0
288,160,59666,1,0
96,160,60085,1,0
160,224,60224,1,0
224,224,60503,1,0
288,256,60643,1,0
320,288,60783,1,0
352,320,61062,1,0
416,352,61341,1,0
480,352,61620,2,2,L|480:32|32:32,1,746.666666666667
128,96,65390,5,2
192,96,65669,1,4
