osu file format v12

[General]
AudioFilename: Sen no Kiseki # OST.mp3
AudioLeadIn: 0
PreviewTime: -1
Countdown: 1
SampleSet: Normal
StackLeniency: 0.7
Mode: 0
LetterboxInBreaks: 1
WidescreenStoryboard: 0

[Editor]
DistanceSpacing: 1
BeatDivisor: 4
GridSize: 4

[Metadata]
Title:Great Strength
TitleUnicode:Great Strength
Artist:Falcom jdk Band Sound Team
ArtistUnicode:Falcom jdk Band Sound Team
Creator:Francis
Version:Marathon
Source:Sen no Kiseki
Tags:
BeatmapID:341525
BeatmapSetID:136480

[Difficulty]
HPDrainRate:9
CircleSize:4
OverallDifficulty:8
ApproachRate:8
SliderMultiplier:1.4
SliderTickRate:1

[Events]
//Background and Video events
0,0,"maxresdefault.jpg",0,0
//Break Periods
//Storyboard Layer 0 (Background)
//Storyboard Layer 1 (Fail)
//Storyboard Layer 2 (Pass)
//Storyboard Layer 3 (Foreground)
//Storyboard Sound Samples
//Background Colour Transformations
3,100,163,162,255

[TimingPoints]
755,2453.98773006135,4,1,0,100,1,0
5651,1428.57142857143,4,1,0,100,1,0
8512,1411.76470588235,4,1,0,100,1,0
11339,1395.3488372093,4,1,0,100,1,0
14129,1445.78313253012,4,1,0,100,1,0
17020,-200,4,1,0,100,0,0
20881,352.941176470588,4,1,0,100,1,0
27233,-200,4,1,0,100,0,0
27939,-100,4,1,0,100,0,0
33586,-200,4,1,0,100,0,0
34292,-100,4,1,0,100,0,0
34998,-200,4,1,0,100,0,0
36410,-100,4,1,0,100,0,0
39939,-200,4,1,0,100,0,0
40998,-100,4,1,0,100,0,0
46292,-200,4,1,0,100,0,0
59880,-100,4,1,0,100,0,0

[Colours]
Combo1 : 51,51,51
Combo2 : 193,193,193
Combo3 : 129,129,129
Combo4 : 97,97,97

[HitObjects]
72,220,755,2,0,P|80:168|112:124,1,105
264,220,3208,2,0,P|224:252|160:256,1,105
176,68,5651,2,0,P|240:84|268:116,1,105
308,276,7079,2,0,P|244:260|216:228,1,105
408,120,8508,2,0,P|448:180|448:264,1,140
344,316,11335,6,0,P|288:320|240:284,1,105,0|0,0:0|0:0,0:0:0:0:
272,56,12734,2,0,P|308:104|308:164,1,105
156,240,14129,2,0,P|104:236|64:204,1,105
376,144,15574,2,0,P|360:192|312:224,1,105
96,156,17020,2,0,P|136:104|208:88,1,140
408,160,20881,6,0,P|388:200|348:216,1,70
264,236,21233,2,0,L|188:224,1,70
152,128,21586,1,0,0:0:0:0:
320,124,21939,2,0,P|304:176|276:192,1,70
156,296,22292,2,0,P|188:312|292:316,2,140
232,40,23351,6,0,P|228:88|204:120,1,70
104,208,23704,2,0,P|112:152|144:120,1,70
232,40,24057,1,0,0:0:0:0:
340,56,24233,1,0,0:0:0:0:
400,148,24410,2,0,P|408:212|396:240,1,70
220,152,24763,2,0,P|252:184|284:192,1,70
400,148,25116,6,0,P|416:112|380:16,1,140
296,8,25645,1,0,0:0:0:0:
200,52,25822,1,0,0:0:0:0:
276,216,25998,1,0,0:0:0:0:
324,120,26175,1,0,0:0:0:0:
160,208,26351,1,0,0:0:0:0:
156,300,26528,2,0,P|208:312|256:308,1,70
324,276,26880,2,0,L|380:224,1,70
432,64,27233,6,0,P|336:68|304:92,1,140
260,184,28116,1,0,0:0:0:0:
360,204,28292,1,0,0:0:0:0:
304,92,28469,1,0,0:0:0:0:
208,56,28645,2,0,P|164:28|144:4,1,70
52,40,28998,2,0,P|72:76|76:120,1,70
72,248,29351,5,0,0:0:0:0:
240,296,29704,6,0,P|268:260|272:216,1,70
368,136,30057,2,0,P|352:176|356:224,1,70
396,312,30410,1,0,0:0:0:0:
432,188,30586,1,0,0:0:0:0:
256,44,30763,2,0,P|208:80|200:112,1,70
196,112,31116,2,0,P|168:148|76:172,1,140
91,239,31822,6,0,P|78:206|80:172,1,70,0|0,0:0|0:0,0:0:0:0:
228,312,32175,2,0,P|192:260|168:248,1,70
336,268,32528,1,0,0:0:0:0:
392,188,32704,1,0,0:0:0:0:
320,108,32880,2,0,P|276:164|260:240,1,140
92,300,33586,6,0,P|156:280|192:212,1,140
192,144,34469,1,0,0:0:0:0:
188,68,34645,2,0,P|204:32|256:20,1,70
344,56,34998,2,0,L|292:116,1,70
284,232,35704,6,0,L|380:120,1,140
460,80,36586,1,0,0:0:0:0:
448,192,36763,2,0,P|424:240|384:260,1,70
352,288,37116,2,0,P|384:228|364:156,1,140
316,104,37645,1,0,0:0:0:0:
248,68,37822,6,0,P|184:72|160:96,1,70
220,132,38175,2,0,P|164:220|168:276,1,140
192,328,38704,1,0,0:0:0:0:
272,336,38880,2,0,P|304:324|328:288,1,70
392,324,39233,2,0,P|404:272|400:248,1,70
472,240,39586,2,0,P|456:196|416:164,1,70
496,132,39939,6,0,P|444:84|376:68,1,140
320,68,40822,1,0,0:0:0:0:
264,72,40998,2,0,P|220:88|176:176,1,140
176,260,41528,2,0,P|216:248|240:220,1,70
280,168,41880,1,0,0:0:0:0:
348,136,42057,6,0,B|380:164|360:228,1,70
364,232,42410,2,0,P|328:244|228:232,1,140
160,176,42939,2,0,L|104:104,1,70
144,24,43292,2,0,L|196:92,1,70
240,148,43645,1,0,0:0:0:0:
260,232,43822,1,0,0:0:0:0:
240,148,43998,1,0,0:0:0:0:
260,232,44175,6,0,P|228:280|148:272,1,140
116,200,44704,1,0,0:0:0:0:
100,116,44880,2,0,P|120:72|208:64,1,140
264,124,45410,1,0,0:0:0:0:
340,244,45586,1,0,0:0:0:0:
204,208,45763,1,0,0:0:0:0:
352,156,45939,1,0,0:0:0:0:
264,280,46116,1,0,0:0:0:0:
188,128,46292,6,0,P|212:68|280:48,1,140
368,64,47175,1,0,0:0:0:0:
428,128,47351,1,0,0:0:0:0:
412,216,47528,1,0,0:0:0:0:
352,280,47704,2,0,P|316:240|308:180,1,105
296,100,48410,6,0,P|240:124|208:168,1,105
180,240,49116,1,0,0:0:0:0:
284,188,49292,1,0,0:0:0:0:
208,60,49469,2,0,P|168:96|156:116,1,70
128,248,49998,1,0,0:0:0:0:
192,316,50175,1,0,0:0:0:0:
292,96,50351,1,0,0:0:0:0:
220,152,50528,2,0,P|224:212|288:268,1,140
368,256,51410,1,0,0:0:0:0:
376,168,51586,1,0,0:0:0:0:
292,208,51763,1,0,0:0:0:0:
424,312,51939,6,0,P|444:256|444:204,1,105
440,180,52645,2,0,P|396:156|304:168,1,140
240,224,53528,1,0,0:0:0:0:
364,228,53704,1,0,0:0:0:0:
224,148,53880,2,0,P|180:176|164:240,1,105
304,164,54586,1,0,0:0:0:0:
348,88,54763,6,0,P|352:52|272:8,1,140
192,44,55645,1,0,0:0:0:0:
128,160,55822,1,0,0:0:0:0:
204,272,55998,1,0,0:0:0:0:
264,208,56175,6,0,P|256:160|200:124,1,105
188,200,56880,2,0,P|204:256|332:240,1,210
348,168,58116,1,0,0:0:0:0:
336,92,58292,1,0,0:0:0:0:
412,108,58469,2,0,P|436:128|440:136,1,35
436,208,58822,1,0,0:0:0:0:
328,304,58998,5,0,0:0:0:0:
200,316,59351,6,0,P|192:280|212:216,1,105
344,376,60057,2,0,P|308:384|276:372,1,70
332,192,60410,1,0,0:0:0:0:
332,192,60763,2,0,P|384:192|416:160,1,70
356,124,61116,5,0,0:0:0:0:
332,192,61292,1,0,0:0:0:0:
344,264,61469,2,0,P|380:292|416:288,1,70
