osu file format v14

[General]
AudioFilename: RELEASE OF THE FAR WEST OCEAN.mp3
AudioLeadIn: 0
PreviewTime: 62124
Countdown: 0
SampleSet: Normal
StackLeniency: 0.2
Mode: 1
LetterboxInBreaks: 0
WidescreenStoryboard: 0

[Editor]
DistanceSpacing: 1.1
BeatDivisor: 4
GridSize: 32
TimelineZoom: 1

[Metadata]
Title:RELEASE OF THE FAR WEST OCEAN
TitleUnicode:RELEASE OF THE FAR WEST OCEAN
Artist:Falcom Sound Team jdk
ArtistUnicode:Falcom Sound Team jdk
Creator:lolcubes
Version:Onicubes
Source:Ys VI: The Ark of Napishtim
Tags:awesome stuff
BeatmapID:755229
BeatmapSetID:341569

[Difficulty]
HPDrainRate:6
CircleSize:5
OverallDifficulty:7
ApproachRate:5
SliderMultiplier:1.4
SliderTickRate:1

[Events]
//Background and Video events
0,0,"Untitled-3.jpg",0,48
//Break Periods
//Storyboard Layer 0 (Background)
//Storyboard Layer 1 (Fail)
//Storyboard Layer 2 (Pass)
//Storyboard Layer 3 (Foreground)
//Storyboard Sound Samples

[TimingPoints]
1403,230.017251293847,4,1,0,86,1,0
63967,-100,4,1,0,92,0,1
78688,-100,4,1,0,80,0,0

[HitObjects]
256,192,482,5,8,0:0:0:0:
256,192,712,1,8,0:0:0:0:
256,192,942,1,8,0:0:0:0:
256,192,1172,1,8,0:0:0:0:
256,192,1402,1,4,0:0:0:0:
256,192,3243,1,12,0:0:0:0:
256,192,3358,1,12,0:0:0:0:
256,192,5083,1,4,0:0:0:0:
256,192,6923,1,12,0:0:0:0:
256,192,7038,1,12,0:0:0:0:
256,192,7843,1,8,0:0:0:0:
256,192,7958,1,8,0:0:0:0:
256,192,8073,1,0,0:0:0:0:
256,192,8188,1,8,0:0:0:0:
256,192,8303,1,0,0:0:0:0:
256,192,8418,1,8,0:0:0:0:
256,192,8533,1,8,0:0:0:0:
256,192,8648,1,8,0:0:0:0:
256,192,8763,1,4,0:0:0:0:
256,192,8993,1,8,0:0:0:0:
256,192,9108,1,0,0:0:0:0:
256,192,9223,1,0,0:0:0:0:
256,192,9338,1,0,0:0:0:0:
256,192,9453,1,8,0:0:0:0:
256,192,9568,1,0,0:0:0:0:
256,192,9683,1,0,0:0:0:0:
256,192,9741,1,0,0:0:0:0:
256,192,9798,1,0,0:0:0:0:
256,192,9913,1,8,0:0:0:0:
256,192,10028,1,0,0:0:0:0:
256,192,10143,1,0,0:0:0:0:
256,192,10258,1,0,0:0:0:0:
256,192,10373,1,8,0:0:0:0:
256,192,10603,1,0,0:0:0:0:
256,192,10718,1,0,0:0:0:0:
256,192,10833,1,8,0:0:0:0:
256,192,10948,1,0,0:0:0:0:
256,192,11063,1,0,0:0:0:0:
256,192,11178,1,0,0:0:0:0:
256,192,11293,1,8,0:0:0:0:
256,192,11408,1,0,0:0:0:0:
256,192,11523,1,8,0:0:0:0:
256,192,11581,1,8,0:0:0:0:
256,192,11638,1,0,0:0:0:0:
256,192,11753,1,8,0:0:0:0:
256,192,11868,1,0,0:0:0:0:
256,192,11983,1,8,0:0:0:0:
256,192,12098,1,0,0:0:0:0:
256,192,12213,1,8,0:0:0:0:
256,192,12328,1,8,0:0:0:0:
256,192,12443,1,0,0:0:0:0:
256,192,12558,1,0,0:0:0:0:
256,192,12673,1,8,0:0:0:0:
256,192,12788,1,0,0:0:0:0:
256,192,12903,1,0,0:0:0:0:
256,192,13018,1,0,0:0:0:0:
256,192,13133,1,8,0:0:0:0:
256,192,13248,1,0,0:0:0:0:
256,192,13363,1,8,0:0:0:0:
256,192,13421,1,8,0:0:0:0:
256,192,13478,1,0,0:0:0:0:
256,192,13593,1,8,0:0:0:0:
256,192,13708,1,0,0:0:0:0:
256,192,13823,1,0,0:0:0:0:
256,192,13938,1,0,0:0:0:0:
256,192,14053,1,8,0:0:0:0:
256,192,14283,1,0,0:0:0:0:
256,192,14341,1,0,0:0:0:0:
256,192,14398,1,0,0:0:0:0:
256,192,14513,1,8,0:0:0:0:
256,192,14628,1,0,0:0:0:0:
256,192,14744,1,0,0:0:0:0:
256,192,14801,1,0,0:0:0:0:
256,192,14859,1,0,0:0:0:0:
256,192,14974,1,8,0:0:0:0:
256,192,15089,1,0,0:0:0:0:
256,192,15204,1,0,0:0:0:0:
256,192,15261,1,0,0:0:0:0:
256,192,15319,1,8,0:0:0:0:
256,192,15434,1,8,0:0:0:0:
256,192,15549,1,0,0:0:0:0:
256,192,15664,1,8,0:0:0:0:
256,192,15721,1,8,0:0:0:0:
256,192,15779,1,0,0:0:0:0:
256,192,15894,1,8,0:0:0:0:
256,192,16009,1,8,0:0:0:0:
256,192,16124,1,8,0:0:0:0:
256,192,16239,1,0,0:0:0:0:
256,192,16354,1,0,0:0:0:0:
256,192,16469,1,8,0:0:0:0:
256,192,16699,1,0,0:0:0:0:
256,192,16814,1,0,0:0:0:0:
256,192,16929,1,0,0:0:0:0:
256,192,17044,1,8,0:0:0:0:
256,192,17159,1,8,0:0:0:0:
256,192,17274,1,0,0:0:0:0:
256,192,17389,1,8,0:0:0:0:
256,192,17504,1,0,0:0:0:0:
256,192,17619,1,8,0:0:0:0:
256,192,17734,1,8,0:0:0:0:
256,192,17849,1,8,0:0:0:0:
256,192,17964,1,4,0:0:0:0:
256,192,18194,1,8,0:0:0:0:
256,192,18424,1,0,0:0:0:0:
256,192,18539,1,0,0:0:0:0:
256,192,18654,1,8,0:0:0:0:
256,192,18884,1,0,0:0:0:0:
256,192,19114,1,8,0:0:0:0:
256,192,19229,1,0,0:0:0:0:
256,192,19344,1,0,0:0:0:0:
256,192,19401,1,0,0:0:0:0:
256,192,19459,1,0,0:0:0:0:
256,192,19574,1,8,0:0:0:0:
256,192,19689,1,0,0:0:0:0:
256,192,19804,1,8,0:0:0:0:
256,192,19861,1,0,0:0:0:0:
256,192,19919,1,0,0:0:0:0:
256,192,20034,1,0,0:0:0:0:
256,192,20149,1,8,0:0:0:0:
256,192,20379,1,0,0:0:0:0:
256,192,20494,1,8,0:0:0:0:
256,192,20609,1,8,0:0:0:0:
256,192,20724,1,0,0:0:0:0:
256,192,20954,1,8,0:0:0:0:
256,192,21069,1,0,0:0:0:0:
256,192,21184,1,8,0:0:0:0:
256,192,21241,1,8,0:0:0:0:
256,192,21299,1,0,0:0:0:0:
256,192,21414,1,8,0:0:0:0:
256,192,21529,1,0,0:0:0:0:
256,192,21644,1,8,0:0:0:0:
256,192,21702,1,0,0:0:0:0:
256,192,21759,1,0,0:0:0:0:
256,192,21874,1,0,0:0:0:0:
256,192,21989,1,8,0:0:0:0:
256,192,22047,1,0,0:0:0:0:
256,192,22104,1,0,0:0:0:0:
256,192,22219,1,0,0:0:0:0:
256,192,22334,1,8,0:0:0:0:
256,192,22449,1,0,0:0:0:0:
256,192,22564,1,8,0:0:0:0:
256,192,22622,1,8,0:0:0:0:
256,192,22679,1,0,0:0:0:0:
256,192,22794,1,0,0:0:0:0:
256,192,22909,1,8,0:0:0:0:
256,192,22967,1,0,0:0:0:0:
256,192,23024,1,0,0:0:0:0:
256,192,23139,1,0,0:0:0:0:
256,192,23254,1,8,0:0:0:0:
256,192,23484,1,4,0:0:0:0:
256,192,23714,1,8,0:0:0:0:
256,192,23829,1,0,0:0:0:0:
256,192,24059,1,0,0:0:0:0:
256,192,24174,1,8,0:0:0:0:
256,192,24404,1,0,0:0:0:0:
256,192,24519,1,0,0:0:0:0:
256,192,24634,1,8,0:0:0:0:
256,192,24749,1,0,0:0:0:0:
256,192,24979,1,0,0:0:0:0:
256,192,25094,1,8,0:0:0:0:
256,192,25324,1,4,0:0:0:0:
256,192,25439,1,0,0:0:0:0:
256,192,25554,1,8,0:0:0:0:
256,192,25669,1,0,0:0:0:0:
256,192,25784,1,0,0:0:0:0:
256,192,25899,1,0,0:0:0:0:
256,192,26014,1,8,0:0:0:0:
256,192,26129,1,0,0:0:0:0:
256,192,26244,1,0,0:0:0:0:
256,192,26359,1,0,0:0:0:0:
256,192,26474,1,8,0:0:0:0:
256,192,26589,1,0,0:0:0:0:
256,192,26704,1,8,0:0:0:0:
256,192,26761,1,8,0:0:0:0:
256,192,26819,1,0,0:0:0:0:
256,192,26934,1,8,0:0:0:0:
256,192,27049,1,8,0:0:0:0:
256,192,27164,1,8,0:0:0:0:
256,192,27221,1,8,0:0:0:0:
256,192,27279,1,8,0:0:0:0:
256,192,27394,1,0,0:0:0:0:
256,192,27509,1,8,0:0:0:0:
256,192,27624,1,0,0:0:0:0:
256,192,27739,1,0,0:0:0:0:
256,192,27854,1,8,0:0:0:0:
256,192,27969,1,0,0:0:0:0:
256,192,28084,1,0,0:0:0:0:
256,192,28314,1,8,0:0:0:0:
256,192,28429,1,0,0:0:0:0:
256,192,28544,1,8,0:0:0:0:
256,192,28601,1,8,0:0:0:0:
256,192,28659,1,8,0:0:0:0:
256,192,28774,1,8,0:0:0:0:
256,192,28889,1,0,0:0:0:0:
256,192,29004,1,8,0:0:0:0:
256,192,29062,1,0,0:0:0:0:
256,192,29119,1,0,0:0:0:0:
256,192,29234,1,0,0:0:0:0:
256,192,29349,1,8,0:0:0:0:
256,192,29407,1,0,0:0:0:0:
256,192,29464,1,0,0:0:0:0:
256,192,29579,1,0,0:0:0:0:
256,192,29694,1,8,0:0:0:0:
256,192,29809,1,0,0:0:0:0:
256,192,29924,1,8,0:0:0:0:
256,192,29982,1,8,0:0:0:0:
256,192,30039,1,0,0:0:0:0:
256,192,30154,1,0,0:0:0:0:
256,192,30269,1,8,0:0:0:0:
256,192,30327,1,8,0:0:0:0:
256,192,30384,1,8,0:0:0:0:
256,192,30499,1,0,0:0:0:0:
256,192,30614,1,8,0:0:0:0:
256,192,30844,1,4,0:0:0:0:
256,192,31074,1,8,0:0:0:0:
256,192,31189,1,0,0:0:0:0:
256,192,31305,1,0,0:0:0:0:
256,192,31419,1,0,0:0:0:0:
256,192,31534,1,8,0:0:0:0:
256,192,31650,1,0,0:0:0:0:
256,192,31764,1,8,0:0:0:0:
256,192,31995,1,8,0:0:0:0:
256,192,32110,1,0,0:0:0:0:
256,192,32225,1,0,0:0:0:0:
256,192,32340,1,8,0:0:0:0:
256,192,32455,1,8,0:0:0:0:
256,192,32570,1,8,0:0:0:0:
256,192,32685,1,4,0:0:0:0:
256,192,32915,1,8,0:0:0:0:
256,192,33030,1,0,0:0:0:0:
256,192,33145,1,0,0:0:0:0:
256,192,33260,1,0,0:0:0:0:
256,192,33375,1,8,0:0:0:0:
256,192,33605,1,0,0:0:0:0:
256,192,33835,1,8,0:0:0:0:
256,192,33950,1,0,0:0:0:0:
256,192,34065,1,8,0:0:0:0:
256,192,34122,1,8,0:0:0:0:
256,192,34180,1,0,0:0:0:0:
256,192,34237,1,0,0:0:0:0:
256,192,34295,1,8,0:0:0:0:
256,192,34410,1,0,0:0:0:0:
256,192,34525,1,8,0:0:0:0:
256,192,34582,1,0,0:0:0:0:
256,192,34640,1,0,0:0:0:0:
256,192,34755,1,0,0:0:0:0:
256,192,34870,1,8,0:0:0:0:
256,192,34985,1,0,0:0:0:0:
256,192,35100,1,0,0:0:0:0:
256,192,35215,1,8,0:0:0:0:
256,192,35330,1,8,0:0:0:0:
256,192,35445,1,0,0:0:0:0:
256,192,35675,1,8,0:0:0:0:
256,192,35790,1,0,0:0:0:0:
256,192,35905,1,8,0:0:0:0:
256,192,35962,1,8,0:0:0:0:
256,192,36020,1,0,0:0:0:0:
256,192,36078,1,0,0:0:0:0:
256,192,36135,1,8,0:0:0:0:
256,192,36250,1,0,0:0:0:0:
256,192,36365,1,8,0:0:0:0:
256,192,36423,1,0,0:0:0:0:
256,192,36480,1,0,0:0:0:0:
256,192,36595,1,0,0:0:0:0:
256,192,36710,1,8,0:0:0:0:
256,192,36768,1,0,0:0:0:0:
256,192,36825,1,0,0:0:0:0:
256,192,36940,1,0,0:0:0:0:
256,192,37055,1,8,0:0:0:0:
256,192,37170,1,0,0:0:0:0:
256,192,37285,1,8,0:0:0:0:
256,192,37343,1,8,0:0:0:0:
256,192,37400,1,0,0:0:0:0:
256,192,37515,1,0,0:0:0:0:
256,192,37630,1,8,0:0:0:0:
256,192,37688,1,0,0:0:0:0:
256,192,37745,1,0,0:0:0:0:
256,192,37860,1,0,0:0:0:0:
256,192,37975,1,8,0:0:0:0:
256,192,38205,1,4,0:0:0:0:
256,192,38435,1,8,0:0:0:0:
256,192,38550,1,0,0:0:0:0:
256,192,38665,1,0,0:0:0:0:
256,192,38780,1,0,0:0:0:0:
256,192,38895,1,8,0:0:0:0:
256,192,39125,1,0,0:0:0:0:
256,192,39240,1,0,0:0:0:0:
256,192,39355,1,8,0:0:0:0:
256,192,39470,1,0,0:0:0:0:
256,192,39585,1,0,0:0:0:0:
256,192,39700,1,0,0:0:0:0:
256,192,39815,1,8,0:0:0:0:
256,192,39930,1,8,0:0:0:0:
256,192,39988,1,8,0:0:0:0:
256,192,40045,1,0,0:0:0:0:
256,192,40275,1,8,0:0:0:0:
256,192,40390,1,0,0:0:0:0:
256,192,40505,1,0,0:0:0:0:
256,192,40620,1,0,0:0:0:0:
256,192,40735,1,8,0:0:0:0:
256,192,40965,1,0,0:0:0:0:
256,192,41080,1,0,0:0:0:0:
256,192,41195,1,8,0:0:0:0:
256,192,41310,1,0,0:0:0:0:
256,192,41425,1,8,0:0:0:0:
256,192,41482,1,8,0:0:0:0:
256,192,41540,1,0,0:0:0:0:
256,192,41598,1,0,0:0:0:0:
256,192,41655,1,8,0:0:0:0:
256,192,41770,1,8,0:0:0:0:
256,192,41885,1,8,0:0:0:0:
256,192,41942,1,8,0:0:0:0:
256,192,42000,1,0,0:0:0:0:
256,192,42115,1,0,0:0:0:0:
256,192,42230,1,8,0:0:0:0:
256,192,42288,1,8,0:0:0:0:
256,192,42345,1,8,0:0:0:0:
256,192,42460,1,0,0:0:0:0:
256,192,42575,1,8,0:0:0:0:
256,192,42805,1,0,0:0:0:0:
256,192,43035,1,8,0:0:0:0:
256,192,43150,1,0,0:0:0:0:
256,192,43265,1,8,0:0:0:0:
256,192,43322,1,8,0:0:0:0:
256,192,43380,1,0,0:0:0:0:
256,192,43438,1,0,0:0:0:0:
256,192,43495,1,8,0:0:0:0:
256,192,43610,1,0,0:0:0:0:
256,192,43725,1,8,0:0:0:0:
256,192,43783,1,0,0:0:0:0:
256,192,43840,1,0,0:0:0:0:
256,192,43955,1,0,0:0:0:0:
256,192,44070,1,8,0:0:0:0:
256,192,44128,1,0,0:0:0:0:
256,192,44185,1,0,0:0:0:0:
256,192,44300,1,0,0:0:0:0:
256,192,44415,1,8,0:0:0:0:
256,192,44530,1,0,0:0:0:0:
256,192,44645,1,8,0:0:0:0:
256,192,44703,1,8,0:0:0:0:
256,192,44760,1,0,0:0:0:0:
256,192,44875,1,0,0:0:0:0:
256,192,44990,1,8,0:0:0:0:
256,192,45048,1,8,0:0:0:0:
256,192,45105,1,8,0:0:0:0:
256,192,45220,1,0,0:0:0:0:
256,192,45335,1,8,0:0:0:0:
256,192,45566,1,4,0:0:0:0:
256,192,45796,1,8,0:0:0:0:
256,192,45911,1,0,0:0:0:0:
256,192,46026,1,0,0:0:0:0:
256,192,46141,1,0,0:0:0:0:
256,192,46256,1,8,0:0:0:0:
256,192,46486,1,0,0:0:0:0:
256,192,46601,1,0,0:0:0:0:
256,192,46716,1,8,0:0:0:0:
256,192,46831,1,0,0:0:0:0:
256,192,46946,1,0,0:0:0:0:
256,192,47061,1,0,0:0:0:0:
256,192,47176,1,8,0:0:0:0:
256,192,47406,1,0,0:0:0:0:
256,192,47521,1,0,0:0:0:0:
256,192,47636,1,8,0:0:0:0:
256,192,47751,1,8,0:0:0:0:
256,192,47866,1,0,0:0:0:0:
256,192,47981,1,0,0:0:0:0:
256,192,48096,1,8,0:0:0:0:
256,192,48326,5,8,0:0:0:0:
256,192,48403,1,0,0:0:0:0:
256,192,48479,1,0,0:0:0:0:
256,192,48556,1,8,0:0:0:0:
256,192,48633,1,0,0:0:0:0:
256,192,48709,1,0,0:0:0:0:
256,192,48786,1,8,0:0:0:0:
256,192,48863,1,8,0:0:0:0:
256,192,48939,1,0,0:0:0:0:
256,192,49016,1,8,0:0:0:0:
256,192,49093,1,8,0:0:0:0:
256,192,49169,1,0,0:0:0:0:
256,192,49246,1,8,0:0:0:0:
256,192,49591,1,8,0:0:0:0:
256,192,49936,1,0,0:0:0:0:
256,192,50166,1,8,0:0:0:0:
256,192,50511,1,0,0:0:0:0:
256,192,50856,1,8,0:0:0:0:
256,192,51086,1,8,0:0:0:0:
256,192,51201,1,8,0:0:0:0:
256,192,51316,1,0,0:0:0:0:
256,192,51776,1,0,0:0:0:0:
256,192,52006,1,8,0:0:0:0:
256,192,52466,1,0,0:0:0:0:
256,192,52926,1,8,0:0:0:0:
256,192,53271,1,0,0:0:0:0:
256,192,53616,1,8,0:0:0:0:
256,192,53846,1,8,0:0:0:0:
256,192,54191,1,8,0:0:0:0:
256,192,54536,1,0,0:0:0:0:
256,192,54767,1,8,0:0:0:0:
256,192,54882,1,8,0:0:0:0:
256,192,54997,1,0,0:0:0:0:
256,192,55112,1,0,0:0:0:0:
256,192,55342,1,0,0:0:0:0:
256,192,55457,1,8,0:0:0:0:
256,192,55572,1,0,0:0:0:0:
256,192,55687,1,0,0:0:0:0:
256,192,55917,1,0,0:0:0:0:
256,192,56147,1,12,0:0:0:0:
256,192,56262,1,8,0:0:0:0:
256,192,56377,1,8,0:0:0:0:
256,192,56492,1,8,0:0:0:0:
256,192,56607,1,8,0:0:0:0:
256,192,56664,1,0,0:0:0:0:
256,192,56722,1,0,0:0:0:0:
256,192,56837,1,0,0:0:0:0:
256,192,56952,1,8,0:0:0:0:
256,192,57009,1,0,0:0:0:0:
256,192,57067,1,0,0:0:0:0:
256,192,57182,1,0,0:0:0:0:
256,192,57297,1,8,0:0:0:0:
256,192,57412,1,0,0:0:0:0:
256,192,57527,1,8,0:0:0:0:
256,192,57584,1,8,0:0:0:0:
256,192,57642,1,0,0:0:0:0:
256,192,57757,1,0,0:0:0:0:
256,192,57872,1,8,0:0:0:0:
256,192,57929,1,8,0:0:0:0:
256,192,57987,1,0,0:0:0:0:
256,192,58102,1,0,0:0:0:0:
256,192,58217,1,8,0:0:0:0:
256,192,58332,1,0,0:0:0:0:
256,192,58447,1,8,0:0:0:0:
256,192,58562,1,8,0:0:0:0:
256,192,58677,1,0,0:0:0:0:
256,192,58792,1,8,0:0:0:0:
256,192,59022,1,0,0:0:0:0:
256,192,59137,1,8,0:0:0:0:
256,192,59252,1,0,0:0:0:0:
256,192,59367,1,0,0:0:0:0:
256,192,59424,1,0,0:0:0:0:
256,192,59482,1,0,0:0:0:0:
256,192,59597,1,8,0:0:0:0:
256,192,59712,1,0,0:0:0:0:
256,192,59827,1,8,0:0:0:0:
256,192,59884,1,8,0:0:0:0:
256,192,59942,1,8,0:0:0:0:
256,192,59999,1,8,0:0:0:0:
256,192,60057,1,0,0:0:0:0:
256,192,60172,1,8,0:0:0:0:
256,192,60287,1,0,0:0:0:0:
256,192,60344,1,0,0:0:0:0:
256,192,60402,1,0,0:0:0:0:
256,192,60517,1,8,0:0:0:0:
256,192,60632,1,0,0:0:0:0:
256,192,60689,1,0,0:0:0:0:
256,192,60747,1,0,0:0:0:0:
256,192,60862,1,0,0:0:0:0:
256,192,60977,1,8,0:0:0:0:
256,192,61092,1,0,0:0:0:0:
256,192,61207,1,8,0:0:0:0:
256,192,61264,1,0,0:0:0:0:
256,192,61322,1,0,0:0:0:0:
256,192,61437,1,0,0:0:0:0:
256,192,61552,1,8,0:0:0:0:
256,192,61610,1,0,0:0:0:0:
256,192,61667,1,0,0:0:0:0:
256,192,61782,1,0,0:0:0:0:
256,192,61897,1,8,0:0:0:0:
256,192,62127,1,12,0:0:0:0:
256,192,62357,1,8,0:0:0:0:
256,192,62472,1,4,0:0:0:0:
256,192,62702,1,0,0:0:0:0:
256,192,62817,1,12,0:0:0:0:
256,192,63047,1,4,0:0:0:0:
256,192,63277,1,8,0:0:0:0:
256,192,63392,1,8,0:0:0:0:
256,192,63507,1,8,0:0:0:0:
256,192,63622,1,8,0:0:0:0:
256,192,63737,1,8,0:0:0:0:
256,192,63852,1,8,0:0:0:0:
256,192,63967,1,0,0:0:0:0:
256,192,64025,1,0,0:0:0:0:
256,192,64082,1,0,0:0:0:0:
256,192,64140,1,0,0:0:0:0:
256,192,64197,1,8,0:0:0:0:
256,192,64312,1,0,0:0:0:0:
256,192,64370,1,0,0:0:0:0:
256,192,64427,1,0,0:0:0:0:
256,192,64485,1,0,0:0:0:0:
256,192,64542,1,8,0:0:0:0:
256,192,64657,1,0,0:0:0:0:
256,192,64715,1,0,0:0:0:0:
256,192,64772,1,8,0:0:0:0:
256,192,64887,1,0,0:0:0:0:
256,192,64945,1,0,0:0:0:0:
256,192,65002,1,0,0:0:0:0:
256,192,65060,1,0,0:0:0:0:
256,192,65117,1,8,0:0:0:0:
256,192,65232,1,0,0:0:0:0:
256,192,65290,1,0,0:0:0:0:
256,192,65347,1,0,0:0:0:0:
256,192,65405,1,0,0:0:0:0:
256,192,65462,1,8,0:0:0:0:
256,192,65577,1,8,0:0:0:0:
256,192,65635,1,8,0:0:0:0:
256,192,65692,1,8,0:0:0:0:
256,192,65807,1,8,0:0:0:0:
256,192,65865,1,8,0:0:0:0:
256,192,65922,1,0,0:0:0:0:
256,192,65980,1,0,0:0:0:0:
256,192,66037,1,0,0:0:0:0:
256,192,66152,1,8,0:0:0:0:
256,192,66210,1,8,0:0:0:0:
256,192,66267,1,0,0:0:0:0:
256,192,66325,1,0,0:0:0:0:
256,192,66382,1,0,0:0:0:0:
256,192,66497,1,8,0:0:0:0:
256,192,66555,1,8,0:0:0:0:
256,192,66612,1,0,0:0:0:0:
256,192,66727,1,8,0:0:0:0:
256,192,66785,1,8,0:0:0:0:
256,192,66842,1,0,0:0:0:0:
256,192,66900,1,0,0:0:0:0:
256,192,66957,1,0,0:0:0:0:
256,192,67072,1,8,0:0:0:0:
256,192,67130,1,8,0:0:0:0:
256,192,67187,1,0,0:0:0:0:
256,192,67245,1,0,0:0:0:0:
256,192,67302,1,0,0:0:0:0:
256,192,67417,1,8,0:0:0:0:
256,192,67475,1,8,0:0:0:0:
256,192,67532,1,8,0:0:0:0:
256,192,67647,1,8,0:0:0:0:
256,192,67705,1,8,0:0:0:0:
256,192,67762,1,8,0:0:0:0:
256,192,67820,1,8,0:0:0:0:
256,192,67877,1,0,0:0:0:0:
256,192,67992,1,8,0:0:0:0:
256,192,68050,1,8,0:0:0:0:
256,192,68108,1,8,0:0:0:0:
256,192,68165,1,8,0:0:0:0:
256,192,68223,1,0,0:0:0:0:
256,192,68338,1,8,0:0:0:0:
256,192,68395,1,8,0:0:0:0:
256,192,68453,1,0,0:0:0:0:
256,192,68568,1,8,0:0:0:0:
256,192,68626,1,8,0:0:0:0:
256,192,68683,1,8,0:0:0:0:
256,192,68741,1,8,0:0:0:0:
256,192,68798,1,0,0:0:0:0:
256,192,68913,1,8,0:0:0:0:
256,192,68971,1,8,0:0:0:0:
256,192,69029,1,8,0:0:0:0:
256,192,69086,1,8,0:0:0:0:
256,192,69144,1,0,0:0:0:0:
256,192,69259,1,8,0:0:0:0:
256,192,69316,1,8,0:0:0:0:
256,192,69374,1,8,0:0:0:0:
256,192,69488,1,8,0:0:0:0:
256,192,69603,1,0,0:0:0:0:
256,192,69718,1,8,0:0:0:0:
256,192,69833,1,8,0:0:0:0:
256,192,69948,1,0,0:0:0:0:
256,192,70063,1,0,0:0:0:0:
256,192,70178,1,8,0:0:0:0:
256,192,70293,1,0,0:0:0:0:
256,192,70408,1,12,0:0:0:0:
256,192,70638,1,8,0:0:0:0:
256,192,70753,1,4,0:0:0:0:
256,192,70983,1,0,0:0:0:0:
256,192,71098,1,12,0:0:0:0:
256,192,71328,1,8,0:0:0:0:
256,192,71385,1,8,0:0:0:0:
256,192,71443,1,0,0:0:0:0:
256,192,71500,1,0,0:0:0:0:
256,192,71558,1,0,0:0:0:0:
256,192,71673,1,0,0:0:0:0:
256,192,71730,1,0,0:0:0:0:
256,192,71788,1,8,0:0:0:0:
256,192,71845,1,8,0:0:0:0:
256,192,71903,1,0,0:0:0:0:
256,192,72018,1,0,0:0:0:0:
256,192,72075,1,0,0:0:0:0:
256,192,72133,1,0,0:0:0:0:
256,192,72248,1,8,0:0:0:0:
256,192,72305,1,8,0:0:0:0:
256,192,72363,1,0,0:0:0:0:
256,192,72420,1,0,0:0:0:0:
256,192,72478,1,0,0:0:0:0:
256,192,72593,1,0,0:0:0:0:
256,192,72650,1,0,0:0:0:0:
256,192,72708,1,8,0:0:0:0:
256,192,72765,1,8,0:0:0:0:
256,192,72823,1,0,0:0:0:0:
256,192,72938,1,8,0:0:0:0:
256,192,72995,1,8,0:0:0:0:
256,192,73053,1,0,0:0:0:0:
256,192,73168,1,8,0:0:0:0:
256,192,73225,1,8,0:0:0:0:
256,192,73283,1,8,0:0:0:0:
256,192,73340,1,8,0:0:0:0:
256,192,73398,1,0,0:0:0:0:
256,192,73513,1,0,0:0:0:0:
256,192,73570,1,0,0:0:0:0:
256,192,73628,1,8,0:0:0:0:
256,192,73685,1,8,0:0:0:0:
256,192,73743,1,8,0:0:0:0:
256,192,73858,1,0,0:0:0:0:
256,192,73915,1,0,0:0:0:0:
256,192,73973,1,0,0:0:0:0:
256,192,74088,1,8,0:0:0:0:
256,192,74145,1,8,0:0:0:0:
256,192,74203,1,8,0:0:0:0:
256,192,74260,1,8,0:0:0:0:
256,192,74318,1,0,0:0:0:0:
256,192,74433,1,0,0:0:0:0:
256,192,74490,1,0,0:0:0:0:
256,192,74548,1,8,0:0:0:0:
256,192,74605,1,8,0:0:0:0:
256,192,74663,1,8,0:0:0:0:
256,192,74778,1,8,0:0:0:0:
256,192,74835,1,8,0:0:0:0:
256,192,74893,1,0,0:0:0:0:
256,192,75008,1,12,0:0:0:0:
256,192,75123,1,0,0:0:0:0:
256,192,75181,1,0,0:0:0:0:
256,192,75238,1,0,0:0:0:0:
256,192,75353,1,8,0:0:0:0:
256,192,75411,1,0,0:0:0:0:
256,192,75468,1,8,0:0:0:0:
256,192,75526,1,8,0:0:0:0:
256,192,75583,1,0,0:0:0:0:
256,192,75698,1,8,0:0:0:0:
256,192,75756,1,8,0:0:0:0:
256,192,75813,1,0,0:0:0:0:
256,192,75928,1,8,0:0:0:0:
256,192,75986,1,8,0:0:0:0:
256,192,76043,1,0,0:0:0:0:
256,192,76101,1,0,0:0:0:0:
256,192,76158,1,0,0:0:0:0:
256,192,76273,1,8,0:0:0:0:
256,192,76331,1,8,0:0:0:0:
256,192,76388,1,0,0:0:0:0:
256,192,76503,1,0,0:0:0:0:
256,192,76618,1,8,0:0:0:0:
256,192,76848,1,4,0:0:0:0:
256,192,77078,1,8,0:0:0:0:
256,192,77193,1,0,0:0:0:0:
256,192,77251,1,0,0:0:0:0:
256,192,77308,1,8,0:0:0:0:
256,192,77423,1,8,0:0:0:0:
256,192,77538,1,0,0:0:0:0:
256,192,77653,1,0,0:0:0:0:
256,192,77768,1,12,0:0:0:0:
256,192,78113,1,8,0:0:0:0:
256,192,78228,1,4,0:0:0:0:
256,192,78343,1,8,0:0:0:0:
256,192,78688,1,4,0:0:0:0:
256,192,78918,1,8,0:0:0:0:
256,192,79033,1,0,0:0:0:0:
256,192,79148,1,0,0:0:0:0:
256,192,79206,1,0,0:0:0:0:
256,192,79263,1,0,0:0:0:0:
256,192,79378,1,8,0:0:0:0:
256,192,79493,1,0,0:0:0:0:
256,192,79608,1,0,0:0:0:0:
256,192,79666,1,8,0:0:0:0:
256,192,79723,1,0,0:0:0:0:
256,192,79781,1,0,0:0:0:0:
256,192,79838,1,8,0:0:0:0:
256,192,79953,1,0,0:0:0:0:
256,192,80068,1,0,0:0:0:0:
256,192,80126,1,0,0:0:0:0:
256,192,80183,1,0,0:0:0:0:
256,192,80298,1,8,0:0:0:0:
256,192,80413,1,0,0:0:0:0:
256,192,80528,1,0,0:0:0:0:
256,192,80586,1,0,0:0:0:0:
256,192,80643,1,0,0:0:0:0:
256,192,80758,1,8,0:0:0:0:
256,192,80873,1,0,0:0:0:0:
256,192,80988,1,0,0:0:0:0:
256,192,81046,1,0,0:0:0:0:
256,192,81103,1,0,0:0:0:0:
256,192,81218,1,8,0:0:0:0:
256,192,81333,1,0,0:0:0:0:
256,192,81449,1,8,0:0:0:0:
256,192,81506,1,8,0:0:0:0:
256,192,81564,1,0,0:0:0:0:
256,192,81621,1,0,0:0:0:0:
256,192,81679,1,8,0:0:0:0:
256,192,81794,1,0,0:0:0:0:
256,192,81909,1,8,0:0:0:0:
256,192,81966,1,8,0:0:0:0:
256,192,82024,1,0,0:0:0:0:
256,192,82139,1,8,0:0:0:0:
256,192,82254,1,8,0:0:0:0:
256,192,82369,1,0,0:0:0:0:
256,192,82427,1,0,0:0:0:0:
256,192,82484,1,0,0:0:0:0:
256,192,82599,1,8,0:0:0:0:
256,192,82714,1,0,0:0:0:0:
256,192,82829,1,0,0:0:0:0:
256,192,82887,1,0,0:0:0:0:
256,192,82944,1,0,0:0:0:0:
256,192,83059,1,8,0:0:0:0:
256,192,83174,1,0,0:0:0:0:
256,192,83290,1,0,0:0:0:0:
256,192,83347,1,0,0:0:0:0:
256,192,83405,1,0,0:0:0:0:
256,192,83462,1,0,0:0:0:0:
256,192,83520,1,8,0:0:0:0:
256,192,83635,1,0,0:0:0:0:
256,192,83750,1,0,0:0:0:0:
256,192,83807,1,0,0:0:0:0:
256,192,83865,1,0,0:0:0:0:
256,192,83979,1,8,0:0:0:0:
256,192,84095,1,0,0:0:0:0:
256,192,84210,1,0,0:0:0:0:
256,192,84266,1,0,0:0:0:0:
256,192,84324,1,0,0:0:0:0:
256,192,84439,1,8,0:0:0:0:
256,192,84554,1,0,0:0:0:0:
256,192,84669,1,0,0:0:0:0:
256,192,84726,1,0,0:0:0:0:
256,192,84784,1,0,0:0:0:0:
256,192,84899,1,8,0:0:0:0:
256,192,85014,1,0,0:0:0:0:
256,192,85129,1,8,0:0:0:0:
256,192,85186,1,8,0:0:0:0:
256,192,85244,1,0,0:0:0:0:
256,192,85301,1,8,0:0:0:0:
256,192,85359,1,0,0:0:0:0:
256,192,85474,1,8,0:0:0:0:
256,192,85589,1,8,0:0:0:0:
256,192,85646,1,8,0:0:0:0:
256,192,85704,1,8,0:0:0:0:
256,192,85761,1,8,0:0:0:0:
256,192,85819,1,0,0:0:0:0:
256,192,85934,1,8,0:0:0:0:
256,192,86049,1,4,0:0:0:0:
256,192,86279,1,8,0:0:0:0:
256,192,86394,1,0,0:0:0:0:
256,192,86509,1,0,0:0:0:0:
256,192,86567,1,0,0:0:0:0:
256,192,86624,1,0,0:0:0:0:
256,192,86739,1,8,0:0:0:0:
256,192,86854,1,0,0:0:0:0:
256,192,86969,1,0,0:0:0:0:
256,192,87027,1,8,0:0:0:0:
256,192,87084,1,0,0:0:0:0:
256,192,87142,1,0,0:0:0:0:
256,192,87199,1,8,0:0:0:0:
256,192,87314,1,0,0:0:0:0:
256,192,87429,1,8,0:0:0:0:
256,192,87487,1,8,0:0:0:0:
256,192,87544,1,0,0:0:0:0:
256,192,87659,1,8,0:0:0:0:
256,192,87774,1,0,0:0:0:0:
256,192,87889,1,0,0:0:0:0:
256,192,87947,1,0,0:0:0:0:
256,192,88004,1,0,0:0:0:0:
256,192,88119,1,8,0:0:0:0:
256,192,88234,1,0,0:0:0:0:
256,192,88349,1,0,0:0:0:0:
256,192,88407,1,0,0:0:0:0:
256,192,88464,1,0,0:0:0:0:
256,192,88579,1,8,0:0:0:0:
256,192,88694,1,0,0:0:0:0:
256,192,88810,1,8,0:0:0:0:
256,192,88867,1,8,0:0:0:0:
256,192,88925,1,0,0:0:0:0:
256,192,88982,1,0,0:0:0:0:
256,192,89040,1,8,0:0:0:0:
256,192,89155,1,0,0:0:0:0:
256,192,89270,1,8,0:0:0:0:
256,192,89327,1,8,0:0:0:0:
256,192,89385,1,0,0:0:0:0:
256,192,89500,1,8,0:0:0:0:
256,192,89614,1,8,0:0:0:0:
256,192,89729,1,0,0:0:0:0:
256,192,89787,1,0,0:0:0:0:
256,192,89844,1,0,0:0:0:0:
256,192,89959,1,8,0:0:0:0:
256,192,90074,1,0,0:0:0:0:
256,192,90189,1,0,0:0:0:0:
256,192,90247,1,0,0:0:0:0:
256,192,90304,1,0,0:0:0:0:
256,192,90419,1,8,0:0:0:0:
256,192,90534,1,0,0:0:0:0:
256,192,90649,1,0,0:0:0:0:
256,192,90707,1,0,0:0:0:0:
256,192,90764,1,0,0:0:0:0:
256,192,90822,1,0,0:0:0:0:
256,192,90879,1,8,0:0:0:0:
256,192,90994,1,8,0:0:0:0:
256,192,91052,1,8,0:0:0:0:
256,192,91109,1,0,0:0:0:0:
256,192,91167,1,8,0:0:0:0:
256,192,91224,1,0,0:0:0:0:
256,192,91339,1,8,0:0:0:0:
256,192,91454,1,0,0:0:0:0:
256,192,91569,1,12,0:0:0:0:
256,192,91799,1,8,0:0:0:0:
256,192,91914,1,8,0:0:0:0:
256,192,92029,1,0,0:0:0:0:
256,192,92144,1,0,0:0:0:0:
256,192,92259,1,8,0:0:0:0:
256,192,92489,1,0,0:0:0:0:
256,192,92547,1,0,0:0:0:0:
256,192,92604,1,0,0:0:0:0:
256,192,92719,1,8,0:0:0:0:
256,192,92834,1,8,0:0:0:0:
256,192,92949,1,0,0:0:0:0:
256,192,93064,1,0,0:0:0:0:
256,192,93179,1,8,0:0:0:0:
256,192,93409,1,8,0:0:0:0:
256,192,93524,1,0,0:0:0:0:
256,192,93639,1,0,0:0:0:0:
256,192,93754,1,8,0:0:0:0:
256,192,93869,1,0,0:0:0:0:
256,192,93984,1,8,0:0:0:0:
256,192,94099,1,8,0:0:0:0:
256,192,94214,1,8,0:0:0:0:
256,192,94329,1,8,0:0:0:0:
256,192,94444,1,8,0:0:0:0:
256,192,94559,1,0,0:0:0:0:
256,192,94674,1,8,0:0:0:0:
256,192,94790,1,0,0:0:0:0:
256,192,94905,1,8,0:0:0:0:
256,192,95020,1,8,0:0:0:0:
256,192,95135,1,8,0:0:0:0:
256,192,95250,1,4,0:0:0:0:
256,192,95480,1,4,0:0:0:0:
256,192,95595,1,12,0:0:0:0:
256,192,95825,1,4,0:0:0:0:
256,192,95940,1,4,0:0:0:0:
256,192,96055,1,12,0:0:0:0:
