osu file format v13

[General]
AudioFilename: 208 OVER DRIVE.mp3
AudioLeadIn: 0
PreviewTime: -1
Countdown: 0
SampleSet: None
StackLeniency: 0.7
Mode: 0
LetterboxInBreaks: 1
WidescreenStoryboard: 0

[Editor]
DistanceSpacing: 1.3
BeatDivisor: 4
GridSize: 8
TimelineZoom: 1

[Metadata]
Title:OVER DRIVE
TitleUnicode:OVER DRIVE
Artist:Falcom Sound Team jdk
ArtistUnicode:Falcom Sound Team jdk
Creator:Lgndzr
Version:Extra
Source:ys origins
Tags:
BeatmapID:563876
BeatmapSetID:244628

[Difficulty]
HPDrainRate:7
CircleSize:4
OverallDifficulty:7
ApproachRate:9
SliderMultiplier:1.4
SliderTickRate:1

[Events]
//Background and Video events
//Break Periods
//Storyboard Layer 0 (Background)
//Storyboard Layer 1 (Fail)
//Storyboard Layer 2 (Pass)
//Storyboard Layer 3 (Foreground)
//Storyboard Sound Samples
//Background Colour Transformations
3,100,163,162,255

[TimingPoints]
510,359.281437125748,4,1,0,50,1,0
14881,-90.9090909090909,4,1,0,55,0,0
17755,-83.3333333333333,4,1,0,60,0,0
20629,-76.9230769230769,4,1,0,65,0,0
23504,-100,4,1,0,50,0,0
26378,-76.9230769230769,4,1,0,50,0,0
49372,-100,4,1,0,50,0,0
52246,-90.9090909090909,4,1,0,55,0,0
55120,-83.3333333333333,4,1,0,60,0,0
57995,-76.9230769230769,4,1,0,65,0,0
60869,-76.9230769230769,4,1,0,50,0,0
63743,-76.9230769230769,4,1,0,50,0,0
75240,-83.3333333333333,4,1,0,55,0,0
86737,-83.3333333333333,4,1,0,50,0,0
98234,-76.9230769230769,4,1,0,55,0,0
101108,-71.4285714285714,4,1,0,60,0,0

[HitObjects]
256,192,510,5,0,0:0:0:0:
256,192,1228,1,0,0:0:0:0:
256,192,1947,1,0,0:0:0:0:
114,261,2665,1,0,0:0:0:0:
398,123,2905,1,0,0:0:0:0:
114,261,3144,1,0,0:0:0:0:
256,192,3384,1,0,0:0:0:0:
256,192,4102,1,0,0:0:0:0:
256,192,4821,1,0,0:0:0:0:
256,192,5539,1,0,0:0:0:0:
312,104,5719,1,0,0:0:0:0:
200,104,5899,1,0,0:0:0:0:
165,107,5989,1,0,0:0:0:0:
135,124,6078,1,0,0:0:0:0:
112,151,6168,1,0,0:0:0:0:
104,184,6258,1,0,0:0:0:0:
104,288,6438,1,0,0:0:0:0:
192,344,6617,2,0,L|288:344,1,70
296,344,6887,1,0,0:0:0:0:
328,344,6977,1,0,0:0:0:0:
408,288,7156,1,0,0:0:0:0:
408,184,7336,2,0,L|344:120,1,70
336,112,7605,1,0,0:0:0:0:
312,88,7695,1,0,0:0:0:0:
200,88,7875,1,0,0:0:0:0:
176,112,7965,1,0,0:0:0:0:
152,136,8054,1,0,0:0:0:0:
80,208,8234,1,0,0:0:0:0:
152,280,8414,1,0,0:0:0:0:
224,208,8593,1,0,0:0:0:0:
288,280,8773,1,0,0:0:0:0:
320,272,8863,1,0,0:0:0:0:
352,256,8953,1,0,0:0:0:0:
376,232,9042,1,0,0:0:0:0:
384,200,9132,2,0,L|384:112,1,70
304,56,9492,2,0,L|304:144,1,70
216,192,9851,2,0,L|216:104,1,70
128,56,10210,2,0,L|128:144,1,70
128,160,10480,1,0,0:0:0:0:
128,192,10569,1,0,0:0:0:0:
192,280,10749,1,0,0:0:0:0:
296,280,10929,1,0,0:0:0:0:
330,280,11018,1,0,0:0:0:0:
363,269,11108,1,0,0:0:0:0:
391,249,11198,1,0,0:0:0:0:
412,221,11288,1,0,0:0:0:0:
425,181,11378,1,0,0:0:0:0:
421,139,11468,1,0,0:0:0:0:
400,103,11557,1,0,0:0:0:0:
365,79,11647,1,0,0:0:0:0:
322,76,11737,1,0,0:0:0:0:
288,101,11827,1,0,0:0:0:0:
272,140,11917,1,0,0:0:0:0:
281,181,12007,5,0,0:0:0:0:
248,168,12096,1,0,0:0:0:0:
216,152,12186,1,0,0:0:0:0:
184,136,12276,1,0,0:0:0:0:
152,120,12366,2,0,L|64:72,1,70
256,336,12725,1,0,0:0:0:0:
280,312,12815,1,0,0:0:0:0:
304,288,12905,1,0,0:0:0:0:
328,264,12995,1,0,0:0:0:0:
352,240,13084,2,0,L|424:176,1,70
64,64,13444,1,0,0:0:0:0:
72,96,13533,1,0,0:0:0:0:
80,128,13623,1,0,0:0:0:0:
88,160,13713,1,0,0:0:0:0:
96,192,13803,2,0,L|120:280,1,70
304,32,14162,1,0,0:0:0:0:
208,352,14432,1,0,0:0:0:0:
256,192,14701,1,0,0:0:0:0:
432,304,14881,1,0,0:0:0:0:
392,296,14971,1,0,0:0:0:0:
352,288,15060,1,0,0:0:0:0:
312,280,15150,1,0,0:0:0:0:
272,272,15240,2,0,L|176:248,1,77.0000023498536
424,48,15599,1,0,0:0:0:0:
408,80,15689,1,0,0:0:0:0:
392,120,15779,1,0,0:0:0:0:
376,160,15869,1,0,0:0:0:0:
360,200,15959,2,0,L|328:280,1,77.0000023498536
48,72,16318,1,0,0:0:0:0:
72,104,16408,1,0,0:0:0:0:
96,136,16498,1,0,0:0:0:0:
120,168,16587,1,0,0:0:0:0:
144,200,16677,2,0,L|208:280,1,77.0000023498536
168,24,17036,1,0,0:0:0:0:
344,360,17306,1,0,0:0:0:0:
272,88,17575,1,0,0:0:0:0:
448,160,17755,1,0,0:0:0:0:
408,176,17845,1,0,0:0:0:0:
368,192,17935,1,0,0:0:0:0:
328,208,18024,1,0,0:0:0:0:
288,224,18114,2,0,L|200:264,1,83.9999974365235
72,56,18474,1,0,0:0:0:0:
96,88,18563,1,0,0:0:0:0:
120,120,18653,1,0,0:0:0:0:
144,160,18743,1,0,0:0:0:0:
168,192,18833,2,0,L|224:272,1,83.9999974365235
368,16,19192,1,0,0:0:0:0:
352,56,19282,1,0,0:0:0:0:
344,96,19372,1,0,0:0:0:0:
328,136,19462,1,0,0:0:0:0:
320,176,19551,2,0,L|288:280,1,83.9999974365235
128,8,19911,1,0,0:0:0:0:
384,376,20180,1,0,0:0:0:0:
272,72,20450,1,0,0:0:0:0:
112,240,20629,1,0,0:0:0:0:
160,232,20719,1,0,0:0:0:0:
208,224,20809,1,0,0:0:0:0:
256,216,20899,1,0,0:0:0:0:
304,208,20989,2,0,L|408:192,1,90.9999958343508
192,336,21348,1,0,0:0:0:0:
176,296,21438,1,0,0:0:0:0:
160,256,21527,1,0,0:0:0:0:
144,216,21617,1,0,0:0:0:0:
128,176,21707,2,0,L|96:80,1,90.9999958343508
448,32,22066,1,0,0:0:0:0:
432,72,22156,1,0,0:0:0:0:
416,112,22246,1,0,0:0:0:0:
400,152,22336,1,0,0:0:0:0:
384,192,22426,2,0,L|352:288,1,90.9999958343508
88,8,22785,1,0,0:0:0:0:
424,376,23054,1,0,0:0:0:0:
336,88,23324,1,0,0:0:0:0:
256,320,23504,1,0,0:0:0:0:
256,320,23683,1,0,0:0:0:0:
184,240,23863,1,0,0:0:0:0:
184,240,24042,1,0,0:0:0:0:
256,160,24222,1,0,0:0:0:0:
256,160,24402,1,0,0:0:0:0:
328,240,24581,1,0,0:0:0:0:
328,240,24761,1,0,0:0:0:0:
432,240,24941,1,0,0:0:0:0:
432,240,25120,1,0,0:0:0:0:
445,228,25210,1,0,0:0:0:0:
451,208,25300,1,0,0:0:0:0:
450,183,25390,1,0,0:0:0:0:
439,156,25480,1,0,0:0:0:0:
415,134,25569,1,0,0:0:0:0:
380,125,25659,1,0,0:0:0:0:
345,141,25749,1,0,0:0:0:0:
324,177,25839,1,0,0:0:0:0:
311,220,25929,1,0,0:0:0:0:
281,258,26018,1,0,0:0:0:0:
230,272,26108,1,0,0:0:0:0:
178,249,26198,1,0,0:0:0:0:
139,203,26288,1,0,0:0:0:0:
151,141,26378,5,0,0:0:0:0:
168,110,26468,1,0,0:0:0:0:
175,76,26557,1,0,0:0:0:0:
165,42,26647,1,0,0:0:0:0:
137,20,26737,1,0,0:0:0:0:
102,12,26827,1,0,0:0:0:0:
72,30,26917,1,0,0:0:0:0:
53,59,27007,1,0,0:0:0:0:
48,93,27096,1,0,0:0:0:0:
53,127,27186,1,0,0:0:0:0:
68,158,27276,1,0,0:0:0:0:
94,180,27366,1,0,0:0:0:0:
118,204,27456,1,0,0:0:0:0:
132,235,27545,1,0,0:0:0:0:
137,269,27635,1,0,0:0:0:0:
129,303,27725,1,0,0:0:0:0:
106,330,27815,1,0,0:0:0:0:
71,334,27905,1,0,0:0:0:0:
44,310,27995,1,0,0:0:0:0:
44,275,28084,1,0,0:0:0:0:
67,248,28174,1,0,0:0:0:0:
102,246,28264,1,0,0:0:0:0:
134,258,28354,1,0,0:0:0:0:
167,268,28444,1,0,0:0:0:0:
199,277,28533,2,0,P|272:263|295:236,1,90.9999958343508
255,144,28803,2,0,P|242:99|271:51,1,90.9999958343508
369,176,29072,2,0,P|392:219|381:269,1,90.9999958343508
364,282,29342,1,0,0:0:0:0:
336,298,29432,1,0,0:0:0:0:
305,307,29521,1,0,0:0:0:0:
273,310,29611,1,0,0:0:0:0:
241,307,29701,1,0,0:0:0:0:
210,297,29791,1,0,0:0:0:0:
182,280,29881,1,0,0:0:0:0:
160,256,29971,1,0,0:0:0:0:
144,228,30060,1,0,0:0:0:0:
135,197,30150,1,0,0:0:0:0:
139,165,30240,1,0,0:0:0:0:
153,136,30330,1,0,0:0:0:0:
174,112,30420,1,0,0:0:0:0:
202,97,30509,1,0,0:0:0:0:
233,96,30599,1,0,0:0:0:0:
261,111,30689,1,0,0:0:0:0:
279,137,30779,1,0,0:0:0:0:
297,162,30869,1,0,0:0:0:0:
323,179,30959,1,0,0:0:0:0:
353,185,31048,1,0,0:0:0:0:
384,177,31138,1,0,0:0:0:0:
409,157,31228,1,0,0:0:0:0:
422,128,31318,1,0,0:0:0:0:
413,97,31408,2,0,P|378:53|326:50,1,90.9999958343508
245,134,31677,2,0,P|213:184|242:238,1,90.9999958343508
308,311,31947,2,0,P|280:358|224:365,1,90.9999958343508
215,366,32216,5,0,0:0:0:0:
184,355,32306,1,0,0:0:0:0:
159,334,32396,1,0,0:0:0:0:
141,307,32486,1,0,0:0:0:0:
131,277,32575,1,0,0:0:0:0:
128,245,32665,1,0,0:0:0:0:
134,213,32755,1,0,0:0:0:0:
151,185,32845,1,0,0:0:0:0:
173,162,32935,1,0,0:0:0:0:
201,149,33024,1,0,0:0:0:0:
232,144,33114,1,0,0:0:0:0:
263,147,33204,1,0,0:0:0:0:
293,157,33294,1,0,0:0:0:0:
320,173,33384,1,0,0:0:0:0:
339,198,33474,1,0,0:0:0:0:
346,228,33563,1,0,0:0:0:0:
345,259,33653,1,0,0:0:0:0:
354,289,33743,1,0,0:0:0:0:
376,311,33833,1,0,0:0:0:0:
405,322,33923,1,0,0:0:0:0:
439,312,34012,1,0,0:0:0:0:
463,284,34102,1,0,0:0:0:0:
475,244,34192,1,0,0:0:0:0:
473,202,34282,1,0,0:0:0:0:
459,158,34372,1,0,0:0:0:0:
434,119,34462,1,0,0:0:0:0:
396,86,34551,1,0,0:0:0:0:
349,67,34641,1,0,0:0:0:0:
294,70,34731,1,0,0:0:0:0:
243,91,34821,1,0,0:0:0:0:
200,132,34911,1,0,0:0:0:0:
179,187,35001,5,0,0:0:0:0:
185,245,35090,1,0,0:0:0:0:
211,298,35180,1,0,0:0:0:0:
258,333,35270,1,0,0:0:0:0:
314,350,35360,1,0,0:0:0:0:
372,343,35450,1,0,0:0:0:0:
423,315,35539,1,0,0:0:0:0:
453,264,35629,1,0,0:0:0:0:
462,205,35719,1,0,0:0:0:0:
451,146,35809,1,0,0:0:0:0:
420,95,35899,1,0,0:0:0:0:
370,61,35989,1,0,0:0:0:0:
312,49,36078,1,0,0:0:0:0:
252,52,36168,1,0,0:0:0:0:
196,72,36258,1,0,0:0:0:0:
151,111,36348,1,0,0:0:0:0:
118,160,36438,1,0,0:0:0:0:
102,216,36527,1,0,0:0:0:0:
106,275,36617,1,0,0:0:0:0:
132,328,36707,1,0,0:0:0:0:
183,357,36797,1,0,0:0:0:0:
241,365,36887,1,0,0:0:0:0:
296,343,36977,1,0,0:0:0:0:
320,289,37066,1,0,0:0:0:0:
309,230,37156,2,0,L|285:173,7,45.4999979171754,0|0|0|0|0|0|0|0,0:0|0:0|0:0|0:0|0:0|0:0|0:0|0:0,0:0:0:0:
280,160,37875,1,0,0:0:0:0:
24,216,38144,1,0,0:0:0:0:
488,168,38414,1,0,0:0:0:0:
488,168,39312,1,0,0:0:0:0:
478,198,39402,1,0,0:0:0:0:
457,222,39492,1,0,0:0:0:0:
431,240,39581,1,0,0:0:0:0:
399,245,39671,1,0,0:0:0:0:
367,237,39761,1,0,0:0:0:0:
341,218,39851,1,0,0:0:0:0:
322,191,39941,1,0,0:0:0:0:
307,162,40030,1,0,0:0:0:0:
282,141,40120,1,0,0:0:0:0:
251,130,40210,1,0,0:0:0:0:
219,130,40300,1,0,0:0:0:0:
189,143,40390,1,0,0:0:0:0:
172,170,40480,1,0,0:0:0:0:
164,200,40569,1,0,0:0:0:0:
172,230,40659,1,0,0:0:0:0:
193,253,40749,5,0,0:0:0:0:
506,64,41018,1,0,0:0:0:0:
6,320,41288,1,0,0:0:0:0:
6,320,42186,1,0,0:0:0:0:
32,337,42276,1,0,0:0:0:0:
63,342,42366,1,0,0:0:0:0:
94,336,42456,1,0,0:0:0:0:
122,322,42545,1,0,0:0:0:0:
145,299,42635,1,0,0:0:0:0:
158,270,42725,1,0,0:0:0:0:
159,238,42815,1,0,0:0:0:0:
151,206,42905,1,0,0:0:0:0:
153,174,42995,1,0,0:0:0:0:
166,145,43084,1,0,0:0:0:0:
188,122,43174,1,0,0:0:0:0:
218,111,43264,1,0,0:0:0:0:
249,113,43354,1,0,0:0:0:0:
276,129,43444,1,0,0:0:0:0:
297,151,43533,1,0,0:0:0:0:
307,180,43623,1,0,0:0:0:0:
284,244,43713,5,0,0:0:0:0:
300,271,43803,1,0,0:0:0:0:
326,288,43893,1,0,0:0:0:0:
356,296,43983,1,0,0:0:0:0:
387,296,44072,1,0,0:0:0:0:
416,283,44162,1,0,0:0:0:0:
440,262,44252,1,0,0:0:0:0:
455,234,44342,1,0,0:0:0:0:
459,202,44432,1,0,0:0:0:0:
453,170,44521,1,0,0:0:0:0:
437,141,44611,1,0,0:0:0:0:
413,119,44701,1,0,0:0:0:0:
382,109,44791,1,0,0:0:0:0:
350,105,44881,1,0,0:0:0:0:
318,108,44971,1,0,0:0:0:0:
290,123,45060,1,0,0:0:0:0:
272,149,45150,1,0,0:0:0:0:
252,174,45240,1,0,0:0:0:0:
226,192,45330,1,0,0:0:0:0:
195,200,45420,1,0,0:0:0:0:
163,195,45509,1,0,0:0:0:0:
137,176,45599,1,0,0:0:0:0:
124,146,45689,1,0,0:0:0:0:
144,121,45779,1,0,0:0:0:0:
172,134,45869,1,0,0:0:0:0:
174,165,45959,1,0,0:0:0:0:
153,189,46048,1,0,0:0:0:0:
143,219,46138,1,0,0:0:0:0:
147,250,46228,1,0,0:0:0:0:
164,276,46318,1,0,0:0:0:0:
189,294,46408,1,0,0:0:0:0:
219,303,46498,6,0,L|285:290,1,45.4999979171754
353,310,46677,2,0,L|392:262,1,45.4999979171754
469,234,46857,2,0,L|443:174,1,45.4999979171754
466,102,47036,2,0,L|411:77,1,45.4999979171754
356,20,47216,2,0,L|312:52,1,45.4999979171754
227,54,47396,2,0,L|224:114,1,45.4999979171754
292,160,47575,2,0,L|243:211,1,45.4999979171754
271,284,47755,2,0,L|207:280,1,45.4999979171754
167,352,47935,2,0,L|131:305,1,45.4999979171754
54,283,48114,2,0,L|74:228,1,45.4999979171754
43,151,48294,2,0,L|100:130,1,45.4999979171754
137,58,48474,2,0,L|193:86,1,45.4999979171754
266,98,48653,2,0,L|274:169,1,45.4999979171754
268,189,48833,1,0,0:0:0:0:
241,226,48923,1,0,0:0:0:0:
202,248,49012,1,0,0:0:0:0:
156,242,49102,1,0,0:0:0:0:
122,210,49192,1,0,0:0:0:0:
118,164,49282,1,0,0:0:0:0:
148,129,49372,5,0,0:0:0:0:
182,125,49462,1,0,0:0:0:0:
216,121,49551,1,0,0:0:0:0:
250,117,49641,1,0,0:0:0:0:
284,112,49731,2,0,L|387:105,1,70,0|0,0:0|0:0,0:0:0:0:
408,304,50090,1,0,0:0:0:0:
376,304,50180,1,0,0:0:0:0:
344,304,50270,1,0,0:0:0:0:
312,304,50360,1,0,0:0:0:0:
280,304,50450,2,0,L|188:303,1,70
416,40,50809,1,0,0:0:0:0:
400,72,50899,1,0,0:0:0:0:
384,104,50989,1,0,0:0:0:0:
368,136,51078,1,0,0:0:0:0:
352,168,51168,2,0,L|312:256,1,70
96,288,51527,1,0,0:0:0:0:
440,232,51797,1,0,0:0:0:0:
216,40,52066,1,0,0:0:0:0:
176,320,52246,1,0,0:0:0:0:
160,280,52336,1,0,0:0:0:0:
144,240,52426,1,0,0:0:0:0:
128,200,52515,1,0,0:0:0:0:
112,160,52605,2,0,L|72:64,1,77.0000023498536
408,80,52965,1,0,0:0:0:0:
400,120,53054,1,0,0:0:0:0:
392,160,53144,1,0,0:0:0:0:
384,200,53234,1,0,0:0:0:0:
376,240,53324,2,0,L|360:336,1,77.0000023498536
40,216,53683,1,0,0:0:0:0:
72,200,53773,1,0,0:0:0:0:
104,184,53863,1,0,0:0:0:0:
136,168,53953,1,0,0:0:0:0:
168,152,54042,2,0,L|264:112,1,77.0000023498536
216,336,54402,1,0,0:0:0:0:
400,48,54671,1,0,0:0:0:0:
24,104,54941,1,0,0:0:0:0:
192,40,55120,1,0,0:0:0:0:
224,64,55210,1,0,0:0:0:0:
256,88,55300,1,0,0:0:0:0:
288,112,55390,1,0,0:0:0:0:
328,136,55480,2,0,L|408:200,1,83.9999974365235
96,320,55839,1,0,0:0:0:0:
104,280,55929,1,0,0:0:0:0:
112,240,56018,1,0,0:0:0:0:
120,200,56108,1,0,0:0:0:0:
128,160,56198,2,0,L|144:72,1,83.9999974365235
464,256,56557,1,0,0:0:0:0:
424,264,56647,1,0,0:0:0:0:
384,272,56737,1,0,0:0:0:0:
344,280,56827,1,0,0:0:0:0:
304,288,56917,2,0,L|200:312,1,83.9999974365235
304,32,57276,1,0,0:0:0:0:
208,352,57545,1,0,0:0:0:0:
32,136,57815,1,0,0:0:0:0:
64,304,57995,1,0,0:0:0:0:
104,288,58084,1,0,0:0:0:0:
144,272,58174,1,0,0:0:0:0:
184,256,58264,1,0,0:0:0:0:
224,240,58354,2,0,L|336:200,1,90.9999958343508
440,312,58713,1,0,0:0:0:0:
400,288,58803,1,0,0:0:0:0:
360,264,58893,1,0,0:0:0:0:
320,240,58983,1,0,0:0:0:0:
280,224,59072,2,0,L|168:168,1,90.9999958343508
496,64,59432,1,0,0:0:0:0:
464,96,59521,1,0,0:0:0:0:
432,128,59611,1,0,0:0:0:0:
400,160,59701,1,0,0:0:0:0:
368,192,59791,2,0,L|288:264,1,90.9999958343508
152,368,60150,1,0,0:0:0:0:
8,96,60420,1,0,0:0:0:0:
336,16,60689,1,0,0:0:0:0:
216,80,60869,6,0,L|128:136,1,90.9999958343508,0|0,0:0|0:0,0:0:0:0:
120,264,61228,2,0,L|196:215,1,90.9999958343508,0|0,0:0|0:0,0:0:0:0:
312,144,61587,2,0,L|360:220,1,90.9999958343508,0|0,0:0|0:0,0:0:0:0:
312,352,61947,2,0,L|263:275,1,90.9999958343508,0|0,0:0|0:0,0:0:0:0:
192,160,62306,5,0,0:0:0:0:
192,160,62486,1,0,0:0:0:0:
183,163,62575,1,0,0:0:0:0:
169,163,62665,1,0,0:0:0:0:
151,156,62755,1,0,0:0:0:0:
140,135,62845,1,0,0:0:0:0:
141,107,62935,1,0,0:0:0:0:
160,82,63024,1,0,0:0:0:0:
192,66,63114,1,0,0:0:0:0:
233,66,63204,1,0,0:0:0:0:
274,84,63294,1,0,0:0:0:0:
303,124,63384,1,0,0:0:0:0:
310,178,63474,1,0,0:0:0:0:
291,233,63563,1,0,0:0:0:0:
245,277,63653,1,0,0:0:0:0:
177,285,63743,5,0,0:0:0:0:
142,276,63833,1,0,0:0:0:0:
113,255,63923,1,0,0:0:0:0:
96,224,64012,1,0,0:0:0:0:
92,189,64102,1,0,0:0:0:0:
102,155,64192,1,0,0:0:0:0:
125,128,64282,1,0,0:0:0:0:
157,114,64372,1,0,0:0:0:0:
192,112,64462,1,0,0:0:0:0:
225,120,64551,1,0,0:0:0:0:
252,141,64641,1,0,0:0:0:0:
272,169,64731,1,0,0:0:0:0:
288,200,64821,1,0,0:0:0:0:
315,222,64911,1,0,0:0:0:0:
348,233,65001,1,0,0:0:0:0:
382,235,65090,1,0,0:0:0:0:
414,220,65180,1,0,0:0:0:0:
434,191,65270,1,0,0:0:0:0:
438,156,65360,1,0,0:0:0:0:
426,122,65450,1,0,0:0:0:0:
404,98,65539,1,0,0:0:0:0:
373,87,65629,1,0,0:0:0:0:
341,87,65719,1,0,0:0:0:0:
314,104,65809,1,0,0:0:0:0:
292,127,65899,2,0,P|271:188|284:225,1,90.9999958343508
188,336,66168,2,0,P|204:294|194:251,1,90.9999958343508
78,139,66438,2,0,P|113:167|158:165,1,90.9999958343508
185,149,66707,1,0,0:0:0:0:
203,123,66797,1,0,0:0:0:0:
210,92,66887,1,0,0:0:0:0:
199,61,66977,1,0,0:0:0:0:
172,43,67066,1,0,0:0:0:0:
140,41,67156,1,0,0:0:0:0:
111,54,67246,1,0,0:0:0:0:
89,77,67336,1,0,0:0:0:0:
74,105,67426,1,0,0:0:0:0:
68,136,67515,1,0,0:0:0:0:
69,167,67605,1,0,0:0:0:0:
78,197,67695,1,0,0:0:0:0:
96,223,67785,1,0,0:0:0:0:
121,242,67875,1,0,0:0:0:0:
150,254,67965,1,0,0:0:0:0:
181,258,68054,1,0,0:0:0:0:
212,256,68144,1,0,0:0:0:0:
243,248,68234,1,0,0:0:0:0:
271,234,68324,1,0,0:0:0:0:
293,211,68414,1,0,0:0:0:0:
307,182,68504,1,0,0:0:0:0:
312,150,68593,1,0,0:0:0:0:
309,118,68683,1,0,0:0:0:0:
295,88,68773,2,0,P|264:53|211:44,1,90.9999958343508
202,142,69042,2,0,P|214:191|183:241,1,90.9999958343508
105,309,69312,2,0,P|140:345|204:348,1,90.9999958343508,0|0,0:0|0:0,0:0:0:0:
210,351,69581,1,0,0:0:0:0:
241,344,69671,1,0,0:0:0:0:
269,328,69761,1,0,0:0:0:0:
288,303,69851,1,0,0:0:0:0:
292,271,69941,1,0,0:0:0:0:
281,241,70030,1,0,0:0:0:0:
278,209,70120,1,0,0:0:0:0:
286,178,70210,1,0,0:0:0:0:
303,151,70300,1,0,0:0:0:0:
327,130,70390,1,0,0:0:0:0:
357,119,70480,1,0,0:0:0:0:
388,117,70569,1,0,0:0:0:0:
415,133,70659,1,0,0:0:0:0:
431,160,70749,1,0,0:0:0:0:
429,191,70839,1,0,0:0:0:0:
407,214,70929,1,0,0:0:0:0:
376,222,71018,1,0,0:0:0:0:
344,219,71108,1,0,0:0:0:0:
314,205,71198,1,0,0:0:0:0:
289,185,71288,1,0,0:0:0:0:
269,153,71378,1,0,0:0:0:0:
240,129,71468,1,0,0:0:0:0:
199,122,71557,1,0,0:0:0:0:
159,134,71647,1,0,0:0:0:0:
122,161,71737,1,0,0:0:0:0:
111,205,71827,1,0,0:0:0:0:
121,253,71917,1,0,0:0:0:0:
153,291,72007,1,0,0:0:0:0:
198,320,72096,1,0,0:0:0:0:
251,330,72186,1,0,0:0:0:0:
310,325,72276,1,0,0:0:0:0:
362,296,72366,5,0,0:0:0:0:
389,243,72456,1,0,0:0:0:0:
394,184,72545,1,0,0:0:0:0:
379,126,72635,1,0,0:0:0:0:
341,80,72725,1,0,0:0:0:0:
285,59,72815,1,0,0:0:0:0:
225,61,72905,1,0,0:0:0:0:
171,85,72995,1,0,0:0:0:0:
131,128,73084,1,0,0:0:0:0:
114,184,73174,1,0,0:0:0:0:
121,242,73264,1,0,0:0:0:0:
148,294,73354,1,0,0:0:0:0:
201,319,73444,1,0,0:0:0:0:
259,325,73533,1,0,0:0:0:0:
315,308,73623,1,0,0:0:0:0:
354,263,73713,1,0,0:0:0:0:
355,203,73803,1,0,0:0:0:0:
325,151,73893,1,0,0:0:0:0:
273,121,73983,1,0,0:0:0:0:
216,136,74072,1,0,0:0:0:0:
171,175,74162,1,0,0:0:0:0:
170,234,74252,1,0,0:0:0:0:
213,274,74342,1,0,0:0:0:0:
272,271,74432,1,0,0:0:0:0:
291,215,74521,2,0,L|266:170,7,45.4999979171754,0|0|0|0|0|0|0|0,0:0|0:0|0:0|0:0|0:0|0:0|0:0|0:0,0:0:0:0:
240,120,75240,5,0,0:0:0:0:
184,8,75420,1,0,0:0:0:0:
72,64,75599,1,0,0:0:0:0:
128,176,75779,1,0,0:0:0:0:
128,304,75959,1,0,0:0:0:0:
256,304,76138,1,0,0:0:0:0:
256,176,76318,1,0,0:0:0:0:
368,240,76498,1,0,0:0:0:0:
432,136,76677,1,0,0:0:0:0:
432,136,76767,1,0,0:0:0:0:
432,136,76857,1,0,0:0:0:0:
320,72,77036,1,0,0:0:0:0:
320,72,77126,1,0,0:0:0:0:
320,72,77216,1,0,0:0:0:0:
192,72,77396,1,0,0:0:0:0:
192,72,77486,1,0,0:0:0:0:
192,72,77575,1,0,0:0:0:0:
80,136,77755,1,0,0:0:0:0:
80,136,77845,1,0,0:0:0:0:
80,136,77935,1,0,0:0:0:0:
192,192,78114,1,0,0:0:0:0:
40,256,78294,1,0,0:0:0:0:
152,312,78474,1,0,0:0:0:0:
272,280,78653,1,0,0:0:0:0:
400,152,78833,1,0,0:0:0:0:
400,280,79012,1,0,0:0:0:0:
272,152,79192,1,0,0:0:0:0:
184,64,79372,1,0,0:0:0:0:
96,152,79551,5,0,0:0:0:0:
96,152,79641,1,0,0:0:0:0:
96,152,79731,1,0,0:0:0:0:
184,240,79911,1,0,0:0:0:0:
184,240,80001,1,0,0:0:0:0:
184,240,80090,1,0,0:0:0:0:
184,64,80270,1,0,0:0:0:0:
184,64,80360,1,0,0:0:0:0:
184,64,80450,1,0,0:0:0:0:
213,64,80539,1,0,0:0:0:0:
242,68,80629,1,0,0:0:0:0:
269,79,80719,1,0,0:0:0:0:
294,94,80809,1,0,0:0:0:0:
317,112,80899,1,0,0:0:0:0:
331,137,80989,2,0,L|345:188,5,41.9999987182618,0|0|0|0|0|0,0:0|0:0|0:0|0:0|0:0|0:0,0:0:0:0:
268,305,81527,2,0,L|281:244,5,41.9999987182618,0|0|0|0|0|0,0:0|0:0|0:0|0:0|0:0|0:0,0:0:0:0:
155,210,82066,2,0,L|137:161,7,41.9999987182618,0|0|0|0|0|0|0|0,0:0|0:0|0:0|0:0|0:0|0:0|0:0|0:0,0:0:0:0:
132,141,82785,1,0,0:0:0:0:
132,111,82875,1,0,0:0:0:0:
140,82,82965,1,0,0:0:0:0:
159,59,83054,1,0,0:0:0:0:
185,45,83144,1,0,0:0:0:0:
214,40,83234,1,0,0:0:0:0:
243,44,83324,1,0,0:0:0:0:
266,61,83414,1,0,0:0:0:0:
277,88,83504,1,0,0:0:0:0:
218,189,83863,1,0,0:0:0:0:
222,218,83953,1,0,0:0:0:0:
216,246,84042,1,0,0:0:0:0:
197,268,84132,1,0,0:0:0:0:
170,281,84222,1,0,0:0:0:0:
141,287,84312,1,0,0:0:0:0:
112,281,84402,1,0,0:0:0:0:
88,263,84492,1,0,0:0:0:0:
74,237,84581,1,0,0:0:0:0:
70,207,84671,1,0,0:0:0:0:
77,178,84761,1,0,0:0:0:0:
93,153,84851,1,0,0:0:0:0:
116,135,84941,1,0,0:0:0:0:
144,127,85030,1,0,0:0:0:0:
173,128,85120,1,0,0:0:0:0:
200,138,85210,1,0,0:0:0:0:
223,156,85300,1,0,0:0:0:0:
241,179,85390,1,0,0:0:0:0:
261,200,85480,1,0,0:0:0:0:
285,216,85569,1,0,0:0:0:0:
313,224,85659,1,0,0:0:0:0:
342,221,85749,1,0,0:0:0:0:
369,209,85839,1,0,0:0:0:0:
389,188,85929,1,0,0:0:0:0:
400,161,86018,2,0,L|401:109,7,41.9999987182618,0|0|0|0|0|0|0|0,0:0|0:0|0:0|0:0|0:0|0:0|0:0|0:0,0:0:0:0:
388,80,86737,1,0,0:0:0:0:
368,42,86827,1,0,0:0:0:0:
337,13,86917,1,0,0:0:0:0:
296,4,87007,1,0,0:0:0:0:
254,4,87096,1,0,0:0:0:0:
217,24,87186,1,0,0:0:0:0:
194,59,87276,1,0,0:0:0:0:
194,101,87366,1,0,0:0:0:0:
211,139,87456,1,0,0:0:0:0:
239,168,87545,1,0,0:0:0:0:
275,189,87635,1,0,0:0:0:0:
309,213,87725,1,0,0:0:0:0:
332,247,87815,1,0,0:0:0:0:
341,287,87905,1,0,0:0:0:0:
322,324,87995,1,0,0:0:0:0:
281,333,88084,1,0,0:0:0:0:
241,317,88174,1,0,0:0:0:0:
222,279,88264,1,0,0:0:0:0:
217,237,88354,1,0,0:0:0:0:
196,200,88444,1,0,0:0:0:0:
160,177,88533,1,0,0:0:0:0:
118,170,88623,1,0,0:0:0:0:
76,166,88713,1,0,0:0:0:0:
43,138,88803,1,0,0:0:0:0:
31,97,88893,1,0,0:0:0:0:
38,55,88983,1,0,0:0:0:0:
57,18,89072,1,0,0:0:0:0:
95,4,89162,1,0,0:0:0:0:
137,4,89252,1,0,0:0:0:0:
176,12,89342,1,0,0:0:0:0:
200,45,89432,1,0,0:0:0:0:
210,85,89521,1,0,0:0:0:0:
221,125,89611,1,0,0:0:0:0:
243,160,89701,1,0,0:0:0:0:
277,183,89791,1,0,0:0:0:0:
316,196,89881,1,0,0:0:0:0:
358,194,89971,1,0,0:0:0:0:
397,180,90060,1,0,0:0:0:0:
428,151,90150,1,0,0:0:0:0:
441,110,90240,1,0,0:0:0:0:
433,68,90330,1,0,0:0:0:0:
412,31,90420,1,0,0:0:0:0:
374,14,90509,1,0,0:0:0:0:
332,22,90599,1,0,0:0:0:0:
305,54,90689,1,0,0:0:0:0:
297,95,90779,1,0,0:0:0:0:
281,134,90869,1,0,0:0:0:0:
255,167,90959,1,0,0:0:0:0:
220,190,91048,1,0,0:0:0:0:
96,208,91228,1,0,0:0:0:0:
150,68,91408,2,0,L|144:88,7,20.9999993591309,0|0|0|0|0|0|0|0,0:0|0:0|0:0|0:0|0:0|0:0|0:0|0:0,0:0:0:0:
115,100,91767,2,0,L|131:157,7,41.9999987182618,0|0|0|0|0|0|0|0,0:0|0:0|0:0|0:0|0:0|0:0|0:0|0:0,0:0:0:0:
142,179,92486,5,0,0:0:0:0:
162,215,92575,1,0,0:0:0:0:
192,244,92665,1,0,0:0:0:0:
228,264,92755,1,0,0:0:0:0:
268,276,92845,1,0,0:0:0:0:
309,280,92935,1,0,0:0:0:0:
350,276,93024,1,0,0:0:0:0:
387,256,93114,1,0,0:0:0:0:
416,225,93204,1,0,0:0:0:0:
431,185,93294,1,0,0:0:0:0:
429,142,93384,1,0,0:0:0:0:
413,102,93474,1,0,0:0:0:0:
383,72,93563,1,0,0:0:0:0:
342,58,93653,1,0,0:0:0:0:
300,60,93743,1,0,0:0:0:0:
263,81,93833,1,0,0:0:0:0:
236,113,93923,5,0,0:0:0:0:
274,144,94012,1,0,0:0:0:0:
303,184,94102,1,0,0:0:0:0:
315,232,94192,1,0,0:0:0:0:
301,280,94282,1,0,0:0:0:0:
268,318,94372,1,0,0:0:0:0:
219,333,94462,1,0,0:0:0:0:
169,333,94551,1,0,0:0:0:0:
124,309,94641,1,0,0:0:0:0:
92,269,94731,1,0,0:0:0:0:
78,220,94821,1,0,0:0:0:0:
78,169,94911,1,0,0:0:0:0:
92,120,95001,1,0,0:0:0:0:
124,81,95090,1,0,0:0:0:0:
165,52,95180,1,0,0:0:0:0:
214,41,95270,1,0,0:0:0:0:
264,46,95360,5,0,0:0:0:0:
235,76,95450,1,0,0:0:0:0:
213,111,95539,1,0,0:0:0:0:
204,152,95629,1,0,0:0:0:0:
203,194,95719,1,0,0:0:0:0:
222,231,95809,1,0,0:0:0:0:
252,259,95899,1,0,0:0:0:0:
291,274,95989,1,0,0:0:0:0:
331,281,96078,1,0,0:0:0:0:
372,277,96168,1,0,0:0:0:0:
410,259,96258,1,0,0:0:0:0:
433,224,96348,1,0,0:0:0:0:
437,182,96438,1,0,0:0:0:0:
422,143,96527,1,0,0:0:0:0:
392,113,96617,1,0,0:0:0:0:
352,98,96707,1,0,0:0:0:0:
311,108,96797,5,0,0:0:0:0:
340,148,96887,1,0,0:0:0:0:
355,196,96977,1,0,0:0:0:0:
349,245,97066,1,0,0:0:0:0:
324,289,97156,1,0,0:0:0:0:
285,321,97246,1,0,0:0:0:0:
236,335,97336,1,0,0:0:0:0:
185,332,97426,1,0,0:0:0:0:
137,315,97515,1,0,0:0:0:0:
98,282,97605,1,0,0:0:0:0:
78,235,97695,1,0,0:0:0:0:
71,184,97785,1,0,0:0:0:0:
83,135,97875,1,0,0:0:0:0:
109,92,97965,1,0,0:0:0:0:
147,60,98054,1,0,0:0:0:0:
194,42,98144,1,0,0:0:0:0:
244,40,98234,6,0,P|308:69|324:123,1,90.9999958343508
399,214,98504,2,0,P|339:222|305:264,1,90.9999958343508
202,329,98773,2,0,P|159:310|127:233,1,90.9999958343508
121,231,99042,1,0,0:0:0:0:
118,185,99132,1,0,0:0:0:0:
130,141,99222,1,0,0:0:0:0:
156,104,99312,1,0,0:0:0:0:
194,79,99402,1,0,0:0:0:0:
239,76,99492,1,0,0:0:0:0:
279,95,99581,1,0,0:0:0:0:
303,133,99671,6,0,P|313:180|283:220,1,90.9999958343508
131,268,99941,2,0,P|155:314|210:329,1,90.9999958343508
405,291,100210,2,0,P|435:253|437:203,1,90.9999958343508
430,171,100480,1,0,0:0:0:0:
411,135,100569,1,0,0:0:0:0:
381,106,100659,1,0,0:0:0:0:
344,87,100749,1,0,0:0:0:0:
304,77,100839,1,0,0:0:0:0:
262,78,100929,1,0,0:0:0:0:
222,86,101018,1,0,0:0:0:0:
187,108,101108,6,0,P|149:152|143:223,1,97.9999970092774
77,324,101378,2,0,P|118:359|183:358,1,97.9999970092774
338,282,101647,2,0,P|290:293|243:281,1,97.9999970092774
118,203,101917,2,0,P|172:170|190:120,1,97.9999970092774
193,76,102186,1,0,0:0:0:0:
319,308,102366,1,0,0:0:0:0:
256,192,102545,5,0,0:0:0:0:
238,146,102635,1,0,0:0:0:0:
247,97,102725,1,0,0:0:0:0:
280,60,102815,1,0,0:0:0:0:
326,43,102905,1,0,0:0:0:0:
374,50,102995,1,0,0:0:0:0:
415,75,103084,1,0,0:0:0:0:
444,114,103174,1,0,0:0:0:0:
462,159,103264,1,0,0:0:0:0:
461,208,103354,1,0,0:0:0:0:
445,254,103444,1,0,0:0:0:0:
412,290,103533,1,0,0:0:0:0:
368,313,103623,1,0,0:0:0:0:
320,325,103713,1,0,0:0:0:0:
271,328,103803,1,0,0:0:0:0:
222,318,103893,1,0,0:0:0:0:
177,289,103983,6,0,L|142:248,1,48.9999985046387
129,67,104162,2,0,L|161:105,1,48.9999985046387
263,211,104342,2,0,L|300:179,1,48.9999985046387,0|0,0:0|0:0,0:0:0:0:
484,137,104521,2,0,L|447:169,1,48.9999985046387,0|0,0:0|0:0,0:0:0:0:
403,209,104701,1,0,0:0:0:0:
350,236,104791,1,0,0:0:0:0:
291,242,104881,1,0,0:0:0:0:
235,221,104971,1,0,0:0:0:0:
197,176,105060,1,0,0:0:0:0:
183,118,105150,1,0,0:0:0:0:
205,63,105240,1,0,0:0:0:0:
250,25,105330,1,0,0:0:0:0:
307,13,105420,2,0,L|372:29,1,48.9999985046387
428,152,105599,2,0,L|380:140,1,48.9999985046387
293,260,105779,2,0,L|358:276,1,48.9999985046387
205,330,105959,2,0,L|157:318,1,48.9999985046387
101,298,106138,1,0,0:0:0:0:
58,257,106228,1,0,0:0:0:0:
40,200,106318,1,0,0:0:0:0:
42,141,106408,1,0,0:0:0:0:
60,84,106498,1,0,0:0:0:0:
100,42,106587,1,0,0:0:0:0:
157,29,106677,1,0,0:0:0:0:
214,42,106767,1,0,0:0:0:0:
250,88,106857,6,0,L|274:141,1,48.9999985046387
248,278,107036,2,0,L|227:233,1,48.9999985046387
115,136,107216,2,0,L|159:115,1,48.9999985046387
346,132,107396,2,0,L|302:153,1,48.9999985046387
248,178,107575,1,0,0:0:0:0:
208,221,107665,1,0,0:0:0:0:
196,278,107755,1,0,0:0:0:0:
220,331,107845,1,0,0:0:0:0:
275,350,107935,1,0,0:0:0:0:
333,345,108024,1,0,0:0:0:0:
383,314,108114,1,0,0:0:0:0:
418,267,108204,1,0,0:0:0:0:
435,210,108294,6,0,L|424:141,1,48.9999985046387
331,33,108474,2,0,L|339:82,1,48.9999985046387
300,238,108653,2,0,L|293:190,1,48.9999985046387
192,67,108833,2,0,L|200:116,1,48.9999985046387
89,285,109012,6,0,L|141:265,1,48.9999985046387
333,124,109192,2,0,L|288:142,1,48.9999985046387
53,217,109372,2,0,L|99:200,1,48.9999985046387
354,194,109551,2,0,L|308:211,1,48.9999985046387
246,231,109731,1,0,0:0:0:0:
