osu file format v14

[General]
AudioFilename: 109-oboro.mp3
AudioLeadIn: 0
PreviewTime: 46977
Countdown: 0
SampleSet: Soft
StackLeniency: 0.7
Mode: 0
LetterboxInBreaks: 0
WidescreenStoryboard: 0

[Editor]
DistanceSpacing: 1.6
BeatDivisor: 4
GridSize: 8
TimelineZoom: 1.9

[Metadata]
Title:OBORO
TitleUnicode:OBORO
Artist:Falcom Sound Team jdk
ArtistUnicode:Falcom Sound Team jdk
Creator:Adol Christin
Version:Inferno (old)
Source:Ys ORIGIN
Tags:yso イース・オリジン スーパーアレンジバージョン ost original sound track zava bammy
BeatmapID:704616
BeatmapSetID:316194

[Difficulty]
HPDrainRate:5
CircleSize:4.5
OverallDifficulty:8
ApproachRate:9.3
SliderMultiplier:2.5
SliderTickRate:1

[Events]
//Background and Video events
0,0,"BG.jpg",0,0
//Break Periods
2,73478,78478
//Storyboard Layer 0 (Background)
//Storyboard Layer 1 (Fail)
//Storyboard Layer 2 (Pass)
//Storyboard Layer 3 (Foreground)
//Storyboard Sound Samples

[TimingPoints]
-694,410.958904109589,4,2,2,40,1,0
538,-100,4,2,2,40,0,0
949,-62.5,4,2,2,40,0,0
2592,-83.3333333333333,4,2,2,40,0,0
4237,-100,4,2,1,40,0,0
10812,-100,4,2,1,40,0,0
51703,-83.3333333333333,4,2,1,40,0,0
53552,-100,4,2,1,40,0,0
58278,-83.3333333333333,4,2,1,40,0,0
60127,-100,4,2,1,40,0,0
64853,-83.3333333333333,4,2,1,40,0,0
66703,-100,4,2,1,40,0,0
71429,-83.3333333333333,4,2,1,40,0,0
73278,-100,4,2,1,40,0,0
116018,-83.3333333333333,4,2,1,40,0,0
125881,-62.5,4,2,2,40,0,0
127525,-83.3333333333333,4,2,1,40,0,0
129169,-100,4,2,1,40,0,0

[Colours]
Combo1 : 255,0,0
Combo2 : 0,255,255
Combo3 : 241,252,41

[HitObjects]
118,77,538,6,0,L|97:51,11,20.8333333333333
118,77,949,22,0,P|88:163|91:217,1,133.333333333333,12|2,0:0|0:0,0:0:0:0:
280,313,1223,2,0,P|240:256|169:219,1,133.333333333333,8|2,0:0|0:0,0:0:0:0:
312,230,1497,2,0,P|385:181|403:135,1,133.333333333333,8|2,0:0|0:0,0:0:0:0:
299,97,1771,2,0,L|313:235,1,133.333333333333,8|2,0:0|0:0,0:0:0:0:
139,301,2045,2,0,L|163:159,1,133.333333333333,8|2,0:0|0:0,0:0:0:0:
299,97,2319,1,8,3:0:0:0:
365,129,2387,1,8,3:0:0:0:
386,198,2455,1,4,3:0:0:0:
377,271,2524,1,4,3:0:0:0:
330,331,2593,6,0,P|281:347|251:351,1,75.0000028610231,2|8,0:0|0:0,0:0:0:0:
91,194,2799,2,0,P|138:174|170:170,1,75.0000028610231,8|2,0:0|0:0,0:0:0:0:
341,243,3004,2,0,P|280:235|256:221,1,75.0000028610231,8|8,0:0|0:0,0:0:0:0:
163,45,3210,2,0,P|213:53|243:71,1,75.0000028610231,8|2,0:0|0:0,0:0:0:0:
269,230,3415,2,0,P|305:228|344:246,1,74.9999977111817,8|2,0:0|0:0,0:0:0:0:
172,345,3621,1,8,0:0:0:0:
174,248,3723,1,8,0:0:0:0:
251,307,3826,1,2,0:0:0:0:
92,194,3929,1,8,0:0:0:0:
180,153,4032,1,8,0:0:0:0:
174,248,4134,1,2,0:0:0:0:
109,96,4237,6,0,P|197:66|265:122,1,187.5
306,211,4648,1,0,0:0:0:0:
77,323,5059,1,0,0:0:0:0:
66,23,5470,1,0,0:0:0:0:
363,64,5881,1,0,0:0:0:0:
351,363,6292,1,0,0:0:0:0:
51,340,6703,1,0,0:0:0:0:
90,42,7114,1,0,0:0:0:0:
358,100,7525,5,4,0:0:0:0:
305,369,7936,1,0,0:0:0:0:
32,329,8347,1,0,0:0:0:0:
70,56,8758,1,0,0:0:0:0:
299,154,9169,1,0,0:0:0:0:
144,349,9579,1,0,0:0:0:0:
175,100,9990,5,0,0:0:0:0:
280,313,10196,1,0,0:0:0:0:
317,157,10401,1,8,0:0:0:0:
249,189,10504,1,8,0:0:0:0:
183,224,10607,1,0,0:0:0:0:
407,22,10812,6,4,P|427:70|389:207,1,187.5,4|0,0:0|0:0,0:0:0:0:
382,316,11223,2,0,P|332:294|278:155,1,187.5,8|0,0:0|0:0,0:0:0:0:
229,70,11634,1,0,0:0:0:0:
175,351,11839,1,0,0:0:0:0:
448,255,12045,1,8,0:0:0:0:
205,164,12251,1,0,0:0:0:0:
285,211,12353,1,8,0:0:0:0:
298,118,12456,6,0,P|239:57|117:51,1,187.5
22,257,12867,2,0,P|76:279|200:242,1,187.5,8|0,0:0|0:0,0:0:0:0:
103,166,13278,1,0,0:0:0:0:
307,335,13484,1,0,0:0:0:0:
397,92,13689,1,8,0:0:0:0:
320,65,13792,1,8,0:0:0:0:
256,116,13895,1,0,0:0:0:0:
184,358,14100,6,0,P|148:289|184:175,1,187.5,4|0,0:0|0:0,0:0:0:0:
220,34,14511,2,0,P|264:64|273:195,1,187.5,8|0,0:0|0:0,0:0:0:0:
145,263,14922,2,0,P|179:298|198:309,1,62.5
277,186,15127,2,0,P|264:228|242:251,1,62.5,0|8,0:0|0:0,0:0:0:0:
100,134,15333,1,0,0:0:0:0:
212,77,15436,1,8,0:0:0:0:
160,189,15538,1,0,0:0:0:0:
138,65,15641,1,8,0:0:0:0:
228,152,15744,6,0,P|262:231|229:339,1,187.5
228,152,16155,2,0,P|313:118|346:123,1,125,8|0,0:0|0:0,0:0:0:0:
411,135,16463,1,0,0:0:0:0:
354,173,16566,5,8,0:0:0:0:
292,204,16669,1,8,0:0:0:0:
233,238,16771,1,8,0:0:0:0:
172,270,16874,1,8,0:0:0:0:
252,304,16977,5,8,3:0:0:0:
233,238,17079,1,8,3:0:0:0:
204,175,17182,1,4,3:0:0:0:
173,113,17285,1,4,3:0:0:0:
234,75,17388,6,0,P|188:153|89:183,1,187.5,4|0,0:0|0:0,0:0:0:0:
9,140,17799,1,8,0:0:0:0:
204,175,18004,2,0,P|311:228|334:364,1,250
100,183,18621,1,8,0:0:0:0:
224,59,19032,6,0,P|186:130|208:251,1,187.5
323,157,19442,2,0,P|349:236|341:295,1,125,8|0,0:0|0:0,0:0:0:0:
288,335,19751,1,0,0:0:0:0:
364,360,19853,1,8,0:0:0:0:
315,68,20059,1,0,0:0:0:0:
184,345,20264,1,8,0:0:0:0:
227,276,20367,1,8,0:0:0:0:
306,256,20470,1,0,0:0:0:0:
382,283,20573,1,0,0:0:0:0:
438,340,20675,6,0,P|382:288|372:164,1,187.5,4|0,0:0|0:0,0:0:0:0:
412,115,21086,1,8,0:0:0:0:
265,269,21292,2,0,P|152:280|69:177,1,250
266,159,21908,1,8,0:0:0:0:
90,372,22319,6,0,P|93:290|146:200,1,187.5
266,159,22730,2,0,P|218:118|149:116,1,125,8|0,0:0|0:0,0:0:0:0:
80,138,23038,6,0,L|53:206,1,62.5,8|0,0:0|0:0,0:0:0:0:
288,229,23244,2,0,L|323:291,1,62.5,8|0,0:0|0:0,0:0:0:0:
132,379,23449,1,0,0:0:0:0:
68,323,23552,1,8,0:0:0:0:
137,279,23655,1,8,0:0:0:0:
218,283,23758,1,8,0:0:0:0:
271,343,23860,1,0,0:0:0:0:
197,377,23963,6,0,P|212:296|294:228,1,187.5,4|0,0:0|0:0,0:0:0:0:
366,204,24374,1,8,0:0:0:0:
288,7,24579,2,0,P|243:142|292:231,1,250
366,42,25196,1,0,0:0:0:0:
246,148,25607,6,0,P|172:112|71:155,1,187.5
219,237,26018,2,0,P|228:293|170:349,1,125,8|0,0:0|0:0,0:0:0:0:
91,375,26326,1,8,0:0:0:0:
118,299,26429,1,0,0:0:0:0:
448,351,26634,1,0,0:0:0:0:
83,227,26840,1,8,0:0:0:0:
135,165,26942,1,8,0:0:0:0:
87,98,27045,1,8,0:0:0:0:
140,36,27148,1,8,0:0:0:0:
190,100,27251,6,0,P|259:153|366:158,1,187.5,4|0,0:0|0:0,0:0:0:0:
439,103,27662,1,8,0:0:0:0:
448,368,27867,2,0,P|391:327|359:151,1,250
157,314,28484,1,8,0:0:0:0:
82,157,28895,6,0,P|170:158|259:228,1,187.5
308,324,29305,2,0,P|359:304|442:306,1,125,8|0,0:0|0:0,0:0:0:0:
512,360,29614,6,0,L|500:292,1,62.5,8|0,0:0|0:0,0:0:0:0:
378,218,29819,2,0,L|367:293,1,62.5,8|0,0:0|0:0,0:0:0:0:
355,120,30025,1,0,0:0:0:0:
470,72,30127,1,8,0:0:0:0:
347,44,30230,1,0,0:0:0:0:
430,139,30333,1,0,0:0:0:0:
422,14,30436,1,0,0:0:0:0:
280,90,30538,5,4,0:0:0:0:
307,322,30949,1,0,0:0:0:0:
296,68,31360,1,0,0:0:0:0:
280,335,31771,1,0,0:0:0:0:
310,48,32182,1,0,0:0:0:0:
258,343,32593,1,0,0:0:0:0:
329,27,33004,1,0,0:0:0:0:
238,344,33415,1,0,0:0:0:0:
381,155,33826,5,4,0:0:0:0:
133,225,34237,1,0,0:0:0:0:
404,169,34648,1,0,0:0:0:0:
107,205,35059,1,0,0:0:0:0:
424,194,35470,1,0,0:0:0:0:
81,172,35881,1,0,0:0:0:0:
436,221,36292,1,0,0:0:0:0:
194,283,36497,1,0,0:0:0:0:
98,51,36703,1,8,0:0:0:0:
161,101,36806,1,8,0:0:0:0:
224,151,36908,1,0,0:0:0:0:
378,51,37114,6,0,P|421:108|434:228,1,187.5,4|0,0:0|0:0,0:0:0:0:
402,315,37525,1,8,0:0:0:0:
294,113,37730,1,0,0:0:0:0:
205,160,37833,1,0,0:0:0:0:
209,59,37936,2,0,P|240:112|257:183,1,125
113,277,38347,1,8,0:0:0:0:
289,212,38552,1,0,0:0:0:0:
327,304,38655,1,0,0:0:0:0:
229,281,38758,6,0,P|293:254|422:262,1,187.5
349,118,39169,2,0,P|275:95|157:101,1,187.5,8|0,0:0|0:0,0:0:0:0:
77,143,39579,1,0,0:0:0:0:
431,185,39785,1,0,0:0:0:0:
152,311,39990,1,8,0:0:0:0:
231,328,40093,1,8,0:0:0:0:
311,341,40196,1,0,0:0:0:0:
245,80,40401,6,0,P|185:81|74:146,1,187.5,4|0,0:0|0:0,0:0:0:0:
226,168,40812,2,0,P|304:177|411:238,1,187.5,8|0,0:0|0:0,0:0:0:0:
250,261,41223,2,0,P|198:252|125:271,1,125
41,319,41532,1,8,0:0:0:0:
46,244,41634,1,0,0:0:0:0:
87,181,41737,1,8,0:0:0:0:
86,105,41840,1,0,0:0:0:0:
142,55,41942,1,0,0:0:0:0:
228,168,42045,6,0,P|291:160|390:84,1,187.5
323,151,42456,2,0,P|307:198|312:272,1,125,8|0,0:0|0:0,0:0:0:0:
390,292,42764,1,8,0:0:0:0:
329,309,42867,5,8,0:0:0:0:
268,327,42970,1,8,0:0:0:0:
209,348,43073,1,8,0:0:0:0:
149,366,43175,1,8,0:0:0:0:
160,304,43278,5,8,3:0:0:0:
169,242,43381,1,8,3:0:0:0:
182,180,43484,1,4,3:0:0:0:
194,119,43586,1,4,3:0:0:0:
204,57,43689,5,4,0:0:0:0:
309,350,44100,1,0,0:0:0:0:
318,53,44511,1,0,0:0:0:0:
180,327,44922,1,0,0:0:0:0:
386,125,45230,5,0,0:0:0:0:
386,125,45333,1,0,0:0:0:0:
210,222,45641,1,0,0:0:0:0:
260,158,45744,2,0,P|323:181|364:229,1,125,8|0,0:0|0:0,0:0:0:0:
72,215,46155,6,0,L|50:258,1,41.6666666666667,8|8,0:0|0:0,0:0:0:0:
57,88,46292,6,0,L|107:71,1,41.6666666666667,8|8,0:0|0:0,0:0:0:0:
178,148,46429,6,0,P|208:194|208:228,1,83.3333333333333,0|8,3:0|0:0,0:0:0:0:
153,361,46703,1,0,0:0:0:0:
235,290,46840,1,8,0:0:0:0:
188,323,46977,6,0,P|205:228|262:156,1,187.5,4|0,0:0|0:0,0:0:0:0:
373,114,47388,1,8,0:0:0:0:
268,42,47593,2,0,P|352:82|400:231,1,250
188,323,48210,1,8,0:0:0:0:
188,323,48312,1,8,0:0:0:0:
68,187,48621,6,0,P|159:187|241:133,1,187.5
150,19,49032,2,0,P|237:23|283:57,1,125
332,118,49340,1,0,0:0:0:0:
188,323,49545,1,0,0:0:0:0:
332,118,49751,1,0,0:0:0:0:
336,242,49853,2,0,L|282:173,1,62.5,8|8,0:0|0:0,0:0:0:0:
373,41,50059,1,0,0:0:0:0:
98,92,50264,6,0,B|98:176|98:176|98:236|158:269,1,187.5
205,180,50675,1,8,0:0:0:0:
366,370,50881,1,0,0:0:0:0:
366,370,51292,1,0,0:0:0:0:
314,125,51497,1,8,0:0:0:0:
112,274,51703,2,0,L|33:249,2,74.9999977111817
376,105,52114,5,8,0:0:0:0:
314,125,52182,5,8,0:0:0:0:
251,144,52251,5,8,0:0:0:0:
188,158,52319,6,0,L|202:69,2,74.9999977111817,8|8|0,0:0|0:0|0:0,0:0:0:0:
380,201,52730,6,0,L|355:279,1,74.9999977111817,8|8,0:0|0:0,0:0:0:0:
249,142,52936,2,0,L|214:69,1,74.9999977111817,0|8,0:0|0:0,0:0:0:0:
194,251,53141,1,8,0:0:0:0:
219,347,53244,1,0,0:0:0:0:
316,322,53347,1,8,0:0:0:0:
296,224,53449,1,8,0:0:0:0:
256,288,53552,6,0,P|319:325|436:320,1,187.5,4|0,0:0|0:0,0:0:0:0:
501,250,53963,1,8,0:0:0:0:
255,288,54169,2,0,P|272:139|373:52,1,250
255,288,54785,1,8,0:0:0:0:
250,284,54888,1,0,0:0:0:0:
507,134,55196,6,0,P|433:86|301:74,1,187.5
246,113,55607,1,8,0:0:0:0:
92,317,55915,2,0,P|134:267|202:262,2,125
191,372,56429,5,8,0:0:0:0:
190,258,56532,1,8,0:0:0:0:
92,317,56634,1,0,0:0:0:0:
328,336,56840,6,0,P|396:364|508:332,1,187.5,4|0,0:0|0:0,0:0:0:0:
460,247,57251,1,8,0:0:0:0:
220,268,57456,2,0,B|159:235|159:168|159:168|159:103|224:67,1,250
298,263,58073,1,8,0:0:0:0:
442,125,58278,2,0,L|366:145,1,74.9999977111817
162,184,58484,5,8,0:0:0:0:
146,204,58895,1,8,0:0:0:0:
130,222,59305,5,8,0:0:0:0:
121,231,59408,1,8,0:0:0:0:
113,241,59511,1,0,0:0:0:0:
104,250,59614,1,8,0:0:0:0:
179,222,59716,5,0,0:0:0:0:
257,201,59819,5,8,0:0:0:0:
338,199,59922,5,0,0:0:0:0:
416,221,60025,5,8,0:0:0:0:
491,248,60127,6,0,P|453:185|447:67,1,187.5,4|0,0:0|0:0,0:0:0:0:
512,0,60538,1,8,0:0:0:0:
445,164,60744,2,0,B|400:239|320:239|320:239|219:239,1,250
31,168,61360,1,8,0:0:0:0:
31,168,61463,1,0,0:0:0:0:
215,71,61771,6,0,B|259:118|259:168|259:168|258:252,1,187.5
196,155,62182,2,0,P|265:129|321:130,1,125,8|0,0:0|0:0,0:0:0:0:
408,165,62490,1,0,0:0:0:0:
114,220,62696,1,0,0:0:0:0:
444,279,62901,1,0,0:0:0:0:
310,266,63004,2,0,L|394:231,1,62.5,0|8,0:0|0:0,0:0:0:0:
491,198,63210,1,0,0:0:0:0:
266,201,63415,6,0,P|183:194|106:120,1,187.5,4|0,0:0|0:0,0:0:0:0:
163,42,63826,1,8,0:0:0:0:
133,320,64032,1,0,0:0:0:0:
133,320,64442,1,0,0:0:0:0:
364,222,64648,1,8,0:0:0:0:
164,72,64853,2,0,L|184:147,2,74.9999977111817
172,239,65264,5,8,0:0:0:0:
231,211,65333,5,8,0:0:0:0:
289,183,65401,5,8,0:0:0:0:
347,154,65470,6,0,L|278:121,2,74.9999977111817,8|8|0,0:0|0:0|0:0,0:0:0:0:
297,263,65881,2,0,L|328:337,1,74.9999977111817,8|8,0:0|0:0,0:0:0:0:
172,239,66086,2,0,L|191:143,1,74.9999977111817,0|8,0:0|0:0,0:0:0:0:
145,19,66292,1,8,0:0:0:0:
249,126,66395,1,0,0:0:0:0:
249,16,66497,1,8,0:0:0:0:
143,122,66600,1,8,0:0:0:0:
273,197,66703,6,0,P|379:194|442:137,1,187.5,4|0,0:0|0:0,0:0:0:0:
383,59,67114,1,8,0:0:0:0:
143,122,67319,2,0,B|68:175|68:252|68:252|68:348,1,250
324,275,67936,1,8,0:0:0:0:
324,275,68038,1,0,0:0:0:0:
143,121,68347,6,0,P|234:124|314:177,1,187.5
324,275,68758,1,8,0:0:0:0:
54,210,69066,2,0,P|24:265|22:326,2,125
143,121,69579,5,8,0:0:0:0:
226,214,69682,1,8,0:0:0:0:
145,309,69785,1,0,0:0:0:0:
324,280,69990,6,0,P|400:224|505:229,1,187.5,4|0,0:0|0:0,0:0:0:0:
507,322,70401,1,8,0:0:0:0:
343,150,70607,2,0,P|229:107|109:148,1,250
229,361,71223,1,8,0:0:0:0:
431,275,71429,2,0,L|356:248,1,74.9999977111817
182,191,71634,5,8,0:0:0:0:
198,215,72045,1,8,0:0:0:0:
215,239,72456,1,8,0:0:0:0:
222,252,72559,1,8,0:0:0:0:
231,263,72662,1,0,0:0:0:0:
238,275,72764,1,8,0:0:0:0:
208,205,72867,5,0,0:0:0:0:
184,125,72970,5,8,0:0:0:0:
252,78,73073,5,0,0:0:0:0:
320,123,73175,5,8,0:0:0:0:
295,200,73278,5,4,0:0:0:0:
280,72,79032,37,0,0:0:0:0:
154,262,79237,1,0,0:0:0:0:
230,80,79442,1,8,0:0:0:0:
211,159,79545,1,8,0:0:0:0:
193,239,79648,1,0,0:0:0:0:
108,101,79853,6,0,B|56:146|56:187|56:187|56:283,1,187.5,4|0,0:0|0:0,0:0:0:0:
193,239,80264,2,0,B|215:192|266:192|266:192|371:193,1,187.5,8|0,0:0|0:0,0:0:0:0:
446,245,80675,1,0,0:0:0:0:
174,341,80881,1,0,0:0:0:0:
232,60,81086,1,8,0:0:0:0:
136,248,81292,1,0,0:0:0:0:
84,334,81395,1,8,0:0:0:0:
43,243,81497,6,0,P|51:157|114:74,1,187.5
216,167,81908,2,0,P|290:161|401:211,1,187.5,8|0,0:0|0:0,0:0:0:0:
464,274,82319,1,0,0:0:0:0:
161,320,82525,1,0,0:0:0:0:
378,196,82730,1,8,0:0:0:0:
297,182,82833,1,8,0:0:0:0:
216,167,82936,1,0,0:0:0:0:
403,105,83141,6,0,P|444:154|460:287,1,187.5,4|0,0:0|0:0,0:0:0:0:
357,350,83552,2,0,P|349:257|296:181,1,187.5,8|0,0:0|0:0,0:0:0:0:
203,160,83963,2,0,L|222:229,1,62.5
73,327,84169,2,0,L|93:261,1,62.5,0|8,0:0|0:0,0:0:0:0:
151,84,84374,1,0,0:0:0:0:
190,199,84476,1,8,0:0:0:0:
91,130,84579,1,0,0:0:0:0:
212,127,84682,1,8,0:0:0:0:
116,201,84785,6,0,P|163:120|258:66,1,187.5
377,46,85196,2,0,P|368:115|383:169,1,125,8|0,0:0|0:0,0:0:0:0:
468,219,85504,1,0,0:0:0:0:
402,197,85607,5,8,0:0:0:0:
335,179,85710,1,8,0:0:0:0:
270,157,85812,1,8,0:0:0:0:
205,132,85915,1,8,0:0:0:0:
296,88,86018,5,8,3:0:0:0:
233,117,86121,1,8,3:0:0:0:
173,150,86223,1,4,3:0:0:0:
112,183,86326,1,4,3:0:0:0:
122,102,86429,6,0,P|177:160|188:272,1,187.5,4|0,0:0|0:0,0:0:0:0:
125,339,86840,1,8,0:0:0:0:
173,150,87045,2,0,P|200:80|360:48,1,250
427,288,87662,1,8,0:0:0:0:
149,68,88073,6,0,P|191:152|159:238,1,187.5
297,206,88484,2,0,P|349:248|371:303,1,125,8|0,0:0|0:0,0:0:0:0:
315,356,88792,1,8,0:0:0:0:
393,378,88895,1,0,0:0:0:0:
346,82,89100,1,0,0:0:0:0:
122,284,89306,1,8,0:0:0:0:
197,255,89408,1,8,0:0:0:0:
271,221,89511,1,0,0:0:0:0:
346,191,89614,1,0,0:0:0:0:
333,270,89716,6,0,P|282:200|275:101,1,187.5
344,30,90127,1,8,0:0:0:0:
331,268,90333,2,0,P|257:316|103:261,1,250
208,59,90949,1,8,0:0:0:0:
329,267,91360,6,0,P|394:181|391:102,1,187.5
282,152,91771,2,0,P|216:149|161:111,1,125,8|0,0:0|0:0,0:0:0:0:
116,31,92079,6,0,L|72:98,1,62.5
39,183,92285,2,0,L|4:130,1,62.5,8|0,0:0|0:0,0:0:0:0:
134,217,92490,1,0,0:0:0:0:
45,264,92593,1,8,0:0:0:0:
37,182,92696,1,8,0:0:0:0:
98,128,92799,1,8,0:0:0:0:
178,127,92901,1,0,0:0:0:0:
221,196,93004,6,0,P|299:255|391:256,1,187.5
465,196,93415,1,8,0:0:0:0:
299,29,93621,2,0,P|344:127|285:265,1,250
114,52,94237,1,8,0:0:0:0:
221,196,94648,6,0,P|192:281|230:374,1,187.5
328,277,95059,2,0,P|363:321|441:345,1,125,8|0,0:0|0:0,0:0:0:0:
469,276,95367,1,8,0:0:0:0:
508,346,95470,1,0,0:0:0:0:
148,281,95675,1,0,0:0:0:0:
431,208,95881,1,8,0:0:0:0:
367,157,95984,1,8,0:0:0:0:
335,82,96086,1,8,0:0:0:0:
358,3,96189,1,0,0:0:0:0:
422,81,96292,6,0,P|353:104|280:193,1,187.5
281,290,96703,1,8,0:0:0:0:
88,331,96908,2,0,P|139:210|83:117,1,250
8,292,97525,1,8,0:0:0:0:
209,154,97936,6,0,P|293:109|389:117,1,187.5
333,246,98347,2,0,P|304:207|300:125,1,125,8|0,0:0|0:0,0:0:0:0:
317,53,98655,6,0,L|244:68,1,62.5,8|0,0:0|0:0,0:0:0:0:
64,138,98860,2,0,L|137:153,1,62.5,8|0,0:0|0:0,0:0:0:0:
304,191,99066,1,0,0:0:0:0:
182,222,99169,1,8,0:0:0:0:
297,266,99271,1,0,0:0:0:0:
230,159,99374,1,0,0:0:0:0:
224,284,99477,1,0,0:0:0:0:
341,325,99579,5,0,0:0:0:0:
87,220,99990,1,0,0:0:0:0:
222,364,100401,1,0,0:0:0:0:
161,77,100812,1,0,0:0:0:0:
123,315,101223,1,0,0:0:0:0:
268,53,101634,1,0,0:0:0:0:
87,220,102045,1,0,0:0:0:0:
380,88,102456,1,0,0:0:0:0:
306,315,102867,5,4,0:0:0:0:
234,120,103278,1,0,0:0:0:0:
201,284,103689,1,0,0:0:0:0:
356,102,104100,1,0,0:0:0:0:
128,190,104511,1,0,0:0:0:0:
422,209,104922,1,0,0:0:0:0:
114,94,105333,1,0,0:0:0:0:
173,290,105538,1,0,0:0:0:0:
132,110,105744,1,8,0:0:0:0:
128,190,105847,1,8,0:0:0:0:
122,270,105949,1,0,0:0:0:0:
370,152,106155,6,0,P|279:155|190:210,1,187.5,4|0,0:0|0:0,0:0:0:0:
122,270,106566,1,8,0:0:0:0:
407,227,106771,1,0,0:0:0:0:
325,222,106874,1,0,0:0:0:0:
275,157,106977,2,0,P|252:102|265:39,1,125
361,300,107388,1,8,0:0:0:0:
88,346,107593,1,0,0:0:0:0:
33,287,107696,1,0,0:0:0:0:
31,205,107799,6,0,P|54:119|137:61,1,187.5
188,188,108210,2,0,P|291:182|361:234,1,187.5,8|0,0:0|0:0,0:0:0:0:
408,314,108621,1,0,0:0:0:0:
88,346,108826,1,0,0:0:0:0:
162,30,109032,1,8,0:0:0:0:
178,108,109134,1,8,0:0:0:0:
188,188,109237,1,0,0:0:0:0:
88,346,109442,6,0,P|172:288|266:284,1,187.5,4|0,0:0|0:0,0:0:0:0:
409,264,109853,2,0,P|325:206|231:202,1,187.5,8|0,0:0|0:0,0:0:0:0:
104,186,110264,2,0,P|134:144|208:121,1,125
282,131,110573,1,8,0:0:0:0:
341,76,110675,1,0,0:0:0:0:
410,120,110778,1,8,0:0:0:0:
453,51,110881,1,0,0:0:0:0:
508,110,110984,1,0,0:0:0:0:
466,179,111086,6,0,P|498:268|468:363,1,187.5
369,272,111497,2,0,P|312:258|246:275,1,125
310,326,111805,1,8,0:0:0:0:
295,258,111908,5,8,0:0:0:0:
275,191,112011,1,8,0:0:0:0:
256,124,112114,1,8,0:0:0:0:
236,58,112216,1,8,0:0:0:0:
323,107,112319,5,8,3:0:0:0:
257,127,112422,1,8,3:0:0:0:
192,151,112525,1,4,3:0:0:0:
126,170,112627,1,4,3:0:0:0:
60,191,112730,5,4,0:0:0:0:
337,345,113141,1,0,0:0:0:0:
168,197,113552,1,0,0:0:0:0:
485,273,113963,1,0,0:0:0:0:
257,146,114271,1,0,0:0:0:0:
257,146,114374,1,0,0:0:0:0:
391,44,114682,1,0,0:0:0:0:
367,138,114785,2,0,P|305:94|293:19,1,156.25,8|0,0:0|0:0,0:0:0:0:
316,265,115196,6,0,L|352:318,1,41.6666666666667,8|8,0:0|0:0,0:0:0:0:
151,274,115333,2,0,L|195:241,1,41.6666666666667,8|0,0:0|0:0,0:0:0:0:
336,165,115470,2,0,P|298:149|257:146,1,83.3333333333333
246,327,115744,2,0,P|302:357|345:359,1,83.3333333333333,8|0,0:0|0:0,0:0:0:0:
227,240,116018,5,8,0:0:0:0:
152,203,116121,1,8,0:0:0:0:
102,268,116223,2,0,L|196:255,1,74.9999977111817,8|0,0:0|0:0,0:0:0:0:
294,270,116429,5,8,0:0:0:0:
289,187,116532,1,8,0:0:0:0:
366,160,116634,2,0,L|336:228,1,74.9999977111817,8|0,0:0|0:0,0:0:0:0:
268,114,116840,5,8,0:0:0:0:
193,147,116942,2,0,L|110:188,1,74.9999977111817,8|0,0:0|0:0,0:0:0:0:
227,240,117148,6,0,L|310:281,1,74.9999977111817,8|0,0:0|0:0,0:0:0:0:
378,188,117353,5,8,0:0:0:0:
384,270,117456,2,0,L|410:357,1,74.9999977111817,8|0,0:0|0:0,0:0:0:0:
294,273,117662,5,8,0:0:0:0:
233,218,117764,1,8,0:0:0:0:
271,144,117867,2,0,L|346:89,1,74.9999977111817,8|0,0:0|0:0,0:0:0:0:
447,104,118073,5,8,0:0:0:0:
425,24,118175,1,8,0:0:0:0:
344,5,118278,2,0,L|272:59,1,74.9999977111817,8|0,0:0|0:0,0:0:0:0:
164,73,118484,5,8,0:0:0:0:
187,151,118586,2,0,L|160:243,1,74.9999977111817,8|0,0:0|0:0,0:0:0:0:
264,293,118792,6,0,L|291:385,1,74.9999977111817,8|0,0:0|0:0,0:0:0:0:
366,276,118997,5,8,0:0:0:0:
309,215,119100,2,0,L|228:208,1,74.9999977111817,8|0,0:0|0:0,0:0:0:0:
303,92,119305,5,8,0:0:0:0:
362,149,119408,1,8,0:0:0:0:
309,215,119511,2,0,L|316:302,1,74.9999977111817,8|0,0:0|0:0,0:0:0:0:
231,378,119716,5,8,0:0:0:0:
249,297,119819,1,8,0:0:0:0:
205,226,119922,2,0,L|192:139,1,74.9999977111817,8|0,0:0|0:0,0:0:0:0:
172,12,120127,5,8,0:0:0:0:
98,48,120230,2,0,L|18:92,1,74.9999977111817,8|0,0:0|0:0,0:0:0:0:
110,178,120436,6,0,L|81:269,1,74.9999977111817,8|0,0:0|0:0,0:0:0:0:
171,339,120641,5,8,0:0:0:0:
234,294,120744,2,0,L|201:210,1,74.9999977111817,8|0,0:0|0:0,0:0:0:0:
156,110,120949,5,8,0:0:0:0:
110,178,121052,1,8,0:0:0:0:
58,242,121155,2,0,L|0:311,1,74.9999977111817,8|0,0:0|0:0,0:0:0:0:
171,339,121360,5,8,0:0:0:0:
191,258,121463,1,8,0:0:0:0:
215,179,121566,2,0,L|239:92,1,74.9999977111817,8|0,0:0|0:0,0:0:0:0:
348,32,121771,5,8,0:0:0:0:
368,112,121874,2,0,L|393:205,1,74.9999977111817,8|0,0:0|0:0,0:0:0:0:
421,317,122079,6,0,L|439:231,1,74.9999977111817,8|0,0:0|0:0,0:0:0:0:
462,109,122285,5,8,0:0:0:0:
447,190,122388,2,0,L|429:272,1,74.9999977111817,8|0,0:0|0:0,0:0:0:0:
342,353,122593,1,8,0:0:0:0:
256,192,122696,12,0,124237,0:0:0:0:
182,91,124340,5,8,0:0:0:0:
166,186,124442,1,8,0:0:0:0:
261,204,124545,1,8,0:0:0:0:
278,107,124648,1,8,0:0:0:0:
210,188,124751,2,0,P|199:229|200:286,1,74.9999977111817,8|0,0:0|0:0,0:0:0:0:
344,160,124956,2,0,P|356:111|351:77,1,74.9999977111817,8|0,0:0|0:0,0:0:0:0:
287,23,125162,1,0,0:0:0:0:
287,23,125264,2,0,P|254:10|185:4,1,74.9999977111817
68,41,125470,5,8,0:0:0:0:
79,115,125573,1,8,0:0:0:0:
93,188,125675,1,8,0:0:0:0:
107,261,125778,1,8,0:0:0:0:
118,332,125881,6,0,P|195:325|256:304,1,133.333333333333,8|2,0:0|0:0,0:0:0:0:
344,160,126155,2,0,P|326:227|346:289,1,133.333333333333,8|2,0:0|0:0,0:0:0:0:
434,118,126429,2,0,P|378:84|311:72,1,133.333333333333,8|2,0:0|0:0,0:0:0:0:
190,124,126703,2,0,L|170:287,1,133.333333333333,8|2,0:0|0:0,0:0:0:0:
360,292,126977,2,0,L|343:159,1,133.333333333333,8|2,0:0|0:0,0:0:0:0:
193,32,127251,1,8,0:0:0:0:
262,53,127319,1,8,0:0:0:0:
333,71,127388,1,8,0:0:0:0:
401,95,127456,1,8,0:0:0:0:
469,122,127525,6,0,L|400:166,1,74.9999977111817,0|8,0:0|0:0,0:0:0:0:
264,195,127730,2,0,L|348:234,1,74.9999977111817,8|8,0:0|0:0,0:0:0:0:
162,345,127936,2,0,L|181:273,1,74.9999977111817,8|8,0:0|0:0,0:0:0:0:
80,138,128141,2,0,L|106:224,1,74.9999977111817,8|0,0:0|0:0,0:0:0:0:
191,121,128347,2,0,L|218:22,1,74.9999977111817,8|0,0:0|0:0,0:0:0:0:
177,211,128552,5,8,0:0:0:0:
191,121,128655,1,8,0:0:0:0:
266,194,128758,1,0,0:0:0:0:
238,279,128860,1,8,0:0:0:0:
150,299,128963,1,8,0:0:0:0:
89,232,129066,1,8,0:0:0:0:
101,142,129169,6,0,P|191:113|266:162,1,187.5
314,245,129579,1,0,0:0:0:0:
