osu file format v12

[General]
AudioFilename: Ernst.mp3
AudioLeadIn: 0
PreviewTime: 38667
Countdown: 0
SampleSet: Normal
StackLeniency: 0.7
Mode: 1
LetterboxInBreaks: 0

[Editor]
Bookmarks: 4801,9067,21467,21867,38934,55601,66667,83734,101867
DistanceSpacing: 0.9
BeatDivisor: 4
GridSize: 16

[Metadata]
Title:Ernst
TitleUnicode:Ernst
Artist:Falcom Sound Team jdk
ArtistUnicode:Falcom Sound Team jdk
Creator:Pheon
Version:Kantan
Source:Ys VI: The Ark of Napishtim
Tags:Konami Taiko those
BeatmapID:191564
BeatmapSetID:65379

[Difficulty]
HPDrainRate:7
CircleSize:5
OverallDifficulty:5
ApproachRate:5
SliderMultiplier:1.2
SliderTickRate:1

[Events]
//Background and Video events
0,0,"135966.jpg",0,0
//Break Periods
//Storyboard Layer 0 (Background)
//Storyboard Layer 1 (Fail)
//Storyboard Layer 2 (Pass)
//Storyboard Layer 3 (Foreground)
//Storyboard Sound Samples
//Background Colour Transformations
3,100,0,0,0

[TimingPoints]
614,266.666666666667,4,1,0,70,1,0
66747,-100,4,1,0,70,0,1
81680,-100,4,1,0,70,0,0
83814,-100,4,1,0,70,0,1
101947,-100,4,1,0,70,0,0

[Colours]
Combo1 : 255,0,0
Combo2 : 10,105,222

[HitObjects]
256,192,4880,1,0,0:0:0:0:
256,192,5414,5,0,0:0:0:0:
256,192,5947,1,0,0:0:0:0:
256,192,7014,1,0,0:0:0:0:
256,192,7814,1,0,0:0:0:0:
256,192,8080,1,0,0:0:0:0:
256,192,9147,5,2,0:0:0:0:
256,192,9680,1,2,0:0:0:0:
256,192,10214,1,2,0:0:0:0:
256,192,11280,1,2,0:0:0:0:
256,192,11814,1,2,0:0:0:0:
256,192,12347,1,2,0:0:0:0:
256,192,13414,5,0,0:0:0:0:
256,192,13947,1,0,0:0:0:0:
256,192,14480,5,2,0:0:0:0:
256,192,15547,5,0,0:0:0:0:
256,192,16347,5,2,0:0:0:0:
256,192,16614,1,2,0:0:0:0:
256,192,17680,5,0,0:0:0:0:
256,192,18214,5,2,0:0:0:0:
256,192,18747,5,0,0:0:0:0:
256,192,19280,5,2,0:0:0:0:
256,192,19814,5,0,0:0:0:0:
256,192,20880,1,4,0:0:0:0:
256,192,21947,1,0,0:0:0:0:
256,192,22480,1,0,0:0:0:0:
256,192,23014,5,2,0:0:0:0:
256,192,23547,5,0,0:0:0:0:
256,192,24080,1,0,0:0:0:0:
256,192,24880,1,0,0:0:0:0:
256,192,25147,1,0,0:0:0:0:
256,192,25680,5,2,0:0:0:0:
256,192,26214,5,0,0:0:0:0:
256,192,26747,1,0,0:0:0:0:
256,192,27280,5,2,0:0:0:0:
256,192,27814,1,2,0:0:0:0:
256,192,28347,5,0,0:0:0:0:
256,192,29147,1,0,0:0:0:0:
256,192,29414,1,0,0:0:0:0:
256,192,30480,1,0,0:0:0:0:
256,192,31014,5,2,0:0:0:0:
256,192,31547,5,0,0:0:0:0:
256,192,32080,5,2,0:0:0:0:
256,192,32614,5,0,0:0:0:0:
256,192,33414,1,0,0:0:0:0:
256,192,33680,1,0,0:0:0:0:
256,192,34214,5,2,0:0:0:0:
256,192,34747,5,0,0:0:0:0:
256,192,35280,5,2,0:0:0:0:
256,192,35814,1,2,0:0:0:0:
256,192,36347,1,2,0:0:0:0:
256,192,36880,5,0,0:0:0:0:
256,192,37680,5,2,0:0:0:0:
144,192,37947,2,0,L|400:192,1,240
256,192,39014,5,0,0:0:0:0:
256,192,39547,1,0,0:0:0:0:
256,192,40080,5,2,0:0:0:0:
256,192,40614,5,0,0:0:0:0:
256,192,41147,5,2,0:0:0:0:
256,192,42214,1,2,0:0:0:0:
256,192,42747,5,0,0:0:0:0:
256,192,43280,1,0,0:0:0:0:
256,192,44080,1,0,0:0:0:0:
256,192,44347,1,0,0:0:0:0:
256,192,45147,1,0,0:0:0:0:
256,192,45414,1,0,0:0:0:0:
256,192,45947,1,0,0:0:0:0:
256,192,46480,5,2,0:0:0:0:
256,192,47547,5,0,0:0:0:0:
256,192,48080,1,0,0:0:0:0:
256,192,48614,5,2,0:0:0:0:
256,192,49147,5,0,0:0:0:0:
256,192,49680,5,2,0:0:0:0:
256,192,50747,1,2,0:0:0:0:
256,192,51280,1,2,0:0:0:0:
256,192,51814,1,2,0:0:0:0:
256,192,52614,1,2,0:0:0:0:
256,192,52880,1,2,0:0:0:0:
256,192,53680,5,0,0:0:0:0:
256,192,53947,1,0,0:0:0:0:
256,192,54480,1,0,0:0:0:0:
256,192,55014,1,4,0:0:0:0:
256,192,56080,1,0,0:0:0:0:
256,192,57147,1,0,0:0:0:0:
256,192,57547,5,2,0:0:0:0:
256,192,58214,5,0,0:0:0:0:
256,192,59280,1,0,0:0:0:0:
256,192,59680,5,2,0:0:0:0:
256,192,60347,5,0,0:0:0:0:
256,192,60747,1,0,0:0:0:0:
256,192,61147,1,0,0:0:0:0:
256,192,61414,5,2,0:0:0:0:
256,192,62214,1,2,0:0:0:0:
256,192,62480,1,2,0:0:0:0:
256,192,62880,5,0,0:0:0:0:
256,192,63280,5,2,0:0:0:0:
256,192,63547,1,2,0:0:0:0:
256,192,64614,5,0,0:0:0:0:
256,192,65147,1,0,0:0:0:0:
48,192,65680,6,0,L|304:192,1,240
256,192,66747,5,0,0:0:0:0:
256,192,67547,1,0,0:0:0:0:
256,192,67814,1,0,0:0:0:0:
256,192,68614,1,0,0:0:0:0:
256,192,68880,1,0,0:0:0:0:
256,192,69414,5,2,0:0:0:0:
256,192,69947,5,0,0:0:0:0:
256,192,71014,1,0,0:0:0:0:
256,192,71814,1,0,0:0:0:0:
256,192,72080,1,0,0:0:0:0:
256,192,72880,5,2,0:0:0:0:
256,192,73147,5,0,0:0:0:0:
256,192,73680,1,0,0:0:0:0:
256,192,74214,5,2,0:0:0:0:
256,192,75280,5,0,0:0:0:0:
256,192,76080,1,0,0:0:0:0:
256,192,76347,1,0,0:0:0:0:
256,192,77147,1,0,0:0:0:0:
256,192,77414,5,2,0:0:0:0:
256,192,77947,5,0,0:0:0:0:
256,192,78480,5,2,0:0:0:0:
256,192,79547,5,4,0:0:0:0:
256,192,80614,1,4,0:0:0:0:
256,192,81680,5,2,0:0:0:0:
256,192,82214,5,0,0:0:0:0:
256,192,82747,5,2,0:0:0:0:
256,192,83814,5,0,0:0:0:0:
256,192,84214,1,0,0:0:0:0:
256,192,84614,1,0,0:0:0:0:
256,192,84880,1,0,0:0:0:0:
256,192,85947,5,2,0:0:0:0:
256,192,86347,1,2,0:0:0:0:
256,192,86747,1,2,0:0:0:0:
256,192,87014,1,2,0:0:0:0:
256,192,88080,5,0,0:0:0:0:
256,192,88480,1,0,0:0:0:0:
256,192,88880,1,0,0:0:0:0:
256,192,89147,1,0,0:0:0:0:
256,192,89680,1,0,0:0:0:0:
256,192,89947,1,0,0:0:0:0:
256,192,90214,5,2,0:0:0:0:
256,192,91280,1,2,0:0:0:0:
256,192,92347,5,0,0:0:0:0:
256,192,92747,1,0,0:0:0:0:
256,192,93147,5,2,0:0:0:0:
256,192,93414,5,0,0:0:0:0:
256,192,94480,1,0,0:0:0:0:
256,192,94880,5,2,0:0:0:0:
256,192,95280,1,2,0:0:0:0:
256,192,95547,1,2,0:0:0:0:
256,192,96614,5,4,0:0:0:0:
256,192,97680,1,4,0:0:0:0:
256,192,98747,1,0,0:0:0:0:
256,192,99280,5,2,0:0:0:0:
256,192,99814,1,2,0:0:0:0:
256,192,100080,1,2,0:0:0:0:
256,192,100347,1,2,0:0:0:0:
256,192,100614,1,2,0:0:0:0:
256,192,100880,1,2,0:0:0:0:
256,192,101947,5,4,0:0:0:0:
