osu file format v9

[General]
AudioFilename: Ernst.mp3
AudioLeadIn: 1500
PreviewTime: 38667
Countdown: 0
SampleSet: Normal
StackLeniency: 0.7
Mode: 0
LetterboxInBreaks: 1

[Editor]
Bookmarks: 4801,9067,21467,21867,38934,55601,66667,83734,101867
DistanceSpacing: 0.9
BeatDivisor: 4
GridSize: 4

[Metadata]
Title:Ernst
Artist:Falcom Sound Team jdk
Creator:Kert
Version:Insane
Source:Ys VI: The Ark of Napishtim
Tags:konami beatmap contest

[Difficulty]
HPDrainRate:7
CircleSize:4
OverallDifficulty:8
ApproachRate:9
SliderMultiplier:1.4
SliderTickRate:2

[Events]
//Background and Video events
0,0,"135966.jpg"
//Break Periods
//Storyboard Layer 0 (Background)
//Storyboard Layer 1 (Fail)
//Storyboard Layer 2 (Pass)
//Storyboard Layer 3 (Foreground)
//Storyboard Sound Samples
//Background Colour Transformations
3,100,0,0,0

[TimingPoints]
614,266.666666666667,4,1,0,70,1,0
55681,-100,4,1,0,70,0,0
55814,-100,4,1,0,60,0,0
55947,-100,4,1,0,50,0,0
56081,-100,4,2,0,100,0,0
56881,-100,4,1,0,70,0,0
57147,-100,4,2,0,100,0,0
57414,-100,4,1,0,70,0,0
57547,-100,4,1,0,85,0,0
57814,-100,4,2,0,100,0,0
58214,-100,4,1,0,70,0,0
58747,-100,4,2,0,100,0,0
59014,-100,4,1,0,70,0,0
59281,-100,4,2,0,100,0,0
59547,-100,4,1,0,85,0,0
59947,-100,4,2,0,100,0,0
60081,-100,4,1,0,70,0,0
60347,-100,4,1,0,70,0,0
60614,-100,4,2,0,100,0,0
60747,-100,4,1,0,70,0,0
61681,-100,4,2,0,100,0,0
61814,-100,4,1,0,70,0,0
62747,-100,4,2,0,100,0,0
62881,-100,4,1,0,70,0,0
63281,-100,4,2,0,100,0,0
63547,-133.333333333333,4,1,0,50,0,0
64614,-100,4,1,0,70,0,0
101414,-100,4,2,0,100,0,0
101947,-100,4,1,0,70,0,0

[Colours]
Combo1 : 231,222,146
Combo2 : 10,105,222
Combo3 : 236,242,253

[HitObjects]
256,192,614,8,4,3814
152,120,4881,6,0,B|216:72,2,70,0|0|2
112,168,5281,2,0,B|40:168,2,70,0|8|0
152,216,5681,2,0,B|232:216,2,70,0|0|2
112,264,6081,2,0,B|48:312,2,70,0|8|0
152,312,6481,2,0,B|232:312,1,70
288,312,6747,2,0,B|368:312,1,70,8|0
424,312,7014,5,0
424,312,7147,1,2
424,312,7281,1,0
464,232,7414,1,0
464,232,7547,1,8
464,232,7681,1,0
424,152,7814,1,0
424,152,7947,1,2
424,152,8081,1,0
464,72,8214,5,0
464,72,8347,2,0,B|376:40,1,70,8|0
304,48,8614,2,0,B|216:80,1,70,0|2
144,72,8881,2,0,B|56:40,1,70,8|0
80,144,9147,6,0,B|120:224|200:208,1,140,0|8
256,208,9547,2,0,B|336:200|384:248,1,140,0|0
384,312,9947,1,8
200,312,10214,2,0,B|128:312,2,70,0|0|8
256,280,10614,2,0,B|256:128,1,140
256,80,11014,1,8
368,136,11281,6,0,B|360:64|280:24,1,140,0|8
223,28,11681,2,0,B|152:64|144:136,1,140,0|0
168,192,12081,1,8
344,192,12347,1,0
256,352,12614,5,8
180,304,12747,1,0
116,240,12881,1,2
116,240,12947,1,0
116,240,13014,1,0
116,144,13147,1,8
180,80,13281,1,8
256,40,13414,6,0,B|328:64,1,70
456,96,13681,2,0,B|384:120,1,70,2|0
248,144,13947,2,0,B|320:168,1,70,8|0
456,192,14214,2,0,B|384:216,1,70,0|0
256,256,14481,2,0,B|336:296,2,70,2|0|8
256,128,14881,2,0,B|336:88,2,70,0|0|0
128,192,15281,2,0,B|48:192,1,70,8|0
56,328,15547,6,0,B|128:312,1,70,0|2
184,328,15814,1,0
248,328,15947,2,0,B|320:312,1,70,0|8
376,328,16214,1,0
440,328,16347,2,0,B|496:368,2,70,0|2|0
464,272,16747,5,0
432,216,16881,1,8
464,160,17014,1,0
432,104,17147,1,0
400,48,17281,1,2
344,72,17414,1,8
288,48,17547,1,8
224,48,17681,6,0,B|144:56|104:128,1,140,0|0
64,160,18081,1,0
64,224,18214,1,8
112,264,18347,2,0,B|146:326|226:334,1,140,0|0
288,336,18747,6,0,B|367:328|401:265,1,140,0|2
448,224,19147,1,0
448,160,19281,1,8
402,118,19414,2,0,B|368:56|288:48,1,140,0|0
224,48,19814,6,0,B|152:64,2,70
128,192,20214,2,0,B|56:192,2,70,0|8|0
224,336,20614,2,0,B|152:320,2,70,0|0|0
288,320,21014,5,0
344,288,21147,1,0
384,240,21281,1,0
408,184,21414,1,0
408,127,21547,53,0
352,160,21681,1,0
408,184,21814,1,0
408,127,21947,6,0,B|344:71|344:71|272:71,1,140,6|0
224,71,22347,2,0,B|168:71|168:71|105:127,1,140,0|0
104,191,22747,5,0
256,295,23014,1,2
256,111,23281,1,0
256,295,23547,1,8
408,191,23814,1,0
256,295,24081,6,0,B|167:295|167:295|128:240,1,140,0|8
136,191,24481,1,0
136,127,24614,2,0,B|79:63,2,70,0|0|8
375,127,25147,2,2,B|432:63,2,70,2|2|2
328,247,25681,2,0,B|183:247,1,140,0|8
128,247,26081,6,0,B|48:247|48:247|39:166|89:123,1,210,0|8
136,88,26614,1,0
256,136,26881,1,0
256,136,27014,1,8
376,88,27281,6,0,B|448:112|464:192,1,140,2|8
464,248,27681,2,0,B|384:248,3,70,0|0|0|8
158,248,28347,6,0,B|224:208|224:208|224:144,1,140,2|8
288,144,28747,2,0,B|288:206|288:206|354:246,1,140,0|0
408,280,29147,1,8
256,344,29414,5,0
256,256,29547,1,2
256,256,29614,1,0
256,256,29681,1,0
176,208,29814,1,0
176,120,29947,1,2
256,72,30081,1,0
336,120,30214,1,8
336,208,30347,1,0
256,160,30481,6,0,B|256:20,2,140,0|0|0
104,328,31281,2,0,B|48:280|48:280|48:212|48:212,1,140,0|2
408,56,31814,2,0,B|464:104|464:104|464:172|464:172,1,140,0|8
324,320,32347,2,0,B|256:336|256:336|188:320,1,140,0|0
256,192,32881,1,0
256,192,33014,1,0
256,192,33147,1,8
104,296,33414,5,2
64,176,33681,2,0,B|128:136|200:160,1,140,2|0
446,207,34214,2,0,B|382:247|312:224,1,140,8|0
160,120,34747,6,0,B|176:40|264:32,1,140,4|8
320,32,35147,1,0
264,144,35414,1,0
240,200,35547,1,8
184,320,35814,6,2,B|253:341|321:320,2,140,2|2|0
80,256,36614,1,8
96,128,36881,6,0,B|152:128|152:128|192:88|232:88,1,140,0|8
288,88,37281,2,0,B|328:96|360:128|360:128|424:128,1,140,0|0
416,192,37681,1,8
312,336,37947,6,0,B|368:288,2,70,4|0|0
200,336,38347,2,0,B|144:288,2,70
256,304,38747,5,0
256,304,38881,1,0
256,304,39014,2,0,B|256:144,1,140,6|0
256,104,39414,2,0,B|208:56|208:56|112:56,1,140
72,56,39814,5,0
96,240,40081,1,2
256,320,40347,1,0
424,240,40614,1,8
440,56,40881,1,0
256,80,41147,6,0,B|256:240,1,140,0|0
256,280,41547,2,0,B|208:328|208:328|112:328,1,140,0|0
72,328,41947,1,0
48,272,42081,1,0
24,216,42214,1,2
168,88,42481,5,0
224,64,42614,1,0
280,40,42747,2,0,B|432:40,1,140,0|2
464,88,43147,6,0,B|456:176|392:216|296:200,1,210,0|0
256,200,43681,2,0,B|152:200|128:292,1,140,0|0
136,328,44081,1,2
136,328,44214,1,0
136,328,44347,2,0,B|304:328,1,140
336,328,44747,2,0,B|400:288|400:288|400:208,1,140,0|0
352,184,45147,1,8
176,56,45414,6,0,B|112:96|112:96|112:176,1,140,0|8
112,223,45814,2,0,B|112:288|112:288|176:328,1,140,0|0
240,328,46214,1,8
424,328,46481,5,0
424,240,46614,1,2
424,240,46681,1,0
424,240,46747,1,0
336,240,46881,1,0
256,192,47014,1,2
336,144,47147,1,0
424,144,47281,1,8
424,56,47414,1,0
336,56,47547,6,0,B|256:56|256:56|192:96,1,140,4|0
160,128,47947,1,0
112,168,48081,1,0
192,336,48347,5,0
256,336,48481,1,0
320,336,48614,1,2
400,168,48881,5,0
352,128,49014,1,0
306,87,49147,2,0,B|256:56|256:56|176:56,1,140,0|2
112,56,49547,1,0
56,88,49681,5,0
56,88,49814,1,0
56,296,50081,1,0
56,296,50214,1,8
208,192,50481,5,2
336,64,50747,1,2
464,192,51014,1,0
336,328,51281,1,8
464,192,51547,1,8
352,120,51814,6,4,B|304:72|208:72|160:120,2,210,4|2|6
160,264,52881,2,4,B|208:312|304:312|352:264,2,210,4|8|12
256,192,53947,8,0,55547
256,192,55681,5,0
256,192,55814,1,0
256,192,55947,1,0
256,192,56081,1,2
48,48,56614,5,2
48,48,56881,5,0
96,88,57014,1,0
152,120,57147,2,0,B|208:160|304:136,1,140,2|0
352,128,57547,2,0,B|432:112|488:152,2,140,4|2|2
296,152,58214,2,0,B|224:192|208:256,1,140,0|0
224,320,58614,1,0
280,352,58747,1,2
304,128,59014,5,0
288,64,59147,1,0
232,32,59281,2,0,B|144:48|125:118,1,140,2|0
176,152,59681,2,0,B|168:224|248:280,1,140,4|2
288,232,60081,6,0,B|376:232|416:168,2,140,0|0|2
224,232,60747,2,0,B|128:232|96:304,2,140
256,286,61414,6,0,B|256:142,1,140,0|2
186,144,61814,2,0,B|354:144,2,140
120,144,62481,5,0
256,24,62747,1,2
256,24,62881,1,0
392,144,63147,1,0
392,144,63281,1,2
356,320,63547,6,2,B|296:280|216:364|152:320,1,209.999993741512,2|2
168,104,64614,5,0
344,104,64881,1,0
344,280,65147,1,0
168,280,65414,1,0
112,96,65681,5,2
256,336,65947,1,0
400,96,66214,1,8
256,336,66481,1,0
256,56,66747,6,4,B|323:56|391:123|391:191,2,210,4|2|0
255,54,67814,2,4,B|188:57|120:124|117:191,2,210,0|2|2
256,312,68881,5,0
168,152,69147,1,8
168,152,69281,1,0
352,152,69547,1,0
352,152,69681,1,8
200,56,69947,6,0,B|128:32,2,70,0|0|8
256,88,70347,1,0
312,56,70481,2,0,B|384:32,2,70,0|0|8
256,88,70881,1,0
256,152,71014,6,0,B|256:320,1,140,4|0
256,352,71414,2,0,B|336:352|400:304,1,140,2|0
432,264,71814,1,10
256,352,72081,6,0,B|176:352|112:304,1,140,0|8
80,264,72481,1,0
80,128,72747,6,0,B|32:72,2,70,0|8|0
144,128,73147,2,2,B|240:144|264:232,1,140,2|0
256,272,73547,1,0
432,128,73814,6,0,B|480:72,2,70,0|8|0
368,128,74214,2,2,B|272:144|248:232,1,140
256,272,74614,1,0
72,144,74881,5,0
128,72,75014,1,8
216,40,75147,1,0
304,40,75281,6,0,B|375:44|424:103,1,140,4|0
456,192,75681,2,0,B|488:272|448:336,1,140,2|0
376,272,76081,1,10
232,168,76347,5,0
160,112,76481,2,0,B|104:56|24:72,2,140,0|8|0
152,200,77147,2,0,B|88:256,1,70,8|0
48,320,77414,6,0,B|96:392|200:344,1,140,0|0
280,328,77814,2,0,B|359:293|330:182,1,140,2|0
280,112,78214,1,2
280,112,78347,1,2
192,40,78481,6,0,B|120:88|168:192,1,140
184,272,78881,2,0,B|218:351|329:322,1,140,8|0
400,272,79281,1,10
400,272,79414,1,0
448,168,79547,6,0,B|336:40,1,140,4|0
248,104,79947,2,0,B|96:64,1,140,2|0
100,177,80347,1,10
405,285,80614,5,0
245,47,80881,1,2
216,332,81147,1,0
434,92,81414,1,8
256,192,81681,12,0,83281
312,96,83814,5,4
472,192,84081,1,8
472,192,84214,1,0
312,280,84481,1,0
312,280,84614,1,8
200,96,84881,5,0
200,96,85014,1,0
200,96,85147,1,8
200,96,85281,1,0
40,192,85547,1,0
40,192,85681,1,8
152,336,85947,6,2,B|296:336,1,140,2|8
360,272,86347,1,0
360,88,86614,1,0
360,176,86747,1,8
176,176,87014,6,0,B|176:96,2,70,0|0|8
176,264,87414,2,0,B|232:336,2,70,0|0|0
96,216,87814,1,8
96,216,88081,6,0,B|256:216,1,140,6|8
328,216,88481,1,2
472,104,88747,1,0
400,48,88881,1,10
216,48,89147,6,0,B|144:96,1,70,0|0
80,136,89414,2,0,B|128:208,1,70,2|0
176,272,89681,2,0,B|104:320,1,70,0|0
40,272,89947,1,8
168,144,90214,6,0,B|248:40|384:112,2,210,6|0|2
344,240,91281,2,0,B|264:344|128:272,2,210,2|8|8
72,88,92347,5,0
104,268,92614,1,8
164,336,92747,1,0
348,336,93014,1,0
408,268,93147,1,8
440,88,93414,5,0
256,108,93681,2,0,B|160:108,1,70,8|0
256,276,94081,2,0,B|340:276,1,70,0|8
152,336,94481,6,0,B|80:296|96:216,1,140,2|8
184,248,94881,1,2
328,136,95147,1,0
416,164,95281,2,0,B|432:88|360:48,1,140,10|2
184,88,95814,5,8
96,100,95947,1,0
96,192,96081,1,0
96,284,96214,1,0
184,296,96347,1,8
425,260,96614,6,0,B|453:192|425:124,1,140,6|8
424,123,97014,1,2
256,192,97281,1,0
256,192,97414,1,10
101,150,97681,5,0
297,37,97947,1,2
214,346,98214,5,0
410,233,98481,1,8
256,192,98747,5,4
256,192,99014,12,4,100881
256,64,101414,5,2
256,192,101681,1,0
256,320,101947,1,12
