osu file format v5

[General]
AudioFilename: ZW2_415.ogg
AudioLeadIn: 0
PreviewTime: -1
Countdown: 1
SampleSet: Normal
StackLeniency: 0.7
Mode: 0
LetterboxInBreaks: 1
EditorDistanceSpacing: 0.800000011920929

[Metadata]
Title:ZW2_415
Artist:Falcom Sound Team J.D.K.
Creator:dyx726
Version:Normal
Source:
Tags:

[Difficulty]
HPDrainRate:5
CircleSize:5
OverallDifficulty:5
SliderMultiplier:1.4
SliderTickRate:2

[Events]
//Background and Video events
//Break Periods
//Storyboard Layer 0 (Background)
//Storyboard Layer 1 (Failing)
//Storyboard Layer 2 (Passing)
//Storyboard Layer 3 (Foreground)
//Storyboard Sound Samples
//Background Colour Transformations
3,100,163,162,255

[TimingPoints]
50,556.328233657858,4,1,0,100,1,0

[HitObjects]
64,64,9368,1,0
448,64,11593,1,0
448,320,13958,1,0
64,320,16183,1,0
64,64,18408,1,0
448,64,20495,1,0
32,320,22303,5,0
96,320,22581,1,0
160,320,22859,1,0
224,320,23137,1,0
288,256,24528,1,8
352,256,24806,1,8
416,256,25084,1,8
480,256,25362,1,8
448,192,26475,1,0
416,128,26753,1,8
352,96,27031,1,0
288,96,27310,1,8
224,96,27588,1,0
128,96,28144,1,8
64,96,28422,1,8
64,160,28979,1,0
96,192,29257,1,0
128,224,29535,1,0
160,256,29813,1,0
480,64,31204,5,0
416,64,31482,1,0
352,64,31760,1,0
288,64,32038,1,0
224,128,33429,1,8
192,160,33707,1,8
160,192,33986,1,8
128,224,34264,1,8
96,256,34542,2,0,B|480:256,1,350
448,192,36211,1,8
448,128,36489,1,8
320,64,37880,1,8
256,64,38158,1,0
192,64,38436,1,8
128,64,38714,1,0
64,64,38992,1,8
64,96,39271,1,0
64,160,39549,1,8
64,192,39688,1,8
64,320,40105,5,0
128,320,40383,1,0
192,320,40661,1,8
256,320,40940,2,8,B|416:320|416:32,1,350
320,64,42609,1,0
256,64,42887,1,0
192,64,43165,2,0,B,1,280
128,352,44556,1,0
128,288,44834,1,0
128,224,45112,1,0
128,160,45390,1,0
128,64,45947,1,8
160,64,46225,1,8
352,64,46781,1,0
352,128,47059,1,8
352,192,47337,1,0
352,256,47616,1,8
32,320,49006,5,8
32,256,49285,1,0
32,192,49563,1,8
32,128,49841,1,0
160,256,51232,2,0,B|160:352,1,70
224,320,51788,2,0,B|320:320|288:320,1,70
288,256,52344,2,0,B|384:256,1,70
416,256,52901,1,0
416,192,53179,2,0,B|128:192,1,280
64,96,55682,5,8
128,96,55960,1,8
192,96,56239,1,8
352,96,56517,5,8
352,288,57073,1,0
160,288,57629,1,8
160,96,58186,1,0
256,192,58742,1,12
256,192,59298,12,0,60967
256,192,61524,12,0,63193
160,192,64584,6,0,B|384:192,1,210
256,96,65696,2,0,B|256:320,1,210
288,320,66809,5,0
352,320,67087,1,12
416,320,67365,1,12
480,320,67643,1,0
480,64,69034,1,0
416,64,69312,1,8
352,64,69591,1,0
288,64,69869,1,8
256,96,70147,1,0
224,128,70425,1,0
192,160,70703,1,8
192,192,70842,1,8
192,288,71260,2,0,B|416:288,1,210
32,64,75710,5,0
96,64,75988,1,8
160,64,76266,1,0
224,64,76545,1,8
32,128,77935,1,0
96,128,78214,1,8
160,128,78492,1,0
224,128,78770,1,8
288,128,79048,1,0
352,128,79326,1,8
416,128,79604,1,0
448,128,79744,1,0
448,192,80161,1,8
384,192,80439,1,0
320,192,80717,1,8
256,192,80995,1,0
448,192,82386,1,8
384,192,82664,1,0
320,192,82942,1,8
256,192,83221,1,0
64,320,84611,6,0,B|64:96,1,210
128,96,85724,2,0,B|128:320,1,210
192,320,86837,2,0,B|288:320,5,70
256,256,88506,2,8,B|192:256,1,35
192,192,89062,1,0
256,192,89340,1,8
320,192,89618,1,0
384,192,89897,1,0
480,64,91287,5,8
416,64,91565,1,0
352,64,91844,1,8
288,64,92122,1,8
256,192,92956,12,0,96341
