osu file format v13

[General]
AudioFilename: Falcom Sound Team jdk - Yoruakake Daitonen.mp3
AudioLeadIn: 0
PreviewTime: 2604
Countdown: 0
SampleSet: Soft
StackLeniency: 0.7
Mode: 0
LetterboxInBreaks: 0
WidescreenStoryboard: 0

[Editor]
DistanceSpacing: 1.7
BeatDivisor: 4
GridSize: 8
TimelineZoom: 1

[Metadata]
Title:Yoake ~ Daidanen
TitleUnicode:夜明け~大団円
Artist:Falcom Sound Team J.D.K.
ArtistUnicode:Falcom Sound Team J.D.K.
Creator:yusoman
Version:Hard
Source:Legend of Heroes:Zero no Kiseki
Tags:Zero no Kiseki Legend of Heroes Azusa
BeatmapID:252713
BeatmapSetID:93739

[Difficulty]
HPDrainRate:6
CircleSize:4
OverallDifficulty:6
ApproachRate:7
SliderMultiplier:1.4
SliderTickRate:2

[Events]
//Background and Video events
0,0,"Tio.jpg",0,0
//Break Periods
//Storyboard Layer 0 (Background)
//Storyboard Layer 1 (Fail)
//Storyboard Layer 2 (Pass)
//Storyboard Layer 3 (Foreground)
//Storyboard Sound Samples
//Background Colour Transformations
3,100,163,162,255

[TimingPoints]
2605,517.241379310345,4,2,0,80,1,0
23294,-76.9230769230769,4,2,0,80,0,0
25880,-100,4,2,0,80,0,0
39837,508.474576271186,4,2,0,80,1,1
57125,-76.9230769230769,4,2,0,80,0,1
57634,-100,4,2,0,80,0,1
59159,-76.9230769230769,4,2,0,80,0,1
59667,-100,4,2,0,80,0,1
72379,-100,4,2,0,80,0,0
74922,-100,4,2,0,60,0,0
76447,-100,4,2,0,30,0,0
78481,-100,4,2,0,10,0,0

[Colours]
Combo1 : 192,192,192
Combo2 : 128,255,255

[HitObjects]
88,64,2604,5,4,0:0:0:0:
88,152,2863,1,0,0:0:0:0:
136,224,3122,1,8,0:0:0:0:
224,112,3639,2,0,L|296:72,2,70,2|2|8,0:0|0:0|0:0,0:0:0:0:
384,34,4673,6,0,L|440:98,1,70,2|0,0:0|0:0,0:0:0:0:
370,152,5191,2,0,L|426:216,1,70,8|0,0:0|0:0,0:0:0:0:
360,264,5708,2,0,P|328:320|256:368,1,140,2|8,0:0|0:0,0:0:0:0:
224,224,6742,5,0,0:0:0:0:
210,77,7001,1,2,0:0:0:0:
309,187,7260,1,8,0:0:0:0:
162,156,7518,1,0,0:0:0:0:
300,94,7777,1,0,0:0:0:0:
432,24,8294,2,0,P|442:49|434:89,1,70,8|0,0:0|0:0,0:0:0:0:
408,144,8811,1,0,0:0:0:0:
400,256,9329,6,0,P|368:280|352:312,1,70,10|0,0:0|0:0,0:0:0:0:
400,256,9846,2,0,P|432:280|448:320,1,70,2|0,0:0|0:0,0:0:0:0:
400,256,10363,2,0,L|400:160,1,70,8|0,0:0|0:0,0:0:0:0:
192,96,10880,5,4,0:0:0:0:
138,151,11139,1,0,0:0:0:0:
120,226,11398,1,8,0:0:0:0:
266,184,11915,1,0,0:0:0:0:
252,259,12173,1,0,0:0:0:0:
201,314,12432,1,8,0:0:0:0:
350,278,12949,2,0,P|406:238|433:173,1,140,2|8,0:0|0:0,0:0:0:0:
182,80,13984,1,0,0:0:0:0:
309,157,14242,1,0,0:0:0:0:
284,55,14501,1,8,0:0:0:0:
207,181,14760,1,0,0:0:0:0:
207,181,15018,6,0,B|225:264|322:264,2,140,6|10|2,0:0|0:0|0:0,0:0:0:0:
207,181,16570,1,8,0:0:0:0:
320,144,16829,1,0,0:0:0:0:
376,162,16958,1,0,0:0:0:0:
424,128,17087,6,0,B|408:48|296:32,2,140,4|10|6,0:0|0:0|0:0,0:0:0:0:
335,207,18380,1,8,0:0:0:0:
243,130,18639,1,8,0:0:0:0:
426,283,19156,6,2,B|386:307|386:307|386:355,1,70,6|2,0:0|0:0,0:0:0:0:
268,346,19673,2,2,B|302:330|302:330|302:298,1,70,10|0,0:0|0:0,0:0:0:0:
190,253,20191,1,0,0:0:0:0:
296,199,20449,1,0,0:0:0:0:
198,130,20708,1,8,0:0:0:0:
414,30,21225,6,2,B|454:54|454:54|454:102,1,70,6|2,0:0|0:0,0:0:0:0:
433,194,21742,2,2,B|399:178|399:178|399:146,1,70,10|0,0:0|0:0,0:0:0:0:
280,133,22260,1,0,0:0:0:0:
168,172,22518,1,0,0:0:0:0:
252,256,22777,1,8,0:0:0:0:
38,32,23294,6,2,P|88:85|208:98,1,181.999991668702,2|10,0:0|0:0,0:0:0:0:
152,252,24070,1,0,0:0:0:0:
275,338,24329,1,0,0:0:0:0:
384,248,24846,2,2,P|440:192|440:80,2,181.999991668702,2|10|2,0:0|0:0|0:0,0:0:0:0:
384,248,26139,1,0,0:0:0:0:
256,288,26398,5,8,0:0:0:0:
160,192,26656,1,0,0:0:0:0:
256,88,26915,1,8,0:0:0:0:
352,192,27173,1,0,0:0:0:0:
256,192,27432,6,0,P|248:256|192:304,1,140,4|8,0:0|0:0,0:0:0:0:
160,224,28467,1,0,0:0:0:0:
96,168,28725,1,0,0:0:0:0:
176,136,28984,1,8,0:0:0:0:
280,152,29501,6,0,P|273:91|220:36,1,140,4|8,0:0|0:0,0:0:0:0:
80,72,30536,1,0,0:0:0:0:
104,224,31053,1,8,0:0:0:0:
256,192,31570,12,0,33122,0:0:0:0:
280,128,33639,5,0,0:0:0:0:
208,200,33898,1,0,0:0:0:0:
280,272,34156,1,8,0:0:0:0:
352,200,34415,5,0,0:0:0:0:
256,96,34673,1,0,0:0:0:0:
160,200,34932,1,0,0:0:0:0:
256,304,35191,1,8,0:0:0:0:
256,192,35708,12,0,37260,0:0:0:0:
436,60,37777,6,0,L|451:116,1,35
384,133,38036,2,0,L|374:84,1,35
325,137,38294,2,0,L|333:185,3,35
280,214,38811,2,0,L|271:179,1,35
220,219,39070,2,0,L|224:253,1,35
150,254,39329,1,8,0:0:0:0:
120,344,39837,6,0,L|192:344,1,70
120,344,40345,1,8,0:0:0:0:
192,248,40853,2,0,L|216:320,1,70,0|0,0:0|0:0,0:0:0:0:
192,248,41362,1,8,0:0:0:0:
320,248,41870,2,0,L|288:336,1,70,0|0,0:0|0:0,0:0:0:0:
320,248,42379,1,8,0:0:0:0:
392,352,42887,2,0,L|304:352,1,70,0|0,0:0|0:0,0:0:0:0:
392,352,43396,1,8,0:0:0:0:
311,82,43904,6,0,L|357:29,2,70,6|0|10,0:0|0:0|0:0,0:0:0:0:
254,151,44667,1,0,0:0:0:0:
360,264,44921,2,0,L|432:320,2,70,0|0|8,0:0|0:0|0:0,0:0:0:0:
288,216,45684,1,0,0:0:0:0:
153,270,45938,2,0,L|105:326,2,70,0|0|8,0:0|0:0|0:0,0:0:0:0:
217,214,46701,1,0,0:0:0:0:
176,112,46955,2,0,L|112:56,2,70,0|0|8,0:0|0:0|0:0,0:0:0:0:
256,56,47718,5,0,0:0:0:0:
296,32,47845,1,0,0:0:0:0:
344,40,47972,2,2,P|352:72|337:111,2,70,2|2|8,0:0|0:0|0:0,0:0:0:0:
432,24,48735,1,0,0:0:0:0:
464,56,48862,1,0,0:0:0:0:
480,96,48989,2,2,P|484:135|464:168,2,70,2|2|8,0:0|0:0|0:0,0:0:0:0:
392,128,49752,5,0,0:0:0:0:
360,160,49879,1,0,0:0:0:0:
344,200,50006,2,2,P|352:240|376:272,2,70,2|2|2,0:0|0:0|0:0,0:0:0:0:
432,200,50769,1,0,0:0:0:0:
456,240,50896,1,0,0:0:0:0:
456,280,51023,2,2,P|440:328|408:344,2,70,2|2|8,0:0|0:0|0:0,0:0:0:0:
230,240,52040,5,4,0:0:0:0:
160,167,52294,1,0,0:0:0:0:
233,96,52548,1,8,0:0:0:0:
303,169,52803,5,0,0:0:0:0:
209,64,53057,1,0,0:0:0:0:
112,166,53311,1,0,0:0:0:0:
206,271,53565,1,8,0:0:0:0:
320,304,53820,6,2,L|304:256,2,35
376,224,54328,2,2,L|386:261,2,35,2|2|10,0:0|0:0|0:0,0:0:0:0:
464,256,54836,2,2,L|450:214,2,35
480,160,55345,1,0,0:0:0:0:
472,112,55472,1,0,0:0:0:0:
432,80,55599,1,8,0:0:0:0:
88,64,56108,5,4,0:0:0:0:
112,88,56235,1,0,0:0:0:0:
136,112,56362,2,0,P|168:136|200:120,1,70,0|8,0:0|0:0,0:0:0:0:
256,96,56870,1,0,0:0:0:0:
344,88,57125,2,2,P|408:152|496:184,1,181.999991668702,2|10,0:0|0:0,0:0:0:0:
493,183,57887,1,0,0:0:0:0:
448,240,58142,5,4,0:0:0:0:
432,272,58269,1,0,0:0:0:0:
400,288,58396,2,0,P|360:304|336:280,1,70,0|8,0:0|0:0,0:0:0:0:
288,240,58904,1,0,0:0:0:0:
208,200,59159,2,2,P|168:272|72:328,1,181.999991668702,2|10,0:0|0:0,0:0:0:0:
85,324,59921,1,0,0:0:0:0:
104,120,60175,6,0,L|136:80,2,35,4|0|0,0:0|0:0|0:0,0:0:0:0:
176,128,60684,1,8,0:0:0:0:
224,72,60938,1,0,0:0:0:0:
296,64,61192,2,2,P|344:112|376:176,1,140,2|10,0:0|0:0,0:0:0:0:
375,175,61955,1,0,0:0:0:0:
280,288,62209,6,0,L|328:256,2,35,4|0|0,0:0|0:0|0:0,0:0:0:0:
211,270,62718,1,8,0:0:0:0:
152,232,62972,1,2,0:0:0:0:
128,208,63099,1,0,0:0:0:0:
128,176,63226,1,8,0:0:0:0:
343,197,63735,5,8,0:0:0:0:
221,109,63989,1,0,0:0:0:0:
210,268,64243,1,4,0:0:0:0:
256,192,64498,1,0,0:0:0:0:
256,192,64625,1,0,0:0:0:0:
256,192,64752,2,0,L|304:123,1,70
386,72,65260,5,4,0:0:0:0:
385,72,65514,1,0,0:0:0:0:
448,142,65769,1,8,0:0:0:0:
447,142,66023,2,2,L|412:209,1,70,2|6,0:0|0:0,0:0:0:0:
414,204,66531,1,0,0:0:0:0:
256,192,66786,5,8,0:0:0:0:
184,120,67040,1,0,0:0:0:0:
112,192,67294,1,0,0:0:0:0:
184,264,67548,5,0,0:0:0:0:
288,168,67803,1,8,0:0:0:0:
184,72,68057,1,0,0:0:0:0:
80,168,68311,1,4,0:0:0:0:
256,192,68565,12,0,69836,0:0:0:0:
176,112,70345,5,4,0:0:0:0:
152,200,70599,1,0,0:0:0:0:
152,248,70726,1,0,0:0:0:0:
184,280,70853,1,8,0:0:0:0:
368,256,71362,5,4,0:0:0:0:
368,168,71616,1,2,0:0:0:0:
360,120,71743,1,0,0:0:0:0:
328,88,71870,1,8,0:0:0:0:
136,48,72379,6,2,P|96:104|88:176,1,140,6|10,0:0|0:0,0:0:0:0:
168,184,73142,1,0,0:0:0:0:
172,267,73396,2,2,P|234:297|309:288,1,140,2|0,0:0|0:0,0:0:0:0:
470,328,74413,5,0,0:0:0:0:
335,196,74921,2,0,P|301:223|293:276,1,70
213,235,75430,2,2,P|234:170|310:119,1,140
128,48,76447,6,0,P|85:93|80:184,1,140,4|0,0:0|0:0,0:0:0:0:
144,208,77209,2,0,L|214:238,1,70
272,120,77972,1,0,0:0:0:0:
256,192,78481,12,0,80514,0:0:0:0:
