osu file format v12

[General]
AudioFilename: Falcom Sound Team jdk - Yoruakake Daitonen.mp3
AudioLeadIn: 0
PreviewTime: 2604
Countdown: 0
SampleSet: Soft
StackLeniency: 0.7
Mode: 0
LetterboxInBreaks: 0
WidescreenStoryboard: 0

[Editor]
DistanceSpacing: 1
BeatDivisor: 2
GridSize: 4

[Metadata]
Title:Yoake ~ Daidanen
TitleUnicode:夜明け~大団円
Artist:Falcom Sound Team J.D.K.
ArtistUnicode:Falcom Sound Team J.D.K.
Creator:yusoman
Version:Azusa
Source:Legend of Heroes:Zero no Kiseki
Tags:Zero no Kiseki, Legend of Heroes, Azusa
BeatmapID:264560
BeatmapSetID:93739

[Difficulty]
HPDrainRate:8
CircleSize:4
OverallDifficulty:8
ApproachRate:8
SliderMultiplier:1.8
SliderTickRate:2

[Events]
//Background and Video events
0,0,"macdowell.jpg",0,0
//Break Periods
//Storyboard Layer 0 (Background)
//Storyboard Layer 1 (Fail)
//Storyboard Layer 2 (Pass)
//Storyboard Layer 3 (Foreground)
//Storyboard Sound Samples
//Background Colour Transformations
3,100,163,162,255

[TimingPoints]
2605,517.241379310345,4,2,0,80,1,0
23294,-76.9230769230769,4,2,0,80,0,0
25880,-100,4,2,0,80,0,0
39837,508.474576271186,4,2,0,80,1,1
39837,-100,4,2,0,80,0,1
57125,-76.9230769230769,4,2,0,80,0,1
57570,-100,4,2,0,80,0,1
59159,-76.9230769230769,4,2,0,80,0,1
59667,-100,4,2,0,80,0,1
72379,-100,4,2,0,80,0,0
74922,-100,4,2,0,60,0,0
76447,-100,4,2,0,30,0,0
78481,-100,4,2,0,10,0,0

[Colours]
Combo1 : 255,128,255
Combo2 : 0,0,160

[HitObjects]
96,304,2087,5,0,0:0:0:0:
100,260,2217,1,0,0:0:0:0:
112,216,2346,1,0,0:0:0:0:
128,176,2475,1,0,0:0:0:0:
152,136,2604,2,0,P|180:96|232:64,1,90,4|0,0:0|0:0,0:0:0:0:
280,200,3122,1,8,0:0:0:0:
412,260,3380,1,0,0:0:0:0:
432,116,3640,2,0,P|434:166|426:206,1,90,0|0,0:0|0:0,0:0:0:0:
356,328,4156,2,0,P|228:336|168:300,1,180,8|0,0:0|0:0,0:0:0:0:
92,204,4932,5,0,0:0:0:0:
185,94,5191,1,8,0:0:0:0:
232,229,5449,1,0,0:0:0:0:
272,208,5579,1,0,0:0:0:0:
312,192,5708,2,0,L|412:148,1,90
248,48,6225,2,0,L|296:160,1,90,8|0,0:0|0:0,0:0:0:0:
300,172,6613,1,0,0:0:0:0:
320,212,6742,5,0,0:0:0:0:
461,220,7001,1,0,0:0:0:0:
381,340,7260,1,0,0:0:0:0:
236,336,7518,1,0,0:0:0:0:
112,260,7777,2,0,P|145:168|235:128,1,180,0|8,0:0|0:0,0:0:0:0:
256,116,8423,1,0,0:0:0:0:
300,120,8553,1,0,0:0:0:0:
124,48,8811,6,0,P|221:48|291:116,1,180,0|8,0:0|0:0,0:0:0:0:
296,140,9458,1,0,0:0:0:0:
304,184,9587,1,0,0:0:0:0:
164,224,9846,1,0,0:0:0:0:
92,348,10105,1,0,0:0:0:0:
100,204,10363,1,8,0:0:0:0:
140,344,10622,1,0,0:0:0:0:
176,320,10751,1,0,0:0:0:0:
200,280,10880,6,0,L|312:280,1,90,4|0,0:0|0:0,0:0:0:0:
424,340,11398,1,8,0:0:0:0:
448,200,11656,1,0,0:0:0:0:
436,156,11786,1,0,0:0:0:0:
412,120,11915,2,0,P|384:80|340:56,1,90
292,192,12432,2,0,P|216:147|188:55,1,180,8|0,0:0|0:0,0:0:0:0:
188,64,13079,1,0,0:0:0:0:
188,64,13208,1,0,0:0:0:0:
72,148,13467,2,0,P|115:135|147:84,1,90,8|0,0:0|0:0,0:0:0:0:
112,244,13984,6,0,L|132:284,1,45
172,204,14242,2,0,L|140:144,1,45
240,160,14501,2,0,L|260:204,1,45,8|0,0:0|0:0,0:0:0:0:
300,120,14760,2,0,L|268:60,1,45
368,76,15018,2,0,P|381:143|364:176,1,90
380,247,15536,2,0,P|367:179|384:147,1,90,8|0,0:0|0:0,0:0:0:0:
373,161,16053,1,0,0:0:0:0:
288,44,16311,5,0,0:0:0:0:
240,180,16570,1,8,0:0:0:0:
356,272,16829,1,0,0:0:0:0:
396,250,16958,1,0,0:0:0:0:
429,218,17087,2,0,P|457:182|466:114,2,90,4|0|8,0:0|0:0|0:0,0:0:0:0:
304,292,17863,1,0,0:0:0:0:
212,136,18122,1,0,0:0:0:0:
256,212,18380,1,0,0:0:0:0:
172,52,18639,1,8,0:0:0:0:
52,308,19156,6,0,L|168:308,1,90,4|0,0:0|0:0,0:0:0:0:
300,308,19673,2,0,L|200:308,1,90,8|0,0:0|0:0,0:0:0:0:
164,308,20061,1,0,0:0:0:0:
120,308,20191,1,0,0:0:0:0:
140,176,20449,2,0,L|140:280,1,90,0|8,0:0|0:0,0:0:0:0:
140,132,20967,1,0,0:0:0:0:
140,88,21096,1,0,0:0:0:0:
140,44,21225,5,0,0:0:0:0:
140,176,21484,1,0,0:0:0:0:
284,196,21742,2,0,L|188:184,1,90,8|0,0:0|0:0,0:0:0:0:
340,204,22260,5,0,0:0:0:0:
400,216,22518,1,0,0:0:0:0:
460,228,22777,1,8,0:0:0:0:
388,64,23036,1,0,0:0:0:0:
348,88,23165,1,0,0:0:0:0:
304,76,23294,6,0,P|244:60|184:88,1,116.999994644165
116,248,23811,1,8,0:0:0:0:
152,276,23941,1,0,0:0:0:0:
196,284,24070,1,0,0:0:0:0:
384,304,24329,2,0,P|440:272|456:200,1,116.999994644165
424,76,24846,5,8,0:0:0:0:
384,52,24975,1,0,0:0:0:0:
344,72,25105,1,0,0:0:0:0:
300,56,25234,1,0,0:0:0:0:
268,88,25363,2,0,P|204:76|156:120,1,116.999994644165
32,156,25880,1,8,0:0:0:0:
180,344,26139,1,0,0:0:0:0:
224,352,26268,1,0,0:0:0:0:
268,344,26398,1,0,0:0:0:0:
268,344,26656,1,0,0:0:0:0:
448,296,26915,5,8,0:0:0:0:
308,328,27173,1,0,0:0:0:0:
348,188,27432,2,0,P|428:152|488:36,1,180,0|8,0:0|0:0,0:0:0:0:
340,44,28208,1,0,0:0:0:0:
348,188,28467,1,0,0:0:0:0:
64,68,28984,5,8,0:0:0:0:
204,100,29242,1,0,0:0:0:0:
235,318,29501,2,0,P|184:244|104:208,1,180,4|8,0:0|0:0,0:0:0:0:
380,318,30277,1,0,0:0:0:0:
304,194,30536,1,0,0:0:0:0:
236,318,30794,1,0,0:0:0:0:
380,318,31053,1,8,0:0:0:0:
304,194,31311,1,0,0:0:0:0:
256,192,31570,12,4,33639,0:0:0:0:
184,297,34156,5,0,0:0:0:0:
256,56,34415,1,0,0:0:0:0:
328,297,34673,1,0,0:0:0:0:
136,160,34932,1,0,0:0:0:0:
384,160,35191,1,0,0:0:0:0:
256,192,35708,12,0,37518,0:0:0:0:
84,116,37777,5,0,0:0:0:0:
112,152,37906,1,0,0:0:0:0:
148,180,38036,1,0,0:0:0:0:
188,200,38165,1,0,0:0:0:0:
232,208,38294,1,0,0:0:0:0:
276,208,38423,2,0,L|344:196,3,45
360,180,38941,1,0,0:0:0:0:
396,152,39070,1,0,0:0:0:0:
424,116,39199,1,0,0:0:0:0:
448,76,39329,2,0,L|460:44,6,22.5
448,80,39837,6,0,P|372:52|276:92,1,180,4|0,0:0|0:0,0:0:0:0:
148,136,40599,1,8,0:0:0:0:
256,228,40853,1,8,0:0:0:0:
396,256,41108,2,0,P|331:289|255:228,1,180,0|8,0:0|0:0,0:0:0:0:
396,256,41870,1,8,0:0:0:0:
344,120,42125,2,0,P|304:56|199:78,1,180,0|8,0:0|0:0,0:0:0:0:
344,120,42887,1,8,0:0:0:0:
396,256,43142,1,0,0:0:0:0:
396,256,43269,1,0,0:0:0:0:
396,256,43396,2,0,P|354:259|314:235,1,90,0|8,0:0|0:0,0:0:0:0:
212,336,43904,5,4,0:0:0:0:
87,89,44159,2,0,B|56:176|56:176|92:256,1,180,0|8,0:0|0:0,0:0:0:0:
208,168,44921,1,8,0:0:0:0:
328,89,45175,2,0,B|360:176|360:176|324:256,1,180,0|8,0:0|0:0,0:0:0:0:
208,168,45938,5,8,0:0:0:0:
92,256,46192,1,0,0:0:0:0:
92,112,46447,1,0,0:0:0:0:
92,156,46574,1,0,0:0:0:0:
92,200,46701,1,8,0:0:0:0:
92,40,46955,1,8,0:0:0:0:
208,168,47209,2,0,P|167:128|123:84,1,90,0|8,0:0|0:0,0:0:0:0:
268,240,47718,5,0,0:0:0:0:
304,264,47845,1,0,0:0:0:0:
348,272,47972,2,0,P|436:232|432:124,1,180,12|0,0:0|0:0,0:0:0:0:
436,112,48608,1,0,0:0:0:0:
404,80,48735,1,8,0:0:0:0:
360,68,48862,1,0,0:0:0:0:
316,76,48989,6,0,P|260:100|240:136,1,90,8|0,0:0|0:0,0:0:0:0:
128,40,49498,2,0,P|133:100|161:130,1,90,0|8,0:0|0:0,0:0:0:0:
36,208,50006,2,0,P|95:221|132:204,1,90,8|0,0:0|0:0,0:0:0:0:
166,347,50514,2,0,P|197:294|192:253,1,90,0|8,0:0|0:0,0:0:0:0:
339,265,51023,2,0,P|298:219|258:211,1,90,8|0,0:0|0:0,0:0:0:0:
316,76,51531,2,0,P|260:100|240:136,1,90,8|8,0:0|0:0,0:0:0:0:
256,268,52040,6,0,P|340:308|428:272,1,180,12|0,0:0|0:0,0:0:0:0:
432,248,52675,1,0,0:0:0:0:
428,212,52803,1,8,0:0:0:0:
380,76,53057,1,8,0:0:0:0:
240,40,53311,1,0,0:0:0:0:
160,160,53565,5,0,0:0:0:0:
200,180,53692,1,0,0:0:0:0:
244,187,53820,1,8,0:0:0:0:
288,176,53947,1,0,0:0:0:0:
324,152,54074,2,0,P|413:124|480:192,1,180,8|0,0:0|0:0,0:0:0:0:
488,216,54709,1,0,0:0:0:0:
476,264,54836,1,8,0:0:0:0:
456,304,54964,1,0,0:0:0:0:
416,320,55091,2,0,P|372:332|312:308,1,90,8|0,0:0|0:0,0:0:0:0:
104,88,55599,1,8,0:0:0:0:
104,88,56108,6,0,P|148:76|208:100,1,90,12|8,0:0|0:0,0:0:0:0:
312,164,56616,1,0,0:0:0:0:
104,88,56870,1,8,0:0:0:0:
312,164,57125,6,0,P|225:268|145:271,1,175.499991966248,8|8,0:0|0:0,0:0:0:0:
204,228,57633,2,0,P|160:216|100:240,1,90,0|8,0:0|0:0,0:0:0:0:
36,344,58142,5,8,0:0:0:0:
168,288,58396,1,8,0:0:0:0:
52,200,58650,1,0,0:0:0:0:
152,96,58904,1,8,0:0:0:0:
196,80,59031,1,0,0:0:0:0:
240,92,59159,2,0,P|376:98|425:159,1,175.499991966248,8|8,0:0|0:0,0:0:0:0:
356,144,59667,2,0,P|372:186|428:219,1,90,0|8,0:0|0:0,0:0:0:0:
280,144,60175,6,0,P|263:186|207:219,1,90,12|8,0:0|0:0,0:0:0:0:
292,84,60684,1,0,0:0:0:0:
172,244,60938,1,8,0:0:0:0:
68,144,61192,2,0,P|100:80|184:36,1,135,8|8,0:0|0:0,0:0:0:0:
156,96,61701,2,0,P|184:136|252:152,1,90,0|8,0:0|0:0,0:0:0:0:
320,48,62209,5,8,0:0:0:0:
380,180,62464,1,8,0:0:0:0:
320,312,62718,1,0,0:0:0:0:
180,284,62972,1,8,0:0:0:0:
156,244,63099,1,0,0:0:0:0:
148,200,63226,2,0,P|144:152|157:109,1,90,8|8,0:0|0:0,0:0:0:0:
276,32,63735,5,0,0:0:0:0:
376,136,63989,1,8,0:0:0:0:
392,272,64243,2,0,P|344:312|274:324,1,135,12|8,0:0|0:0,0:0:0:0:
274,324,64752,1,0,0:0:0:0:
164,232,65006,1,8,0:0:0:0:
296,181,65260,2,0,L|191:222,1,90,8|0,0:0|0:0,0:0:0:0:
344,160,65769,1,0,0:0:0:0:
372,300,66023,1,8,0:0:0:0:
296,181,66277,2,0,L|191:222,1,90,8|0,0:0|0:0,0:0:0:0:
44,144,66786,6,0,L|100:120,1,45
160,176,67040,2,0,L|104:200,1,45,8|0,0:0|0:0,0:0:0:0:
204,160,67294,2,0,L|260:136,1,45,8|0,0:0|0:0,0:0:0:0:
320,192,67548,2,0,L|264:216,1,45
360,176,67803,2,0,L|416:152,1,45
476,208,68057,2,0,L|420:232,1,45
448,136,68311,6,0,B|392:64|392:64|280:52,1,180,8|0,0:0|0:0,0:0:0:0:
264,52,68947,1,0,0:0:0:0:
220,48,69074,1,8,0:0:0:0:
204,192,69328,1,8,0:0:0:0:
248,196,69455,1,0,0:0:0:0:
292,200,69582,1,0,0:0:0:0:
336,204,69709,1,0,0:0:0:0:
380,208,69836,1,0,0:0:0:0:
280,312,70091,6,0,L|148:300,1,90,0|8,0:0|0:0,0:0:0:0:
308,84,70599,2,0,L|397:92,1,90
380,208,71108,1,8,0:0:0:0:
336,204,71235,1,0,0:0:0:0:
292,200,71362,1,8,0:0:0:0:
248,196,71489,1,0,0:0:0:0:
204,192,71616,1,0,0:0:0:0:
32,176,71870,1,8,0:0:0:0:
194,302,72125,1,0,0:0:0:0:
360,308,72379,6,0,P|284:336|194:302,1,180,4|0,0:0|0:0,0:0:0:0:
60,252,73142,1,8,0:0:0:0:
167,159,73396,1,0,0:0:0:0:
308,132,73650,2,0,P|243:99|167:159,1,180,0|8,0:0|0:0,0:0:0:0:
308,132,74413,5,8,0:0:0:0:
256,268,74667,2,0,P|216:332|111:310,1,180,0|8,0:0|0:0,0:0:0:0:
256,268,75430,1,8,0:0:0:0:
308,132,75684,1,8,0:0:0:0:
308,132,75811,1,0,0:0:0:0:
308,132,75938,2,0,P|266:129|226:153,1,90,0|8,0:0|0:0,0:0:0:0:
88,192,76447,5,4,0:0:0:0:
334,316,76701,2,0,B|248:348|248:348|168:312,1,180,0|8,0:0|0:0,0:0:0:0:
256,196,77464,1,8,0:0:0:0:
168,80,77718,2,0,B|248:44|248:44|348:80,1,180,0|8,0:0|0:0,0:0:0:0:
416,196,78481,5,8,0:0:0:0:
272,196,78735,1,0,0:0:0:0:
344,196,78989,1,0,0:0:0:0:
200,196,79243,1,8,0:0:0:0:
272,196,79498,1,8,0:0:0:0:
128,196,79752,2,0,L|28:196,1,90
38,196,80260,1,0,0:0:0:0:
256,192,80514,12,0,81786,0:0:0:0:
