osu file format v8

[General]
AudioFilename: ED6421.ogg
AudioLeadIn: 1500
PreviewTime: 95611
Countdown: 0
SampleSet: Soft
StackLeniency: 0.4
Mode: 0
LetterboxInBreaks: 1

[Editor]
Bookmarks: 1906,21671,44259,66847,84493,107081,129669,147316,174139
DistanceSpacing: 0.9
BeatDivisor: 4
GridSize: 8

[Metadata]
Title:The Fate of The Fairies
Artist:Falcom Sound Team J.D.K.
Creator:impossiblexu
Version:Hard
Source:The Legend of Heroes VI
Tags:Sora no Kiseki SC ignorethis

[Difficulty]
HPDrainRate:5
CircleSize:4
OverallDifficulty:7
ApproachRate:7
SliderMultiplier:1.5
SliderTickRate:1

[Events]
//Background and Video events
0,0,"bg.jpg"
//Break Periods
2,44454,54643
2,84690,94877
2,129866,137229
//Storyboard Layer 0 (Background)
//Storyboard Layer 1 (Fail)
//Storyboard Layer 2 (Pass)
//Storyboard Layer 3 (Foreground)
//Storyboard Sound Samples
//Background Colour Transformations
3,100,163,162,255

[TimingPoints]
490,352.941176470588,4,1,1,31,1,0
1279,-100,4,1,1,44,0,0
1455,-100,4,1,1,58,0,0
1632,-100,4,1,1,71,0,0
1808,-100,4,1,0,41,0,0
44073,-100,4,2,0,50,0,0
55190,-100,4,1,0,41,0,0
59690,-100,4,1,1,46,0,0
61014,-100,4,1,0,41,0,0
65337,-100,4,1,1,34,0,0
65955,-100,4,1,1,51,0,0
66308,-100,4,1,1,67,0,0
66842,-100,3,2,0,50,0,0
73101,-133.333333333333,3,2,0,50,0,0
75131,-100,3,2,0,50,0,0
81665,-100,4,2,0,50,0,0
81748,-100,4,1,0,41,0,0
122512,-100,4,1,1,46,0,0
123836,-100,4,1,0,41,0,0
128159,-100,4,1,1,46,0,0
129483,-100,4,1,0,41,0,0
129664,-100,3,2,0,50,0,0
144487,-100,4,2,2,50,0,0
147217,-100,4,1,2,41,0,0
166982,-100,4,1,1,41,0,0
167688,-100,4,1,0,41,0,0
168394,-100,4,1,1,41,0,0
169100,-100,4,1,0,41,0,0
171834,-100,4,2,0,0,0,0
172187,-100,4,1,1,31,0,0
174040,-100,4,1,0,41,0,0
190894,-100,4,1,1,46,0,0
193717,-100,4,1,0,41,0,0
193901,-100,4,1,0,41,0,1
196805,-100,4,2,0,0,0,1
199548,-100,4,2,0,0,0,0

[Colours]
Combo1 : 255,255,255
Combo2 : 57,95,160
Combo3 : 248,163,3
Combo4 : 145,145,145

[HitObjects]
257,26,490,2,0,B|174:26,1,75,8|8
257,79,842,2,0,B|336:79,1,75,8|8
257,139,1195,1,8
209,186,1372,1,8
256,233,1548,1,8
303,185,1725,1,8
398,124,1901,6,2,B|382:204|432:267,1,150,6|8
304,313,2607,1,0
237,327,2784,1,0
173,304,2960,1,8
151,193,3137,6,2,B|185:111|143:31,1,150,2|0
211,16,3666,1,8
269,49,3842,1,0
288,113,4019,1,0
265,176,4195,2,0,B|315:176,2,37.5,0|0|8
215,221,4548,1,0
277,321,4725,6,2,B|344:367|441:349,1,150,2|8
293,260,5431,2,0,B|360:306|457:288,1,150,0|8
396,236,5960,6,0,B|376:154|431:86,1,150
387,37,6489,1,8
320,50,6666,2,0,B|293:85|239:83,1,75,0|0
187,86,7019,1,0
187,86,7107,1,0
187,86,7195,1,8
121,68,7372,1,0
51,155,7548,5,2
25,217,7725,1,0
85,245,7901,1,8
114,183,8078,2,2,B|183:226|269:211,1,150,2|0
313,174,8607,1,8
378,192,8784,5,0
411,186,8872,1,0
426,160,8960,2,2,B|398:86|436:13,1,150,2|8
369,9,9489,2,2,B|336:81|361:165,1,150,2|0
306,111,10019,2,0,B|267:127|224:114,1,75,8|0
232,116,10372,5,2
101,83,10725,1,8
52,209,11078,1,0
183,239,11431,1,8
249,226,11607,6,2,B|216:299|266:371,1,150,2|0
303,312,12137,2,0,B|333:339|381:329,1,75,8|0
415,278,12489,1,0
414,211,12666,2,0,B|461:211,2,37.5,0|0|8
372,157,13019,1,0
298,63,13195,6,2,B|259:73|216:56,2,75,2|0|8
270,195,13901,2,2,B|210:242|111:214,1,150,2|8
64,131,14431,6,2,B|118:178|205:158,1,150,2|0
256,96,14960,2,2,B|221:109|176:99,1,75,10|0
114,92,15313,1,2
51,66,15489,1,0
51,66,15578,1,0
51,66,15666,2,0,B|44:25|76:1,1,75,10|0
183,38,16019,6,0,B|212:66|262:70,1,75,2|0
226,132,16372,2,0,B|254:165|300:161,1,75,10|0
357,143,16725,1,2
374,208,16901,2,2,B|319:265|339:359,1,150,2|0
219,313,17431,5,2
171,265,17607,2,0,B|127:265,2,37.5,0|0|10
172,197,17960,1,2
216,144,18137,1,0
216,136,18225,1,0
216,128,18313,1,0
216,120,18401,1,0
216,112,18489,1,8
257,58,18666,1,0
331,119,18842,6,2,B|407:166,1,75,2|0
395,256,19195,1,2
172,286,19548,5,6
75,303,19725,1,0
37,213,19901,1,0
132,192,20078,1,6
210,56,21666,5,6
164,105,21842,1,0
203,159,22019,1,8
269,168,22195,1,2
314,118,22372,1,0
276,63,22548,1,0
238,119,22725,2,2,B|229:209,1,75,10|0
380,167,23078,5,2
327,209,23254,1,0
355,270,23431,1,8
419,287,23607,1,2
395,225,23784,1,0
450,188,23960,1,0
423,125,24137,2,2,B|452:47,1,75,10|0
314,92,24489,6,2,B|258:149|172:139,1,150,2|8
336,149,25019,2,2,B|280:206|194:196,1,150,2|0
365,206,25548,1,10
306,240,25725,5,0
306,240,25813,1,0
306,240,25901,2,2,B|271:267|219:260,2,75,2|0|8
309,308,26431,2,2,B|344:335|396:328,2,75,2|0|0
253,346,26960,2,2,B|216:357|177:347,1,75,10|0
99,219,27313,5,2
64,161,27489,2,0,B|19:161,2,37.5,0|0|8
93,99,27842,2,2,B|178:90|214:9,1,150,2|0
276,1,28372,1,10
332,38,28548,1,0
480,62,28725,6,2,B|440:130|464:210,1,150,2|8
447,351,29254,2,2,B|423:274|463:206,1,150,2|0
395,202,29784,2,2,B|355:214|308:203,1,75,10|0
257,68,30137,6,2,B|180:102|240:144|149:179,1,150,2|8
96,152,30666,1,2
35,173,30842,2,2,B|-17:239|55:248|-8:321,1,150,0|8
304,344,31548,5,2
304,280,31725,2,0,B|344:280,2,37.5,0|0|8
304,216,32078,1,2
304,152,32254,1,0
304,152,32342,1,0
304,152,32431,1,0
304,152,32519,1,0
304,152,32607,1,10
58,46,32960,6,0,B|32:80|36:121,2,75,6|0|8
89,106,33489,2,0,B|93:142|67:176,2,75,2|0|0
121,165,34019,2,2,B|160:169|184:202,1,75,10|0
249,293,34372,6,0,B|232:260|250:220,1,75,2|0
250,151,34725,1,8
322,147,34901,2,0,B|305:179|323:219,1,75,2|0
323,293,35254,1,0
379,256,35431,2,2,B|418:268|460:259,1,75,10|0
459,126,35784,6,2,B|349:141|373:53|240:72,2,225,2|2|10
38,126,37195,6,2,B|148:141|124:53|257:72,2,225,2|2|10
330,196,38607,6,2,B|309:236|262:236,2,75,2|0|8
393,219,39137,1,2
393,219,39225,1,0
393,219,39313,1,0
405,285,39490,1,0
351,326,39666,2,2,B|316:304|277:309,1,75,10|0
199,218,40019,6,2,B|157:149|186:66,1,150,2|8
235,172,40548,2,2,B|287:110|373:105,1,150,2|0
295,190,41078,2,2,B|337:195|359:232,1,75,10|0
256,296,41431,6,2,B|224:319|174:314,1,75,2|0
91,284,41784,1,8
23,101,42137,1,2
96,36,42313,1,0
166,103,42490,1,8
248,52,42666,6,2,B|267:136|356:168,1,150,2|0
438,165,43195,1,10
466,258,43372,1,0
385,314,43548,2,2,B|344:328|300:316,1,75,2|0
311,318,43901,1,8
256,117,44254,5,4
95,80,55548,6,2,B|60:152|101:236,1,150,6|8
205,145,56254,1,2
257,102,56431,1,0
307,146,56607,1,8
257,192,56784,6,2,B|284:274|376:303,1,150,2|0
424,287,57313,1,8
457,227,57490,2,2,B|383:204|356:122,1,150,2|0
294,96,58019,1,10
84,45,58372,5,2
42,97,58548,1,0
65,160,58725,1,8
182,226,59078,1,0
165,291,59254,1,0
197,350,59431,1,8
264,356,59607,1,0
319,317,59784,5,12
464,210,60137,1,12
335,84,60490,1,12
196,198,60842,1,12
31,219,61195,6,2,B|19:134|57:70,1,150,2|8
181,121,61901,2,2,B|212:147|254:141,1,75,2|0
284,141,62166,1,0
312,158,62254,1,8
268,209,62431,6,2,B|235:281|265:359,1,150,2|0
330,347,62960,1,8
367,290,63137,2,2,B|431:331|520:317,1,150,2|0
503,250,63666,1,8
431,62,64019,5,2
379,105,64195,1,0
318,75,64372,2,0,B|243:57|165:84,1,150,8|0
210,136,64901,2,0,B|136:166|49:144,1,150,8|0
19,199,65431,5,12
139,332,65784,1,12
318,342,66137,1,12
437,207,66490,1,12
350,49,66842,6,0,B|296:96|202:85,1,150,4|2
78,52,67548,1,8
88,118,67725,5,0
88,118,67813,1,0
88,118,67901,2,0,B|118:153|175:151,2,75,2|0|2
44,170,68431,1,0
85,222,68607,2,0,B|61:259|72:300,1,75,8|0
177,309,68960,6,0,B|237:350|263:296|343:339,1,150,4|2
380,294,69490,1,0
404,231,69666,1,8
387,165,69842,1,0
344,113,70019,6,2,B|267:88|242:4,1,150,2|2
180,33,70548,1,0
168,100,70725,1,8
109,133,70901,5,0
109,133,70990,1,0
109,133,71078,2,0,B|70:161|63:204,1,75,4|0
129,268,71431,2,0,B|114:236|133:196,1,75,2|0
255,262,71784,2,0,B|219:265|188:235,1,75,8|0
281,121,72137,5,4
244,177,72313,1,0
349,128,72490,1,2
311,183,72666,1,0
415,136,72842,1,8
380,193,73019,1,0
478,146,73195,6,2,B|461:265|344:329,1,224.999993294478,4|8
135,346,74254,2,2,B|254:378|373:314,1,224.999993294478,2|8
274,159,75313,6,0,B|207:125|189:174|121:137,1,150,4|2
74,98,75842,1,0
74,98,75931,1,0
74,98,76019,1,8
20,139,76195,1,0
19,206,76372,6,0,B|49:276|-2:351,1,150,2|2
67,346,76901,1,0
101,287,77078,1,8
135,346,77254,6,0,B|136:384,2,37.5,0|0|4
180,296,77607,1,0
148,236,77784,2,0,B|152:148|233:105,1,150,2|8
246,176,78313,5,0
246,176,78401,1,0
246,176,78490,2,2,B|301:227|389:217,1,150,4|2
445,186,79019,1,0
445,118,79195,1,8
382,91,79372,1,0
267,76,79548,6,2,B|200:107|112:79,1,150,4|2
68,125,80078,1,0
97,185,80254,2,0,B|118:270|47:329,1,150,8|4
281,331,80960,5,2
344,308,81137,1,0
365,282,81225,1,0
361,248,81313,1,8
345,181,81490,1,0
286,147,81666,1,4
256,192,81754,12,4,84490
114,38,95784,5,6
45,154,96137,1,8
45,154,96313,1,2
77,284,96666,1,0
77,284,96842,1,10
114,339,97019,1,0
180,349,97195,5,2
311,317,97548,1,8
311,317,97725,1,2
389,207,98078,1,0
389,207,98254,1,10
405,141,98431,1,0
265,83,98607,6,2,B|192:119|107:80,1,150,2|8
265,147,99137,2,2,B|192:111|107:150,1,150,2|0
191,197,99666,2,2,B|172:231|179:271,1,75,10|0
226,317,100019,5,2
292,305,100195,2,0,B|334:315,2,37.5,0|0|8
307,239,100548,2,2,B|296:161|358:81,1,150,2|0
411,82,101078,1,10
466,120,101254,1,0
472,267,101431,6,2,B|466:311|420:325,1,75,2|0
359,323,101784,1,8
291,317,101960,2,0,B|296:273|335:262,1,75,2|0
403,266,102313,1,0
371,206,102490,2,2,B|287:207,1,75,10|0
270,96,102842,5,2
222,143,103019,1,0
157,123,103195,1,8
171,188,103372,1,2
108,211,103548,1,0
121,278,103725,1,0
184,255,103901,2,2,B|209:292|245:293,1,75,10|0
342,153,104254,6,2,B|375:231|327:305,1,150,2|8
272,175,104960,2,2,B|276:268|171:301,1,150,2|8
185,224,105490,2,2,B|133:287|34:270,1,150,2|0
12,216,106019,1,10
19,148,106195,1,0
74,110,106372,1,2
141,110,106548,1,0
155,140,106637,1,0
186,151,106725,5,8
264,69,106901,1,0
343,148,107078,1,6
321,281,107431,5,8
257,304,107607,2,2,B|180:326|108:283,1,150,2|0
64,237,108137,1,10
98,178,108313,1,0
164,188,108490,6,2,B|196:215|243:208,1,75,2|0
296,227,108842,1,10
357,200,109019,1,0
347,132,109195,2,2,B|309:104|317:57,1,75,2|0
261,107,109548,2,2,B|237:68|262:30,1,75,10|0
162,55,109901,5,2
163,152,110078,1,6
30,295,110431,1,6
160,111,110784,1,6
287,296,111137,1,6
379,232,111313,6,2,B|418:204|425:161,1,75,6|0
359,97,111666,2,2,B|374:129|355:169,1,75,14|0
233,103,112019,2,2,B|269:100|300:130,1,75,6|0
326,230,112372,2,2,B|285:214|287:164,1,75,14|0
421,311,112725,6,2,B|353:346|274:321,1,150,6|8
213,293,113254,1,2
183,232,113431,1,0
183,232,113519,1,0
183,232,113607,1,0
194,165,113784,2,2,B|237:172|269:146,1,75,10|0
214,104,114137,6,2,B|239:29|333:7,1,150,2|10
389,7,114666,1,0
427,62,114842,2,2,B|390:138|426:216,1,150,2|10
454,266,115372,1,0
352,316,115548,5,6
306,266,115725,2,0,B|265:266,2,37.5,6|0|8
307,198,116078,2,0,B|268:127|310:40,2,150,6|6|6
247,165,116960,5,6
200,213,117137,2,0,B|159:212,2,37.5,0|0|14
222,276,117490,1,0
168,317,117666,1,6
168,317,117754,1,0
168,317,117842,1,0
168,317,117931,1,0
168,317,118019,2,0,B|90:317,1,75,10|0
45,196,118372,5,6
78,137,118548,1,0
46,77,118725,1,8
183,197,119078,1,2
149,138,119254,1,0
179,77,119431,1,10
246,84,119607,6,2,B|309:131|394:124,1,150
420,183,120137,1,8
391,244,120313,2,2,B|321:276|352:324|274:360,1,150,2|0
222,352,120842,1,10
163,318,121019,5,0
163,318,121107,1,0
163,318,121195,2,2,B|146:238,1,75,2|0
69,182,121548,2,2,B|87:266,1,75,10|0
212,225,121901,2,2,B|328:197,2,112.5
156,153,122607,5,12
285,28,122960,1,12
153,31,123313,1,12
284,157,123666,1,12
448,82,124019,6,2,B|441:126|465:159,2,75,2|0|8
388,48,124548,1,0
332,85,124725,2,2,B|261:116|177:95,1,150,2|10
121,122,125254,5,2
121,122,125342,1,0
121,122,125431,1,0
112,189,125607,1,2
53,221,125784,1,10
60,288,125960,2,2,B|111:340|209:333,1,150,2|0
265,329,126490,1,10
318,288,126666,1,0
239,207,126842,6,2,B|277:132|368:127,1,150,2|8
474,196,127548,1,0
499,258,127725,1,0
437,286,127901,1,8
412,223,128078,1,0
344,228,128254,5,12
155,278,128607,1,12
281,129,128960,1,12
275,323,129313,1,12
166,165,129666,5,4
85,54,138137,5,4
101,119,138313,2,0,B|83:159|105:197,2,75,0|2|0
160,151,138842,1,8
219,119,139019,1,0
275,156,139195,6,0,B|303:184|345:186,1,75,2|0
414,169,139548,2,0,B|376:193|333:183,1,75,2|0
306,242,139901,1,8
298,308,140078,1,0
185,305,140254,6,0,B|144:320|107:302,1,75,4|0
52,271,140607,1,2
33,206,140784,1,0
79,156,140960,1,8
194,226,141313,6,2,B|258:257|351:236,1,150,4|2
341,170,141842,1,0
405,150,142019,2,0,B|441:150,2,37.5,8|0|0
425,261,142372,6,0,B|375:318|284:313,1,150,4|2
222,302,142901,1,0
199,238,143078,2,0,B|221:201|211:160,1,75,8|0
150,194,143431,6,0,B|112:217|70:204,1,75,4|0
34,154,143784,1,2
62,92,143960,2,0,B|19:91,2,37.5,0|0|8
123,62,144313,1,0
234,76,144490,6,2,B|290:130|385:123,1,150,4|2
434,292,145195,1,8
347,316,145372,1,0
280,255,145548,1,2
192,274,145725,6,0,B|171:190|95:163,1,150,2|0
64,81,146254,1,8
134,25,146431,1,0
215,64,146607,1,2
232,152,146784,1,0
232,152,146872,1,0
232,152,146960,1,8
173,220,147137,1,0
255,323,147313,5,6
255,323,147490,1,0
255,323,147666,1,8
390,322,148019,1,0
390,322,148195,1,0
390,322,148372,1,8
457,322,148548,6,2,B|457:156,1,150,6|0
389,169,149078,2,0,B|389:0,1,150,8|0
321,22,149607,1,0
321,22,149695,1,0
321,22,149784,1,8
279,75,149960,1,0
214,95,150137,6,2,B|154:153|65:136,1,150,6|8
26,263,150842,1,0
65,317,151019,1,0
132,317,151195,1,8
173,264,151372,6,2,B|256:282|325:227,1,150,6|0
340,171,151901,1,8
203,53,152254,1,0
69,173,152607,1,8
204,291,152960,6,0,B|231:328|278:328,2,75,6|0|8
177,228,153490,1,0
226,181,153666,2,0,B|285:135|269:44,1,150,0|8
335,33,154195,6,2,B|351:74|388:143|388:70|383:21,1,150,6|0
450,22,154725,2,0,B|454:63|444:112,1,75,8|0
434,163,155078,1,0
401,221,155254,2,0,B|389:240|370:253,2,37.5,0|0|8
303,314,155784,6,2,B|228:341|153:311,1,150,6|8
57,219,156490,2,0,B|57:124,1,75
100,91,156842,1,8
163,114,157019,6,2,B|234:154|325:124,1,150,6|0
372,151,157548,1,8
395,214,157725,1,0
360,272,157901,1,0
293,284,158078,2,0,B|293:328,2,37.5,0|0|8
162,248,158607,5,6
110,204,158784,1,0
48,232,158960,1,8
29,98,159313,1,0
72,46,159490,1,0
137,62,159666,1,8
138,129,159842,6,2,B|191:188|289:187,1,150,6|0
322,141,160372,2,0,B|404:141,1,75,8|0
451,181,160725,1,0
462,247,160901,1,0
413,293,161078,1,8
285,249,161431,6,2,B|204:249,1,75,6|0
142,250,161784,2,0,B|57:250,1,75,8|0
29,193,162137,1,0
29,193,162225,1,0
29,193,162313,1,0
51,129,162490,1,8
117,117,162666,6,2,B|185:165|281:146,1,150,6|0
319,106,163195,2,0,B|296:143|248:152,1,75,8|0
278,279,163548,2,0,B|255:245|266:207,2,75,0|0|8
400,220,164254,6,2,B|371:146|423:146|391:55,1,150,6|8
335,43,164784,1,0
335,43,164872,1,0
335,43,164960,1,0
268,54,165137,1,0
228,109,165313,1,8
250,172,165490,6,2,B|196:231|106:220,1,150,6|0
62,264,166019,1,8
99,320,166195,1,0
168,312,166372,2,0,B|253:312,1,75
254,312,166637,1,0
265,312,166725,1,8
411,207,167078,5,12
388,119,167254,1,8
299,134,167431,1,12
317,222,167607,1,8
220,165,167784,6,2,B|182:189|134:182,1,75
205,101,168137,2,2,B|171:128|125:120,1,75
54,200,168490,5,12
21,283,168666,1,8
87,344,168842,1,12
124,262,169019,1,8
236,269,169195,6,2,B|236:349,1,75
235,207,169548,2,2,B|235:123,1,75
256,192,169901,12,0,172019
260,181,172725,6,0,B|209:240,1,75,8|8
278,252,173078,2,0,B|319:321,1,75,8|8
355,261,173431,1,8
355,261,173607,1,8
399,209,173784,1,8
399,209,173960,1,8
391,141,174137,6,2,B|359:119|361:75,1,75,6|0
310,31,174490,1,8
246,54,174666,2,0,B|214:79|170:67,1,75,0|0
113,96,175019,1,0
119,163,175195,1,8
178,194,175372,6,2,B|203:278|149:353,1,150,2|0
223,360,175901,2,0,B|262:371|298:362,1,75,8|0
353,324,176254,1,0
348,256,176431,1,0
348,256,176519,1,0
348,256,176607,1,8
304,204,176784,1,0
233,116,176960,6,2,B|154:116,2,75,2|2|8
280,68,177490,1,0
344,86,177666,2,2,B|409:126|494:118,1,150,2|8
333,147,178195,6,2,B|398:187|483:179,1,150,2|0
487,246,178725,1,10
449,302,178901,1,0
383,286,179078,2,0,B|350:310|309:302,2,75,0|2|10
206,145,179784,6,2,B|174:166|132:161,1,75,2|0
84,206,180137,1,8
117,264,180313,2,2,B|135:308|116:343,1,75,2|0
179,366,180666,1,0
245,352,180842,1,8
270,289,181019,1,0
240,232,181195,6,2,B|224:136|328:136|304:8,1,225
374,24,181901,1,0
374,24,181990,1,0
374,24,182078,1,0
409,81,182254,1,8
409,81,182342,1,0
409,81,182431,1,0
426,192,182607,5,2
377,238,182784,1,0
399,301,182960,2,0,B|364:322|324:313,1,75,8|0
267,345,183313,1,0
209,308,183490,1,0
222,242,183666,1,8
288,231,183842,6,2,B|316:154|277:83,1,150,2|0
218,54,184372,1,8
152,71,184548,1,0
131,135,184725,2,0,B|79:136,2,37.5
176,185,185078,1,8
129,321,185431,6,2,B|157:352|204:348,2,75,2|2|8
217,283,185960,2,0,B|179:285|146:253,2,75,0|2|0
271,322,186490,1,8
336,308,186666,6,2,B|339:226|416:181,1,150
441,124,187195,1,8
403,67,187372,1,0
335,73,187548,2,2,B|314:108|262:112,1,75
207,94,187901,1,10
41,246,188254,6,2,B|41:326,2,75,2|2|10
85,194,188784,1,0
85,194,188872,1,0
85,194,188960,2,2,B|112:228|161:229,1,75
208,196,189313,1,8
258,240,189490,1,0
238,304,189666,6,2,B|272:330|316:324,1,75
366,289,190019,1,8
352,222,190195,2,2,B|306:159|321:64,1,150
255,55,190725,1,8
255,55,190813,1,0
255,55,190901,1,0
128,89,191078,5,8
76,208,191431,1,8
166,107,191784,1,8
107,228,192137,1,8
306,110,192490,5,8
360,233,192842,1,8
342,99,193195,1,8
404,218,193548,1,8
256,328,193901,5,6
256,144,194254,1,6
256,144,194431,2,6,B|184:176|104:152,2,150
312,73,195313,5,6
486,115,195666,1,6
487,295,196019,1,6
314,347,196372,1,6
199,208,196725,1,6
256,192,196813,12,0,199548
