osu file format v8

[General]
AudioFilename: ED6421.ogg
AudioLeadIn: 1496
PreviewTime: 95611
Countdown: 0
SampleSet: Soft
StackLeniency: 0.4
Mode: 0
LetterboxInBreaks: 1

[Editor]
DistanceSpacing: 0.8
BeatDivisor: 2
GridSize: 8

[Metadata]
Title:The Fate of The Fairies
Artist:Falcom Sound Team J.D.K.
Creator:impossiblexu
Version:Easy
Source:The Legend of Heroes VI
Tags:Sora no Kiseki SC ignorethis

[Difficulty]
HPDrainRate:2
CircleSize:3
OverallDifficulty:2
ApproachRate:2
SliderMultiplier:0.7
SliderTickRate:1

[Events]
//Background and Video events
0,0,"bg.jpg"
//Break Periods
2,44454,53983
2,84690,94217
2,129866,136569
//Storyboard Layer 0 (Background)
//Storyboard Layer 1 (Fail)
//Storyboard Layer 2 (Pass)
//Storyboard Layer 3 (Foreground)
//Storyboard Sound Samples
//Background Colour Transformations
3,100,163,162,255

[TimingPoints]
490,352.941176470588,4,1,1,46,1,0
1808,-100,4,2,0,50,0,0
18661,-100,4,1,2,36,0,0
20249,-100,4,2,0,50,0,0
66842,-100,3,2,0,50,0,0
81665,-100,4,2,0,50,0,0
129493,-100,4,2,0,50,0,0
129664,-100,3,2,0,50,0,0
144487,-100,4,1,2,40,0,0
173952,-100,4,2,0,50,0,0
190718,-100,4,1,1,45,0,0
193541,-100,4,1,0,40,0,0
193901,-100,4,1,0,40,0,1
196808,-100,4,2,0,0,0,1
199548,-100,4,2,0,0,0,0

[Colours]
Combo1 : 255,255,255
Combo2 : 57,95,160
Combo3 : 248,163,3
Combo4 : 145,145,145

[HitObjects]
221,115,490,2,0,B|298:115,3,70,8|8|8|8
332,152,1901,6,2,B|318:191|337:228,1,70,4|0
277,226,2607,2,0,B|282:287|228:323,2,105,2|4|0
222,212,4019,1,2
171,236,4372,1,0
129,273,4725,6,0,B|93:266|79:225,1,70,4|0
107,178,5431,2,0,B|90:140|106:101,1,70,2|0
142,149,6137,2,0,B|249:196|359:143,1,210,0|2
357,94,7548,5,4
260,36,8254,1,2
148,49,8960,1,4
72,131,9666,1,2
97,240,10372,6,0,B|118:316|206:336,1,140,4|2
249,336,11431,1,0
298,317,11784,2,0,B|368:294|445:321,1,140,4|2
467,272,12842,1,0
434,226,13195,6,0,B|498:179|541:119|465:120|380:173,1,210,4|2
342,158,14607,2,0,B|274:191|201:158,1,140,0|2
155,181,15666,1,2
147,236,16019,5,4
259,237,16725,1,2
361,282,17431,2,0,B|333:315|338:357,1,70,4|0
288,316,18137,2,0,B|259:339|217:332,1,70,2|0
201,280,18842,6,0,B|165:286|124:278,1,70,2|0
124,222,19548,2,2,B|90:175|133:165|95:107,1,105,2|6
473,47,21666,6,2,B|445:100|477:156,2,105,4|2|0
419,64,23078,2,2,B|346:85|284:45,1,140,4|2
256,94,24137,1,0
294,144,24489,6,2,B|264:210|292:286,1,140,4|2
378,212,25901,1,4
420,248,26254,1,0
431,302,26607,1,2
393,343,26960,1,0
336,342,27313,6,2,B|286:316|284:361|229:333,2,105,4|2|0
326,286,28725,1,4
348,234,29078,2,0,B|348:157|421:106,1,140,2|0
384,64,30137,5,4
272,37,30842,1,2
161,56,31548,2,0,B|161:140,3,70,0|0|2|0
112,154,32960,6,2,B|77:219|111:294,1,140,4|2
162,305,34019,1,0
217,303,34372,2,2,B|275:261|358:273,2,140,4|2|4
169,273,36137,5,0
161,217,36489,1,2
211,192,36842,1,0
206,136,37195,2,2,B|281:113|297:17,1,140,4|2
404,49,38607,6,2,B|375:117|433:117|391:192,1,140,4|2
370,234,39666,1,0
315,246,40019,2,2,B|247:217|247:275|172:233,1,140,4|2
124,227,41078,1,0
103,174,41431,5,4
151,73,42137,2,2,B|208:92|264:64,2,105,2|4|2
95,79,43548,1,2
46,106,43901,1,2
33,160,44254,5,4
256,43,55548,5,4
165,108,56254,1,2
143,159,56607,1,0
157,212,56960,2,2,B|180:289|280:309,1,140,4|2
311,306,58019,1,0
361,281,58372,6,2,B|355:236|377:202,1,70,4|0
315,222,59078,2,2,B|278:240|234:227,1,70,2|0
219,180,59784,2,2,B|219:93,3,70,4|0|2|2
174,75,61195,6,2,B|121:132|40:123,1,140,4|2
15,169,62254,1,0
32,222,62607,2,2,B|16:299|72:357,1,140,6|2
155,282,64019,6,2,B|224:318|226:256|309:301,1,140,4|2
367,210,65431,2,2,B|367:116,3,70,4|0|2|2
334,94,66842,6,2,B|257:112|192:71,1,140,4|2
215,128,67901,2,2,B|223:210|142:255,1,140,4|2
175,299,68960,5,4
221,330,69313,1,0
276,322,69666,1,2
308,275,70019,2,2,B|300:198|346:139,1,140,4|2
287,133,71078,6,2,B|285:55|377:11,1,140,4|2
398,60,72137,2,2,B|431:86|474:82,2,70,4|0|2
380,113,73195,6,2,B|344:179|416:181|361:252,1,140,4|2
309,243,74254,2,2,B|345:177|273:175|328:104,1,140,0|2
285,68,75313,6,2,B|222:102|131:79,1,140,4|2
104,48,76372,2,2,B|37:98|49:187,1,140,4|2
99,191,77431,5,4
131,236,77784,1,0
112,288,78137,1,2
60,309,78490,2,2,B|94:382|187:368,1,140,4|2
202,320,79548,6,2,B|274:350|354:316,1,140,4|2
369,274,80607,1,4
341,225,80960,1,0
371,177,81313,1,2
256,192,81666,12,4,84490
52,135,95784,6,2,B|15:187|21:244|67:285|139:280|180:241|184:168,2,280,4|2|4
75,83,98960,1,0
130,78,99313,2,0,B|159:104|196:98,1,70,2|0
194,42,100019,2,2,B|258:40|259:95|331:91,1,140,4|2
374,80,101078,1,0
407,125,101431,6,2,B|372:195|401:281,1,140,4|2
352,297,102490,1,0
298,281,102842,2,2,B|266:214|294:135,1,140,4|2
264,94,103901,1,0
209,107,104254,6,2,B|146:146|63:124,2,140,4|2|0
205,51,106019,1,0
154,27,106372,1,2
98,29,106725,1,2
47,52,107078,5,4
47,164,107784,1,2
159,164,108490,1,4
159,51,109195,1,2
268,75,109901,6,2,B|307:121|374:122,2,105,4|2|0
221,106,111313,2,2,B|185:133|185:184,1,70,4|0
242,171,112019,2,2,B|227:206|240:241,1,70,2|0
283,204,112725,6,2,B|341:250|436:238,1,140,4|2
386,346,114137,2,2,B|311:354|254:310,1,140,4|2
198,316,115195,1,2
147,289,115548,6,2,B|97:268|87:306|32:279,2,105,4|2|0
130,235,116960,2,2,B|130:153,1,70,4|0
185,169,117666,2,2,B|185:87,1,70,2|2
238,116,118372,6,2,B|341:151|341:81|451:124,1,210,4|2
472,169,119784,1,4
472,225,120137,1,0
435,267,120490,1,2
381,281,120842,1,2
328,260,121195,6,2,B|265:225|178:245,1,140,4|2
79,247,122607,2,2,B|54:216|60:174,1,70,4|0
16,145,123313,1,2
9,89,123666,1,2
52,54,124019,6,2,B|115:87|213:65,1,140,4|2
240,53,125078,1,0
284,86,125431,2,2,B|256:156|291:224,1,140,4|2
254,265,126490,1,0
198,268,126842,6,2,B|127:241|46:252|105:309|190:342,1,210,4|0
232,344,128254,1,4
288,344,128607,1,0
288,288,128960,1,2
344,288,129313,1,2
344,232,129666,5,4
340,260,138137,6,2,B|297:191|343:104,1,140,4|2
276,126,139195,2,2,B|240:191|283:260,1,140,4|2
226,263,140254,5,4
192,218,140607,1,0
191,161,140960,1,2
219,112,141313,2,2,B|164:60|70:62,1,140,4|2
52,103,142372,6,2,B|24:131|26:173,2,70,4|0|2
88,145,143431,2,2,B|114:173|159:168,2,70,4|0|2
256,192,144490,12,4,147313
252,271,148548,5,4
155,38,150137,5,4
351,39,151372,5,4
211,249,152960,5,4
267,249,153313,1,0
323,249,153666,2,0,B|380:266|428:247,2,105,8|0|0
322,192,155078,1,8
403,114,155784,5,4
312,57,156490,2,0,B|269:86|198:78,2,105,8|4|0
343,103,157901,1,8
322,155,158254,1,0
265,155,158607,6,0,B|185:141|108:180,1,140,4|8
197,258,160019,2,0,B|198:334,2,70,4|0|8
302,295,161431,5,4
387,221,162137,1,8
421,176,162490,1,0
397,125,162842,2,0,B|344:78|261:83,1,140,4|8
186,160,164254,6,0,B|237:206|329:190,1,140,4|8
286,145,165313,2,0,B|225:252|292:370,1,210,0|8
384,304,167078,6,0,B|384:224,1,70,4|4
440,234,167784,2,2,B|440:160,1,70,10|2
440,104,168490,2,0,B|352:104,3,70,4|4|10|2
313,103,169901,5,4
264,204,170607,1,8
162,154,171313,1,0
212,52,172019,2,0,B|212:6,2,35,8|2|2
155,52,172725,6,2,B|65:54,3,70
57,102,174137,6,2,B|72:181|159:202,1,140,4|2
189,235,175195,1,0
242,250,175548,2,2,B|314:277|382:251,1,140,4|2
423,149,176960,6,2,B|356:184|355:123|277:163,1,140,4|2
245,120,178019,1,0
192,139,178372,2,2,B|143:198|166:282,1,140,4|2
257,328,179784,5,4
312,337,180137,2,0,B|382:365|457:338,1,140,2|0
481,295,181195,1,4
454,245,181548,2,0,B|427:178|454:105,1,140,2|0
484,61,182607,6,2,B|408:34|336:60,1,140,4|2
307,96,183666,1,0
250,96,184019,2,2,B|171:118|94:75,1,140,4|2
164,184,185431,6,2,B|227:226|319:217,1,140,4|2
353,218,186490,1,0
385,263,186842,2,2,B|346:328|241:322,2,140,4|2|4
433,234,188607,5,2
449,180,188960,1,2
384,88,189666,2,2,B|345:104|309:90,2,70,4|0|2
312,176,191078,5,8
208,219,191784,1,8
165,116,192490,1,8
268,72,193195,1,8
379,82,193901,6,2,B|376:145|424:181,2,105,6|6|6
323,77,195313,5,6
279,112,195666,1,6
269,167,196019,1,6
302,212,196372,1,6
356,224,196725,1,6
256,192,196901,12,0,199548
