osu file format v12

[General]
AudioFilename: ED6325.mp3
AudioLeadIn: 0
PreviewTime: 85235
Countdown: 0
SampleSet: Soft
StackLeniency: 0.7
Mode: 3
LetterboxInBreaks: 0
SpecialStyle: 0
WidescreenStoryboard: 0

[Editor]
DistanceSpacing: 0.6
BeatDivisor: 6
GridSize: 8

[Metadata]
Title:Phantasmagoria
TitleUnicode:Phantasmagoria
Artist:Falcom Sound Team J.D.K.
ArtistUnicode:Falcom Sound Team J.D.K.
Creator:richardfeder
Version:7K MX
Source:Eiyuu Densetsu Sora no Kiseki 3RD
Tags:BGM OST victorica_db simple_star
BeatmapID:293691
BeatmapSetID:113175

[Difficulty]
HPDrainRate:8
CircleSize:7
OverallDifficulty:8
ApproachRate:5
SliderMultiplier:1.4
SliderTickRate:1

[Events]
//Background and Video events
0,0,"1908270.jpg",0,0
//Break Periods
//Storyboard Layer 0 (Background)
//Storyboard Layer 1 (Fail)
//Storyboard Layer 2 (Pass)
//Storyboard Layer 3 (Foreground)
//Storyboard Sound Samples
//Background Colour Transformations
3,100,163,162,255

[TimingPoints]
806,800,4,2,0,30,1,0
26397,387.046832666753,4,2,0,30,1,0
85235,-100,4,2,0,30,0,1
106916,-100,4,2,0,30,0,0

[HitObjects]
109,192,806,1,0,0:0:0:0:
402,192,806,1,0,0:0:0:0:
182,192,806,1,0,0:0:0:0:
329,192,806,1,0,0:0:0:0:
256,192,1606,128,0,2406:0:0:0:0:
329,192,2406,128,0,3206:0:0:0:0:
402,192,2406,1,0,0:0:0:0:
182,192,3206,128,0,4006:0:0:0:0:
109,192,3206,1,0,0:0:0:0:
402,192,3806,1,0,0:0:0:0:
329,192,3906,1,0,0:0:0:0:
256,192,4006,1,0,0:0:0:0:
475,192,4006,128,0,5606:0:0:0:0:
402,192,4006,1,0,0:0:0:0:
109,192,5606,128,0,7206:0:0:0:0:
36,192,5606,1,0,0:0:0:0:
329,192,6006,1,0,0:0:0:0:
475,192,6006,1,0,0:0:0:0:
329,192,6406,1,0,0:0:0:0:
402,192,6406,1,0,0:0:0:0:
475,192,7206,128,0,8806:0:0:0:0:
256,192,7206,1,0,0:0:0:0:
402,192,7206,1,0,0:0:0:0:
182,192,7206,1,0,0:0:0:0:
329,192,7306,1,0,0:0:0:0:
256,192,7406,1,0,0:0:0:0:
182,192,7506,1,0,0:0:0:0:
109,192,7606,1,0,0:0:0:0:
36,192,7706,1,0,0:0:0:0:
109,192,7806,1,0,0:0:0:0:
182,192,7906,1,0,0:0:0:0:
256,192,8006,1,0,0:0:0:0:
329,192,8106,1,0,0:0:0:0:
402,192,8206,1,0,0:0:0:0:
36,192,8806,128,0,10406:0:0:0:0:
402,192,8806,1,0,0:0:0:0:
109,192,8806,1,0,0:0:0:0:
182,192,8906,1,0,0:0:0:0:
256,192,9006,1,0,0:0:0:0:
329,192,9106,1,0,0:0:0:0:
402,192,9206,1,0,0:0:0:0:
475,192,9306,1,0,0:0:0:0:
402,192,9406,1,0,0:0:0:0:
329,192,9506,1,0,0:0:0:0:
256,192,9606,1,0,0:0:0:0:
182,192,9706,1,0,0:0:0:0:
109,192,9806,1,0,0:0:0:0:
182,192,10406,128,0,12006:0:0:0:0:
475,192,10406,1,0,0:0:0:0:
402,192,10406,1,0,0:0:0:0:
109,192,10406,1,0,0:0:0:0:
256,192,10406,1,0,0:0:0:0:
329,192,10506,1,0,0:0:0:0:
402,192,10606,1,0,0:0:0:0:
475,192,10706,1,0,0:0:0:0:
402,192,10806,1,0,0:0:0:0:
329,192,10906,1,0,0:0:0:0:
256,192,11006,1,0,0:0:0:0:
109,192,11106,1,0,0:0:0:0:
36,192,11206,1,0,0:0:0:0:
109,192,11306,1,0,0:0:0:0:
109,192,12006,1,0,0:0:0:0:
256,192,12006,128,0,12906:0:0:0:0:
329,192,12006,1,0,0:0:0:0:
475,192,12006,1,0,0:0:0:0:
402,192,12106,1,0,0:0:0:0:
475,192,12206,1,0,0:0:0:0:
402,192,12306,1,0,0:0:0:0:
329,192,12406,1,0,0:0:0:0:
182,192,12506,1,0,0:0:0:0:
109,192,12606,1,0,0:0:0:0:
36,192,12706,1,0,0:0:0:0:
109,192,12806,1,0,0:0:0:0:
182,192,12906,1,0,0:0:0:0:
475,192,13006,1,0,0:0:0:0:
402,192,13072,1,0,0:0:0:0:
329,192,13139,1,0,0:0:0:0:
256,192,13206,1,0,0:0:0:0:
182,192,13272,1,0,0:0:0:0:
109,192,13339,1,0,0:0:0:0:
36,192,13406,1,0,0:0:0:0:
109,192,13472,1,0,0:0:0:0:
182,192,13539,1,0,0:0:0:0:
256,192,13606,1,0,0:0:0:0:
36,192,13606,1,0,0:0:0:0:
475,192,13606,1,0,0:0:0:0:
329,192,13606,1,0,0:0:0:0:
256,192,14406,128,0,15206:0:0:0:0:
475,192,15206,128,0,16006:0:0:0:0:
329,192,15206,1,0,0:0:0:0:
36,192,16006,128,0,16806:0:0:0:0:
109,192,16006,1,0,0:0:0:0:
256,192,16606,1,0,0:0:0:0:
182,192,16706,1,0,0:0:0:0:
402,192,16806,128,0,18406:0:0:0:0:
329,192,16806,1,0,0:0:0:0:
109,192,16806,1,0,0:0:0:0:
109,192,18406,128,0,20006:0:0:0:0:
182,192,18406,1,0,0:0:0:0:
329,192,18806,1,0,0:0:0:0:
475,192,18806,1,0,0:0:0:0:
402,192,19206,1,0,0:0:0:0:
475,192,19206,1,0,0:0:0:0:
475,192,20006,128,0,21606:0:0:0:0:
36,192,20006,1,0,0:0:0:0:
182,192,20006,1,0,0:0:0:0:
256,192,20006,1,0,0:0:0:0:
329,192,20106,1,0,0:0:0:0:
402,192,20206,1,0,0:0:0:0:
329,192,20306,1,0,0:0:0:0:
256,192,20406,1,0,0:0:0:0:
182,192,20506,1,0,0:0:0:0:
109,192,20606,1,0,0:0:0:0:
36,192,20706,1,0,0:0:0:0:
109,192,20806,1,0,0:0:0:0:
182,192,20906,1,0,0:0:0:0:
256,192,21006,1,0,0:0:0:0:
329,192,21106,1,0,0:0:0:0:
402,192,21206,1,0,0:0:0:0:
36,192,21606,128,0,23206:0:0:0:0:
402,192,21606,1,0,0:0:0:0:
109,192,21606,1,0,0:0:0:0:
182,192,21706,1,0,0:0:0:0:
256,192,21806,1,0,0:0:0:0:
329,192,21906,1,0,0:0:0:0:
402,192,22006,1,0,0:0:0:0:
475,192,22106,1,0,0:0:0:0:
402,192,22206,1,0,0:0:0:0:
329,192,22306,1,0,0:0:0:0:
256,192,22406,1,0,0:0:0:0:
182,192,22506,1,0,0:0:0:0:
109,192,22606,1,0,0:0:0:0:
475,192,22706,1,0,0:0:0:0:
402,192,22806,1,0,0:0:0:0:
182,192,23006,1,0,0:0:0:0:
256,192,23072,1,0,0:0:0:0:
329,192,23139,1,0,0:0:0:0:
402,192,23206,128,0,24806:0:0:0:0:
256,192,23206,1,0,0:0:0:0:
109,192,23206,1,0,0:0:0:0:
182,192,23306,1,0,0:0:0:0:
109,192,23406,1,0,0:0:0:0:
36,192,23506,1,0,0:0:0:0:
109,192,23606,1,0,0:0:0:0:
182,192,23706,1,0,0:0:0:0:
256,192,23806,1,0,0:0:0:0:
329,192,23906,1,0,0:0:0:0:
256,192,24006,1,0,0:0:0:0:
182,192,24106,1,0,0:0:0:0:
109,192,24206,1,0,0:0:0:0:
36,192,24306,1,0,0:0:0:0:
329,192,24806,1,0,0:0:0:0:
182,192,24806,1,0,0:0:0:0:
109,192,24806,1,0,0:0:0:0:
36,192,24806,128,0,26397:0:0:0:0:
256,192,24906,1,0,0:0:0:0:
329,192,25006,1,0,0:0:0:0:
402,192,25106,1,0,0:0:0:0:
475,192,25206,1,0,0:0:0:0:
109,192,25206,1,0,0:0:0:0:
182,192,25306,1,0,0:0:0:0:
256,192,25406,1,0,0:0:0:0:
329,192,25506,1,0,0:0:0:0:
402,192,25606,1,0,0:0:0:0:
182,192,25606,1,0,0:0:0:0:
475,192,25706,1,0,0:0:0:0:
256,192,25706,1,0,0:0:0:0:
329,192,25806,1,0,0:0:0:0:
402,192,25906,1,0,0:0:0:0:
475,192,26006,1,0,0:0:0:0:
109,192,26006,1,0,0:0:0:0:
182,192,26072,1,0,0:0:0:0:
256,192,26139,1,0,0:0:0:0:
329,192,26206,1,0,0:0:0:0:
402,192,26272,1,0,0:0:0:0:
475,192,26339,1,0,0:0:0:0:
256,192,26397,1,0,0:0:0:0:
109,192,26397,1,0,0:0:0:0:
402,192,26397,1,0,0:0:0:0:
256,192,26590,1,0,0:0:0:0:
256,192,26784,1,0,0:0:0:0:
182,192,26977,1,0,0:0:0:0:
329,192,26977,1,0,0:0:0:0:
475,192,26977,1,0,0:0:0:0:
256,192,27171,1,0,0:0:0:0:
256,192,27267,1,0,0:0:0:0:
329,192,27364,1,0,0:0:0:0:
182,192,27364,1,0,0:0:0:0:
36,192,27364,1,0,0:0:0:0:
256,192,27558,1,0,0:0:0:0:
475,192,27654,1,0,0:0:0:0:
182,192,27654,1,0,0:0:0:0:
402,192,27751,1,0,0:0:0:0:
109,192,27751,1,0,0:0:0:0:
256,192,27751,1,0,0:0:0:0:
256,192,27848,1,0,0:0:0:0:
329,192,27945,1,0,0:0:0:0:
182,192,27945,1,0,0:0:0:0:
36,192,27945,1,0,0:0:0:0:
256,192,28138,1,0,0:0:0:0:
256,192,28332,1,0,0:0:0:0:
475,192,28525,1,0,0:0:0:0:
182,192,28525,1,0,0:0:0:0:
329,192,28525,1,0,0:0:0:0:
256,192,28719,1,0,0:0:0:0:
109,192,28719,1,0,0:0:0:0:
256,192,28816,1,0,0:0:0:0:
182,192,28912,1,0,0:0:0:0:
402,192,28912,1,0,0:0:0:0:
36,192,28912,1,0,0:0:0:0:
256,192,28912,1,0,0:0:0:0:
256,192,29106,1,0,0:0:0:0:
256,192,29203,1,0,0:0:0:0:
256,192,29299,1,0,0:0:0:0:
256,192,29396,1,0,0:0:0:0:
329,192,29493,1,0,0:0:0:0:
109,192,29493,1,0,0:0:0:0:
402,192,29493,1,0,0:0:0:0:
256,192,29686,1,0,0:0:0:0:
256,192,29880,1,0,0:0:0:0:
109,192,30073,1,0,0:0:0:0:
182,192,30073,1,0,0:0:0:0:
402,192,30073,1,0,0:0:0:0:
256,192,30267,1,0,0:0:0:0:
256,192,30364,1,0,0:0:0:0:
256,192,30460,1,0,0:0:0:0:
36,192,30460,1,0,0:0:0:0:
182,192,30460,1,0,0:0:0:0:
402,192,30460,1,0,0:0:0:0:
256,192,30654,1,0,0:0:0:0:
256,192,30848,1,0,0:0:0:0:
36,192,30848,1,0,0:0:0:0:
329,192,30848,1,0,0:0:0:0:
256,192,30944,1,0,0:0:0:0:
109,192,30944,1,0,0:0:0:0:
402,192,30944,1,0,0:0:0:0:
182,192,31041,1,0,0:0:0:0:
329,192,31041,1,0,0:0:0:0:
475,192,31041,1,0,0:0:0:0:
256,192,31235,1,0,0:0:0:0:
256,192,31428,1,0,0:0:0:0:
475,192,31428,1,0,0:0:0:0:
182,192,31428,1,0,0:0:0:0:
402,192,31525,1,0,0:0:0:0:
109,192,31525,1,0,0:0:0:0:
329,192,31622,1,0,0:0:0:0:
182,192,31622,1,0,0:0:0:0:
36,192,31622,1,0,0:0:0:0:
256,192,31815,1,0,0:0:0:0:
256,192,31912,1,0,0:0:0:0:
256,192,32009,1,0,0:0:0:0:
109,192,32009,1,0,0:0:0:0:
402,192,32009,1,0,0:0:0:0:
256,192,32202,1,0,0:0:0:0:
36,192,32396,1,0,0:0:0:0:
475,192,32396,1,0,0:0:0:0:
256,192,32396,1,0,0:0:0:0:
402,192,32460,1,0,0:0:0:0:
109,192,32460,1,0,0:0:0:0:
182,192,32525,1,0,0:0:0:0:
329,192,32525,1,0,0:0:0:0:
475,192,32589,1,0,0:0:0:0:
36,192,32589,1,0,0:0:0:0:
256,192,32589,1,0,0:0:0:0:
109,192,32976,1,0,0:0:0:0:
475,192,32976,1,0,0:0:0:0:
329,192,32976,1,0,0:0:0:0:
36,192,33170,1,0,0:0:0:0:
256,192,33170,1,0,0:0:0:0:
182,192,33170,1,0,0:0:0:0:
402,192,33170,1,0,0:0:0:0:
109,192,33363,1,0,0:0:0:0:
36,192,33557,1,0,0:0:0:0:
182,192,33557,1,0,0:0:0:0:
256,192,33557,1,0,0:0:0:0:
329,192,33557,1,0,0:0:0:0:
109,192,33750,1,0,0:0:0:0:
256,192,33750,1,0,0:0:0:0:
475,192,33750,1,0,0:0:0:0:
256,192,33944,1,0,0:0:0:0:
402,192,33944,1,0,0:0:0:0:
36,192,34137,1,0,0:0:0:0:
182,192,34137,1,0,0:0:0:0:
329,192,34137,1,0,0:0:0:0:
109,192,34524,1,0,0:0:0:0:
36,192,34718,1,0,0:0:0:0:
182,192,34718,1,0,0:0:0:0:
109,192,34912,1,0,0:0:0:0:
36,192,35105,1,0,0:0:0:0:
182,192,35105,1,0,0:0:0:0:
329,192,35105,128,0,35299:0:0:0:0:
402,192,35299,128,0,35492:0:0:0:0:
109,192,35299,1,0,0:0:0:0:
475,192,35492,128,0,37234:0:0:0:0:
182,192,35686,1,0,0:0:0:0:
329,192,35686,1,0,0:0:0:0:
256,192,36073,1,0,0:0:0:0:
329,192,36266,1,0,0:0:0:0:
182,192,36266,1,0,0:0:0:0:
109,192,36460,1,0,0:0:0:0:
36,192,36653,1,0,0:0:0:0:
182,192,36653,1,0,0:0:0:0:
256,192,36847,1,0,0:0:0:0:
36,192,37234,1,0,0:0:0:0:
402,192,37234,1,0,0:0:0:0:
329,192,37234,1,0,0:0:0:0:
109,192,37298,1,0,0:0:0:0:
182,192,37363,1,0,0:0:0:0:
256,192,37427,1,0,0:0:0:0:
329,192,37492,1,0,0:0:0:0:
402,192,37556,1,0,0:0:0:0:
109,192,37621,1,0,0:0:0:0:
475,192,37621,1,0,0:0:0:0:
402,192,37685,1,0,0:0:0:0:
329,192,37750,1,0,0:0:0:0:
36,192,37814,1,0,0:0:0:0:
182,192,37814,1,0,0:0:0:0:
256,192,37814,1,0,0:0:0:0:
329,192,37879,1,0,0:0:0:0:
402,192,37943,1,0,0:0:0:0:
109,192,38008,1,0,0:0:0:0:
475,192,38008,1,0,0:0:0:0:
402,192,38072,1,0,0:0:0:0:
329,192,38137,1,0,0:0:0:0:
256,192,38201,1,0,0:0:0:0:
402,192,38201,1,0,0:0:0:0:
475,192,38201,1,0,0:0:0:0:
182,192,38266,1,0,0:0:0:0:
109,192,38330,1,0,0:0:0:0:
256,192,38395,1,0,0:0:0:0:
36,192,38395,1,0,0:0:0:0:
475,192,38459,1,0,0:0:0:0:
402,192,38524,1,0,0:0:0:0:
329,192,38588,1,0,0:0:0:0:
256,192,38653,1,0,0:0:0:0:
182,192,38717,1,0,0:0:0:0:
109,192,38782,1,0,0:0:0:0:
402,192,38782,1,0,0:0:0:0:
256,192,38782,1,0,0:0:0:0:
402,192,39169,1,0,0:0:0:0:
36,192,39169,1,0,0:0:0:0:
182,192,39169,1,0,0:0:0:0:
329,192,39363,1,0,0:0:0:0:
475,192,39363,1,0,0:0:0:0:
109,192,39363,1,0,0:0:0:0:
36,192,39363,1,0,0:0:0:0:
402,192,39556,1,0,0:0:0:0:
329,192,39750,1,0,0:0:0:0:
475,192,39750,1,0,0:0:0:0:
256,192,39750,1,0,0:0:0:0:
36,192,39750,1,0,0:0:0:0:
402,192,39943,1,0,0:0:0:0:
256,192,39943,1,0,0:0:0:0:
182,192,39943,1,0,0:0:0:0:
256,192,40137,1,0,0:0:0:0:
109,192,40137,1,0,0:0:0:0:
329,192,40330,1,0,0:0:0:0:
475,192,40330,1,0,0:0:0:0:
182,192,40330,1,0,0:0:0:0:
402,192,40717,1,0,0:0:0:0:
329,192,40911,1,0,0:0:0:0:
475,192,40911,1,0,0:0:0:0:
402,192,41104,1,0,0:0:0:0:
329,192,41298,1,0,0:0:0:0:
475,192,41298,1,0,0:0:0:0:
182,192,41298,128,0,41491:0:0:0:0:
402,192,41491,1,0,0:0:0:0:
109,192,41491,128,0,41685:0:0:0:0:
36,192,41685,128,0,43427:0:0:0:0:
329,192,41878,1,0,0:0:0:0:
475,192,41878,1,0,0:0:0:0:
256,192,42265,1,0,0:0:0:0:
182,192,42459,1,0,0:0:0:0:
329,192,42459,1,0,0:0:0:0:
256,192,42652,1,0,0:0:0:0:
329,192,42846,1,0,0:0:0:0:
475,192,42846,1,0,0:0:0:0:
402,192,43040,1,0,0:0:0:0:
109,192,43427,1,0,0:0:0:0:
182,192,43427,1,0,0:0:0:0:
475,192,43427,1,0,0:0:0:0:
402,192,43491,1,0,0:0:0:0:
329,192,43556,1,0,0:0:0:0:
256,192,43620,1,0,0:0:0:0:
182,192,43685,1,0,0:0:0:0:
109,192,43749,1,0,0:0:0:0:
402,192,43814,1,0,0:0:0:0:
36,192,43814,1,0,0:0:0:0:
109,192,43878,1,0,0:0:0:0:
182,192,43943,1,0,0:0:0:0:
329,192,44007,1,0,0:0:0:0:
475,192,44007,1,0,0:0:0:0:
256,192,44007,1,0,0:0:0:0:
182,192,44072,1,0,0:0:0:0:
109,192,44136,1,0,0:0:0:0:
402,192,44201,1,0,0:0:0:0:
36,192,44201,1,0,0:0:0:0:
109,192,44265,1,0,0:0:0:0:
182,192,44330,1,0,0:0:0:0:
36,192,44394,1,0,0:0:0:0:
109,192,44394,1,0,0:0:0:0:
256,192,44394,1,0,0:0:0:0:
329,192,44459,1,0,0:0:0:0:
402,192,44523,1,0,0:0:0:0:
475,192,44588,1,0,0:0:0:0:
36,192,44652,1,0,0:0:0:0:
109,192,44717,1,0,0:0:0:0:
182,192,44781,1,0,0:0:0:0:
256,192,44846,1,0,0:0:0:0:
329,192,44910,1,0,0:0:0:0:
256,192,44975,1,0,0:0:0:0:
109,192,44975,1,0,0:0:0:0:
402,192,44975,1,0,0:0:0:0:
36,192,45362,1,0,0:0:0:0:
475,192,45362,1,0,0:0:0:0:
329,192,45362,1,0,0:0:0:0:
109,192,45555,1,0,0:0:0:0:
182,192,45555,1,0,0:0:0:0:
402,192,45555,1,0,0:0:0:0:
329,192,45555,1,0,0:0:0:0:
36,192,45749,1,0,0:0:0:0:
182,192,45942,1,0,0:0:0:0:
109,192,45942,1,0,0:0:0:0:
475,192,45942,1,0,0:0:0:0:
256,192,45942,1,0,0:0:0:0:
36,192,46136,1,0,0:0:0:0:
475,192,46136,1,0,0:0:0:0:
329,192,46136,1,0,0:0:0:0:
109,192,46329,1,0,0:0:0:0:
182,192,46329,1,0,0:0:0:0:
475,192,46329,1,0,0:0:0:0:
402,192,46329,1,0,0:0:0:0:
36,192,46523,1,0,0:0:0:0:
475,192,46910,1,0,0:0:0:0:
402,192,47104,1,0,0:0:0:0:
329,192,47104,1,0,0:0:0:0:
475,192,47297,1,0,0:0:0:0:
402,192,47491,1,0,0:0:0:0:
329,192,47491,1,0,0:0:0:0:
36,192,47491,1,0,0:0:0:0:
182,192,47491,1,0,0:0:0:0:
475,192,47684,1,0,0:0:0:0:
256,192,47684,1,0,0:0:0:0:
109,192,47684,1,0,0:0:0:0:
475,192,47878,1,0,0:0:0:0:
182,192,47878,1,0,0:0:0:0:
109,192,47942,1,0,0:0:0:0:
402,192,47942,1,0,0:0:0:0:
36,192,48007,1,0,0:0:0:0:
329,192,48007,1,0,0:0:0:0:
256,192,48071,128,0,49619:0:0:0:0:
109,192,48071,1,0,0:0:0:0:
182,192,48071,1,0,0:0:0:0:
402,192,48071,1,0,0:0:0:0:
475,192,48071,1,0,0:0:0:0:
475,192,48265,1,0,0:0:0:0:
36,192,48458,1,0,0:0:0:0:
182,192,48458,1,0,0:0:0:0:
402,192,48458,1,0,0:0:0:0:
109,192,48652,1,0,0:0:0:0:
475,192,48652,1,0,0:0:0:0:
36,192,48845,1,0,0:0:0:0:
329,192,48845,1,0,0:0:0:0:
109,192,48942,1,0,0:0:0:0:
182,192,49039,1,0,0:0:0:0:
475,192,49039,1,0,0:0:0:0:
109,192,49136,1,0,0:0:0:0:
36,192,49232,1,0,0:0:0:0:
329,192,49232,1,0,0:0:0:0:
402,192,49426,1,0,0:0:0:0:
182,192,49426,1,0,0:0:0:0:
109,192,49523,1,0,0:0:0:0:
475,192,49619,128,0,51167:0:0:0:0:
329,192,49619,1,0,0:0:0:0:
36,192,49619,1,0,0:0:0:0:
402,192,49813,1,0,0:0:0:0:
36,192,50006,1,0,0:0:0:0:
182,192,50006,1,0,0:0:0:0:
256,192,50006,1,0,0:0:0:0:
109,192,50200,1,0,0:0:0:0:
329,192,50200,1,0,0:0:0:0:
182,192,50393,1,0,0:0:0:0:
402,192,50393,1,0,0:0:0:0:
109,192,50490,1,0,0:0:0:0:
36,192,50587,1,0,0:0:0:0:
256,192,50587,1,0,0:0:0:0:
109,192,50684,1,0,0:0:0:0:
182,192,50780,1,0,0:0:0:0:
402,192,50780,1,0,0:0:0:0:
329,192,50974,1,0,0:0:0:0:
36,192,50974,1,0,0:0:0:0:
109,192,51071,1,0,0:0:0:0:
256,192,51167,1,0,0:0:0:0:
182,192,51167,1,0,0:0:0:0:
36,192,51167,128,0,52716:0:0:0:0:
109,192,51361,1,0,0:0:0:0:
329,192,51555,1,0,0:0:0:0:
475,192,51555,1,0,0:0:0:0:
256,192,51555,1,0,0:0:0:0:
402,192,51748,1,0,0:0:0:0:
182,192,51748,1,0,0:0:0:0:
475,192,51845,1,0,0:0:0:0:
329,192,51845,1,0,0:0:0:0:
402,192,51942,1,0,0:0:0:0:
109,192,51942,1,0,0:0:0:0:
402,192,52135,1,0,0:0:0:0:
256,192,52135,1,0,0:0:0:0:
329,192,52329,1,0,0:0:0:0:
475,192,52329,1,0,0:0:0:0:
182,192,52329,1,0,0:0:0:0:
329,192,52522,1,0,0:0:0:0:
475,192,52522,1,0,0:0:0:0:
109,192,52522,1,0,0:0:0:0:
256,192,52716,128,0,54264:0:0:0:0:
182,192,52716,1,0,0:0:0:0:
402,192,52716,1,0,0:0:0:0:
329,192,52909,1,0,0:0:0:0:
109,192,52909,1,0,0:0:0:0:
36,192,53006,1,0,0:0:0:0:
182,192,53006,1,0,0:0:0:0:
475,192,53103,1,0,0:0:0:0:
109,192,53103,1,0,0:0:0:0:
402,192,53296,1,0,0:0:0:0:
36,192,53296,1,0,0:0:0:0:
182,192,53296,1,0,0:0:0:0:
109,192,53490,1,0,0:0:0:0:
475,192,53490,1,0,0:0:0:0:
402,192,53683,1,0,0:0:0:0:
109,192,53683,1,0,0:0:0:0:
109,192,53780,1,0,0:0:0:0:
329,192,53877,1,0,0:0:0:0:
36,192,53877,1,0,0:0:0:0:
182,192,53877,1,0,0:0:0:0:
109,192,53974,1,0,0:0:0:0:
329,192,54070,1,0,0:0:0:0:
36,192,54070,1,0,0:0:0:0:
182,192,54070,1,0,0:0:0:0:
36,192,54167,1,0,0:0:0:0:
182,192,54167,1,0,0:0:0:0:
475,192,54264,1,0,0:0:0:0:
329,192,54264,128,0,55812:0:0:0:0:
109,192,54264,1,0,0:0:0:0:
402,192,54457,1,0,0:0:0:0:
182,192,54457,1,0,0:0:0:0:
475,192,54651,1,0,0:0:0:0:
109,192,54651,1,0,0:0:0:0:
256,192,54651,1,0,0:0:0:0:
402,192,54844,1,0,0:0:0:0:
182,192,54844,1,0,0:0:0:0:
475,192,55038,1,0,0:0:0:0:
36,192,55038,1,0,0:0:0:0:
109,192,55135,1,0,0:0:0:0:
402,192,55231,1,0,0:0:0:0:
182,192,55231,1,0,0:0:0:0:
256,192,55231,1,0,0:0:0:0:
109,192,55328,1,0,0:0:0:0:
475,192,55425,1,0,0:0:0:0:
36,192,55425,1,0,0:0:0:0:
402,192,55619,1,0,0:0:0:0:
182,192,55619,1,0,0:0:0:0:
109,192,55715,1,0,0:0:0:0:
402,192,55812,128,0,57360:0:0:0:0:
475,192,55812,1,0,0:0:0:0:
256,192,55812,1,0,0:0:0:0:
36,192,55812,1,0,0:0:0:0:
329,192,56006,1,0,0:0:0:0:
475,192,56199,1,0,0:0:0:0:
36,192,56199,1,0,0:0:0:0:
182,192,56199,1,0,0:0:0:0:
329,192,56393,1,0,0:0:0:0:
109,192,56393,1,0,0:0:0:0:
475,192,56586,1,0,0:0:0:0:
182,192,56586,1,0,0:0:0:0:
109,192,56683,1,0,0:0:0:0:
329,192,56780,1,0,0:0:0:0:
36,192,56780,1,0,0:0:0:0:
109,192,56876,1,0,0:0:0:0:
475,192,56973,1,0,0:0:0:0:
182,192,56973,1,0,0:0:0:0:
329,192,57167,1,0,0:0:0:0:
36,192,57167,1,0,0:0:0:0:
109,192,57263,1,0,0:0:0:0:
475,192,57360,128,0,60457:0:0:0:0:
256,192,57360,1,0,0:0:0:0:
36,192,57360,1,0,0:0:0:0:
402,192,57554,1,0,0:0:0:0:
109,192,57554,1,0,0:0:0:0:
329,192,57747,1,0,0:0:0:0:
182,192,57747,1,0,0:0:0:0:
36,192,57747,1,0,0:0:0:0:
402,192,57941,1,0,0:0:0:0:
109,192,57941,1,0,0:0:0:0:
36,192,58038,1,0,0:0:0:0:
182,192,58038,1,0,0:0:0:0:
329,192,58134,1,0,0:0:0:0:
402,192,58328,1,0,0:0:0:0:
109,192,58328,1,0,0:0:0:0:
256,192,58521,1,0,0:0:0:0:
182,192,58521,1,0,0:0:0:0:
36,192,58521,1,0,0:0:0:0:
329,192,58715,1,0,0:0:0:0:
36,192,58715,1,0,0:0:0:0:
182,192,58715,1,0,0:0:0:0:
402,192,58908,1,0,0:0:0:0:
109,192,58908,1,0,0:0:0:0:
36,192,58908,1,0,0:0:0:0:
329,192,58973,1,0,0:0:0:0:
256,192,59037,1,0,0:0:0:0:
182,192,59102,1,0,0:0:0:0:
109,192,59166,1,0,0:0:0:0:
36,192,59231,1,0,0:0:0:0:
402,192,59295,1,0,0:0:0:0:
329,192,59360,1,0,0:0:0:0:
256,192,59424,1,0,0:0:0:0:
182,192,59489,1,0,0:0:0:0:
109,192,59554,1,0,0:0:0:0:
36,192,59618,1,0,0:0:0:0:
402,192,59683,1,0,0:0:0:0:
329,192,59747,1,0,0:0:0:0:
256,192,59812,1,0,0:0:0:0:
182,192,59876,1,0,0:0:0:0:
109,192,59941,1,0,0:0:0:0:
36,192,60005,1,0,0:0:0:0:
109,192,60070,1,0,0:0:0:0:
182,192,60134,1,0,0:0:0:0:
256,192,60199,1,0,0:0:0:0:
329,192,60263,1,0,0:0:0:0:
402,192,60335,1,0,0:0:0:0:
329,192,60392,1,0,0:0:0:0:
109,192,60457,1,0,0:0:0:0:
36,192,60457,1,0,0:0:0:0:
256,192,60457,1,0,0:0:0:0:
182,192,60457,1,0,0:0:0:0:
109,192,60844,1,0,0:0:0:0:
256,192,60844,128,0,61231:0:0:0:0:
36,192,61037,1,0,0:0:0:0:
182,192,61037,1,0,0:0:0:0:
329,192,61231,128,0,61618:0:0:0:0:
109,192,61231,1,0,0:0:0:0:
182,192,61424,1,0,0:0:0:0:
36,192,61424,1,0,0:0:0:0:
109,192,61618,1,0,0:0:0:0:
402,192,61618,128,0,62005:0:0:0:0:
36,192,61811,1,0,0:0:0:0:
109,192,61908,1,0,0:0:0:0:
36,192,62005,1,0,0:0:0:0:
475,192,62005,128,0,62392:0:0:0:0:
182,192,62005,1,0,0:0:0:0:
329,192,62005,1,0,0:0:0:0:
256,192,62069,1,0,0:0:0:0:
182,192,62134,1,0,0:0:0:0:
109,192,62198,1,0,0:0:0:0:
36,192,62263,1,0,0:0:0:0:
109,192,62327,1,0,0:0:0:0:
182,192,62392,1,0,0:0:0:0:
402,192,62392,1,0,0:0:0:0:
256,192,62456,1,0,0:0:0:0:
329,192,62521,1,0,0:0:0:0:
402,192,62585,1,0,0:0:0:0:
36,192,62585,1,0,0:0:0:0:
182,192,62585,1,0,0:0:0:0:
475,192,62650,1,0,0:0:0:0:
402,192,62714,1,0,0:0:0:0:
329,192,62779,1,0,0:0:0:0:
109,192,62779,1,0,0:0:0:0:
256,192,62843,1,0,0:0:0:0:
182,192,62908,1,0,0:0:0:0:
109,192,62972,1,0,0:0:0:0:
475,192,62972,1,0,0:0:0:0:
329,192,62972,1,0,0:0:0:0:
36,192,63037,1,0,0:0:0:0:
109,192,63101,1,0,0:0:0:0:
182,192,63166,1,0,0:0:0:0:
402,192,63166,1,0,0:0:0:0:
256,192,63230,1,0,0:0:0:0:
329,192,63295,1,0,0:0:0:0:
475,192,63359,1,0,0:0:0:0:
256,192,63359,1,0,0:0:0:0:
182,192,63424,1,0,0:0:0:0:
402,192,63456,1,0,0:0:0:0:
109,192,63488,1,0,0:0:0:0:
329,192,63553,1,0,0:0:0:0:
182,192,63553,1,0,0:0:0:0:
36,192,63553,1,0,0:0:0:0:
256,192,63940,128,0,64327:0:0:0:0:
402,192,63940,1,0,0:0:0:0:
329,192,64134,1,0,0:0:0:0:
475,192,64134,1,0,0:0:0:0:
182,192,64327,128,0,64714:0:0:0:0:
402,192,64327,1,0,0:0:0:0:
329,192,64521,1,0,0:0:0:0:
475,192,64521,1,0,0:0:0:0:
109,192,64714,128,0,65101:0:0:0:0:
402,192,64714,1,0,0:0:0:0:
475,192,64908,1,0,0:0:0:0:
402,192,65004,1,0,0:0:0:0:
36,192,65101,128,0,65488:0:0:0:0:
329,192,65101,1,0,0:0:0:0:
182,192,65101,1,0,0:0:0:0:
475,192,65101,1,0,0:0:0:0:
256,192,65166,1,0,0:0:0:0:
329,192,65230,1,0,0:0:0:0:
402,192,65295,1,0,0:0:0:0:
475,192,65359,1,0,0:0:0:0:
402,192,65424,1,0,0:0:0:0:
329,192,65488,1,0,0:0:0:0:
109,192,65488,1,0,0:0:0:0:
256,192,65553,1,0,0:0:0:0:
182,192,65617,1,0,0:0:0:0:
329,192,65682,1,0,0:0:0:0:
109,192,65682,1,0,0:0:0:0:
475,192,65682,1,0,0:0:0:0:
36,192,65746,1,0,0:0:0:0:
109,192,65811,1,0,0:0:0:0:
402,192,65875,1,0,0:0:0:0:
182,192,65875,1,0,0:0:0:0:
256,192,65940,1,0,0:0:0:0:
329,192,66004,1,0,0:0:0:0:
182,192,66069,1,0,0:0:0:0:
36,192,66069,1,0,0:0:0:0:
402,192,66069,1,0,0:0:0:0:
475,192,66133,1,0,0:0:0:0:
402,192,66198,1,0,0:0:0:0:
109,192,66262,1,0,0:0:0:0:
329,192,66262,1,0,0:0:0:0:
256,192,66327,1,0,0:0:0:0:
182,192,66391,1,0,0:0:0:0:
256,192,66456,1,0,0:0:0:0:
36,192,66456,1,0,0:0:0:0:
329,192,66520,1,0,0:0:0:0:
109,192,66553,1,0,0:0:0:0:
402,192,66585,1,0,0:0:0:0:
329,192,66649,1,0,0:0:0:0:
182,192,66649,1,0,0:0:0:0:
475,192,66649,1,0,0:0:0:0:
475,192,67036,128,0,67423:0:0:0:0:
256,192,67036,1,0,0:0:0:0:
182,192,67230,1,0,0:0:0:0:
329,192,67230,1,0,0:0:0:0:
402,192,67423,128,0,67811:0:0:0:0:
256,192,67423,1,0,0:0:0:0:
36,192,67617,1,0,0:0:0:0:
182,192,67617,1,0,0:0:0:0:
329,192,67811,128,0,68198:0:0:0:0:
109,192,67811,1,0,0:0:0:0:
402,192,68004,1,0,0:0:0:0:
475,192,68101,1,0,0:0:0:0:
256,192,68198,128,0,68972:0:0:0:0:
182,192,68198,1,0,0:0:0:0:
36,192,68198,1,0,0:0:0:0:
109,192,68585,1,0,0:0:0:0:
402,192,68778,1,0,0:0:0:0:
329,192,68972,1,0,0:0:0:0:
182,192,68972,128,0,69746:0:0:0:0:
109,192,68972,1,0,0:0:0:0:
402,192,69165,1,0,0:0:0:0:
329,192,69359,1,0,0:0:0:0:
256,192,69746,128,0,70520:0:0:0:0:
402,192,69746,1,0,0:0:0:0:
475,192,69746,1,0,0:0:0:0:
36,192,69746,1,0,0:0:0:0:
109,192,69746,128,0,70520:0:0:0:0:
329,192,69746,1,0,0:0:0:0:
402,192,70133,1,0,0:0:0:0:
475,192,70326,1,0,0:0:0:0:
182,192,70520,128,0,71100:0:0:0:0:
36,192,70520,128,0,71100:0:0:0:0:
329,192,70520,1,0,0:0:0:0:
402,192,70520,1,0,0:0:0:0:
475,192,70713,1,0,0:0:0:0:
402,192,70907,1,0,0:0:0:0:
329,192,71100,1,0,0:0:0:0:
256,192,71197,1,0,0:0:0:0:
402,192,71294,128,0,72068:0:0:0:0:
182,192,71294,1,0,0:0:0:0:
329,192,71294,1,0,0:0:0:0:
256,192,71681,1,0,0:0:0:0:
475,192,72068,128,0,72649:0:0:0:0:
36,192,72068,1,0,0:0:0:0:
109,192,72068,1,0,0:0:0:0:
329,192,72068,1,0,0:0:0:0:
256,192,72133,1,0,0:0:0:0:
182,192,72197,1,0,0:0:0:0:
109,192,72262,1,0,0:0:0:0:
36,192,72326,1,0,0:0:0:0:
109,192,72391,1,0,0:0:0:0:
182,192,72455,1,0,0:0:0:0:
256,192,72520,1,0,0:0:0:0:
329,192,72584,1,0,0:0:0:0:
402,192,72649,1,0,0:0:0:0:
329,192,72713,1,0,0:0:0:0:
256,192,72778,1,0,0:0:0:0:
329,192,72842,1,0,0:0:0:0:
182,192,72842,1,0,0:0:0:0:
36,192,72842,1,0,0:0:0:0:
475,192,72842,1,0,0:0:0:0:
109,192,73229,1,0,0:0:0:0:
256,192,73229,128,0,73616:0:0:0:0:
182,192,73423,1,0,0:0:0:0:
36,192,73423,1,0,0:0:0:0:
109,192,73616,1,0,0:0:0:0:
329,192,73616,128,0,74003:0:0:0:0:
36,192,73810,1,0,0:0:0:0:
182,192,73810,1,0,0:0:0:0:
109,192,74003,1,0,0:0:0:0:
402,192,74003,128,0,74390:0:0:0:0:
36,192,74197,1,0,0:0:0:0:
109,192,74294,1,0,0:0:0:0:
329,192,74390,1,0,0:0:0:0:
182,192,74390,1,0,0:0:0:0:
36,192,74390,1,0,0:0:0:0:
475,192,74390,128,0,74777:0:0:0:0:
256,192,74455,1,0,0:0:0:0:
182,192,74519,1,0,0:0:0:0:
109,192,74584,1,0,0:0:0:0:
36,192,74648,1,0,0:0:0:0:
109,192,74713,1,0,0:0:0:0:
402,192,74777,1,0,0:0:0:0:
182,192,74777,1,0,0:0:0:0:
256,192,74842,1,0,0:0:0:0:
329,192,74906,1,0,0:0:0:0:
182,192,74971,1,0,0:0:0:0:
36,192,74971,1,0,0:0:0:0:
402,192,74971,1,0,0:0:0:0:
475,192,75035,1,0,0:0:0:0:
402,192,75100,1,0,0:0:0:0:
329,192,75164,1,0,0:0:0:0:
109,192,75164,1,0,0:0:0:0:
256,192,75229,1,0,0:0:0:0:
182,192,75293,1,0,0:0:0:0:
329,192,75358,1,0,0:0:0:0:
475,192,75358,1,0,0:0:0:0:
109,192,75358,1,0,0:0:0:0:
36,192,75422,1,0,0:0:0:0:
109,192,75487,1,0,0:0:0:0:
182,192,75551,1,0,0:0:0:0:
402,192,75551,1,0,0:0:0:0:
256,192,75616,1,0,0:0:0:0:
329,192,75680,1,0,0:0:0:0:
475,192,75745,1,0,0:0:0:0:
256,192,75745,1,0,0:0:0:0:
182,192,75809,1,0,0:0:0:0:
402,192,75842,1,0,0:0:0:0:
109,192,75874,1,0,0:0:0:0:
36,192,75938,1,0,0:0:0:0:
182,192,75938,1,0,0:0:0:0:
329,192,75938,1,0,0:0:0:0:
402,192,76326,1,0,0:0:0:0:
256,192,76326,128,0,76713:0:0:0:0:
329,192,76519,1,0,0:0:0:0:
475,192,76519,1,0,0:0:0:0:
402,192,76713,1,0,0:0:0:0:
182,192,76713,128,0,77100:0:0:0:0:
329,192,76906,1,0,0:0:0:0:
475,192,76906,1,0,0:0:0:0:
402,192,77100,1,0,0:0:0:0:
109,192,77100,128,0,77487:0:0:0:0:
475,192,77293,1,0,0:0:0:0:
402,192,77390,1,0,0:0:0:0:
475,192,77487,1,0,0:0:0:0:
329,192,77487,1,0,0:0:0:0:
182,192,77487,1,0,0:0:0:0:
36,192,77487,128,0,77874:0:0:0:0:
256,192,77551,1,0,0:0:0:0:
329,192,77616,1,0,0:0:0:0:
402,192,77680,1,0,0:0:0:0:
475,192,77745,1,0,0:0:0:0:
402,192,77809,1,0,0:0:0:0:
329,192,77874,1,0,0:0:0:0:
109,192,77874,1,0,0:0:0:0:
256,192,77938,1,0,0:0:0:0:
182,192,78003,1,0,0:0:0:0:
109,192,78067,1,0,0:0:0:0:
475,192,78067,1,0,0:0:0:0:
329,192,78067,1,0,0:0:0:0:
36,192,78132,1,0,0:0:0:0:
109,192,78196,1,0,0:0:0:0:
402,192,78261,1,0,0:0:0:0:
182,192,78261,1,0,0:0:0:0:
256,192,78325,1,0,0:0:0:0:
329,192,78390,1,0,0:0:0:0:
36,192,78454,1,0,0:0:0:0:
402,192,78454,1,0,0:0:0:0:
182,192,78454,1,0,0:0:0:0:
475,192,78519,1,0,0:0:0:0:
402,192,78583,1,0,0:0:0:0:
329,192,78648,1,0,0:0:0:0:
109,192,78648,1,0,0:0:0:0:
256,192,78712,1,0,0:0:0:0:
182,192,78777,1,0,0:0:0:0:
256,192,78841,1,0,0:0:0:0:
36,192,78841,1,0,0:0:0:0:
329,192,78906,1,0,0:0:0:0:
109,192,78938,1,0,0:0:0:0:
402,192,78970,1,0,0:0:0:0:
475,192,79035,1,0,0:0:0:0:
182,192,79035,1,0,0:0:0:0:
329,192,79035,1,0,0:0:0:0:
36,192,79422,128,0,79809:0:0:0:0:
256,192,79422,1,0,0:0:0:0:
329,192,79615,1,0,0:0:0:0:
182,192,79615,1,0,0:0:0:0:
109,192,79809,128,0,80196:0:0:0:0:
256,192,79809,1,0,0:0:0:0:
475,192,80002,1,0,0:0:0:0:
329,192,80002,1,0,0:0:0:0:
182,192,80196,128,0,80583:0:0:0:0:
402,192,80196,1,0,0:0:0:0:
109,192,80390,1,0,0:0:0:0:
36,192,80486,1,0,0:0:0:0:
256,192,80583,128,0,81357:0:0:0:0:
329,192,80583,1,0,0:0:0:0:
475,192,80583,1,0,0:0:0:0:
402,192,80777,1,0,0:0:0:0:
182,192,80970,1,0,0:0:0:0:
109,192,81164,1,0,0:0:0:0:
182,192,81357,1,0,0:0:0:0:
329,192,81357,128,0,82131:0:0:0:0:
109,192,81551,1,0,0:0:0:0:
182,192,81744,1,0,0:0:0:0:
256,192,82131,128,0,82905:0:0:0:0:
36,192,82131,1,0,0:0:0:0:
109,192,82131,1,0,0:0:0:0:
182,192,82131,1,0,0:0:0:0:
475,192,82131,1,0,0:0:0:0:
402,192,82131,128,0,82905:0:0:0:0:
182,192,82518,1,0,0:0:0:0:
109,192,82712,1,0,0:0:0:0:
329,192,82905,128,0,83486:0:0:0:0:
475,192,82905,128,0,83486:0:0:0:0:
36,192,82905,1,0,0:0:0:0:
182,192,82905,1,0,0:0:0:0:
109,192,83099,1,0,0:0:0:0:
36,192,83292,1,0,0:0:0:0:
182,192,83486,1,0,0:0:0:0:
256,192,83583,1,0,0:0:0:0:
109,192,83679,128,0,84454:0:0:0:0:
182,192,83679,1,0,0:0:0:0:
329,192,83679,1,0,0:0:0:0:
256,192,84066,1,0,0:0:0:0:
36,192,84454,128,0,85034:0:0:0:0:
402,192,84454,1,0,0:0:0:0:
475,192,84454,1,0,0:0:0:0:
182,192,84454,1,0,0:0:0:0:
256,192,84518,1,0,0:0:0:0:
329,192,84583,1,0,0:0:0:0:
402,192,84647,1,0,0:0:0:0:
475,192,84712,1,0,0:0:0:0:
402,192,84776,1,0,0:0:0:0:
329,192,84841,1,0,0:0:0:0:
256,192,84905,1,0,0:0:0:0:
182,192,84970,1,0,0:0:0:0:
109,192,85034,1,0,0:0:0:0:
182,192,85099,1,0,0:0:0:0:
256,192,85163,1,0,0:0:0:0:
36,192,85228,128,0,85808:0:0:0:0:
475,192,85228,1,0,0:0:0:0:
329,192,85228,1,0,0:0:0:0:
402,192,85421,1,0,0:0:0:0:
329,192,85615,1,0,0:0:0:0:
256,192,85615,1,0,0:0:0:0:
475,192,86002,128,0,86582:0:0:0:0:
182,192,86002,1,0,0:0:0:0:
109,192,86098,1,0,0:0:0:0:
36,192,86195,1,0,0:0:0:0:
109,192,86292,1,0,0:0:0:0:
182,192,86389,1,0,0:0:0:0:
256,192,86389,1,0,0:0:0:0:
182,192,86776,128,0,88324:0:0:0:0:
402,192,86776,1,0,0:0:0:0:
475,192,86969,1,0,0:0:0:0:
402,192,87163,1,0,0:0:0:0:
256,192,87163,1,0,0:0:0:0:
329,192,87550,1,0,0:0:0:0:
402,192,87647,1,0,0:0:0:0:
109,192,87743,128,0,88324:0:0:0:0:
475,192,87743,1,0,0:0:0:0:
402,192,87840,1,0,0:0:0:0:
329,192,87937,1,0,0:0:0:0:
256,192,87937,1,0,0:0:0:0:
36,192,88034,128,0,88324:0:0:0:0:
475,192,88324,128,0,89098:0:0:0:0:
329,192,88324,1,0,0:0:0:0:
256,192,88518,1,0,0:0:0:0:
182,192,88614,1,0,0:0:0:0:
402,192,88614,128,0,88905:0:0:0:0:
109,192,88711,1,0,0:0:0:0:
36,192,88711,1,0,0:0:0:0:
182,192,88808,1,0,0:0:0:0:
256,192,88905,1,0,0:0:0:0:
329,192,88905,128,0,89098:0:0:0:0:
402,192,89098,128,0,89872:0:0:0:0:
109,192,89098,1,0,0:0:0:0:
182,192,89292,1,0,0:0:0:0:
329,192,89388,128,0,89679:0:0:0:0:
109,192,89485,1,0,0:0:0:0:
36,192,89485,1,0,0:0:0:0:
182,192,89679,1,0,0:0:0:0:
256,192,89679,128,0,89872:0:0:0:0:
109,192,89775,1,0,0:0:0:0:
329,192,89872,128,0,90453:0:0:0:0:
182,192,89872,1,0,0:0:0:0:
36,192,89872,1,0,0:0:0:0:
109,192,90066,1,0,0:0:0:0:
182,192,90162,1,0,0:0:0:0:
256,192,90259,1,0,0:0:0:0:
475,192,90259,1,0,0:0:0:0:
182,192,90356,1,0,0:0:0:0:
109,192,90453,1,0,0:0:0:0:
475,192,90646,128,0,91420:0:0:0:0:
402,192,90646,1,0,0:0:0:0:
256,192,90646,1,0,0:0:0:0:
36,192,90840,1,0,0:0:0:0:
402,192,91033,1,0,0:0:0:0:
256,192,91033,1,0,0:0:0:0:
182,192,91227,1,0,0:0:0:0:
109,192,91324,1,0,0:0:0:0:
36,192,91420,1,0,0:0:0:0:
182,192,91420,1,0,0:0:0:0:
329,192,91420,128,0,92001:0:0:0:0:
256,192,91614,1,0,0:0:0:0:
182,192,91807,1,0,0:0:0:0:
36,192,91807,1,0,0:0:0:0:
109,192,92001,128,0,92582:0:0:0:0:
256,192,92194,1,0,0:0:0:0:
329,192,92291,1,0,0:0:0:0:
402,192,92388,1,0,0:0:0:0:
329,192,92485,1,0,0:0:0:0:
36,192,92582,128,0,92969:0:0:0:0:
256,192,92582,1,0,0:0:0:0:
402,192,92775,1,0,0:0:0:0:
329,192,92872,1,0,0:0:0:0:
475,192,92969,128,0,94517:0:0:0:0:
256,192,92969,1,0,0:0:0:0:
182,192,92969,1,0,0:0:0:0:
402,192,92969,128,0,93743:0:0:0:0:
109,192,93162,1,0,0:0:0:0:
182,192,93356,1,0,0:0:0:0:
36,192,93356,1,0,0:0:0:0:
256,192,93549,1,0,0:0:0:0:
182,192,93743,1,0,0:0:0:0:
329,192,93743,128,0,95291:0:0:0:0:
109,192,93839,1,0,0:0:0:0:
36,192,93936,1,0,0:0:0:0:
109,192,94033,1,0,0:0:0:0:
182,192,94130,1,0,0:0:0:0:
256,192,94323,1,0,0:0:0:0:
182,192,94420,1,0,0:0:0:0:
36,192,94517,1,0,0:0:0:0:
109,192,94517,1,0,0:0:0:0:
402,192,94517,128,0,96065:0:0:0:0:
182,192,94710,1,0,0:0:0:0:
109,192,94904,1,0,0:0:0:0:
36,192,94904,1,0,0:0:0:0:
182,192,95097,1,0,0:0:0:0:
256,192,95291,1,0,0:0:0:0:
36,192,95388,1,0,0:0:0:0:
109,192,95484,1,0,0:0:0:0:
182,192,95581,1,0,0:0:0:0:
256,192,95678,1,0,0:0:0:0:
182,192,95871,1,0,0:0:0:0:
109,192,95968,1,0,0:0:0:0:
256,192,96065,128,0,97613:0:0:0:0:
36,192,96065,1,0,0:0:0:0:
182,192,96065,1,0,0:0:0:0:
329,192,96258,1,0,0:0:0:0:
402,192,96355,1,0,0:0:0:0:
109,192,96355,1,0,0:0:0:0:
475,192,96452,1,0,0:0:0:0:
402,192,96549,1,0,0:0:0:0:
329,192,96646,1,0,0:0:0:0:
109,192,96646,1,0,0:0:0:0:
182,192,96839,1,0,0:0:0:0:
36,192,96839,1,0,0:0:0:0:
402,192,97033,1,0,0:0:0:0:
329,192,97226,1,0,0:0:0:0:
475,192,97226,1,0,0:0:0:0:
182,192,97420,1,0,0:0:0:0:
36,192,97420,1,0,0:0:0:0:
329,192,97516,1,0,0:0:0:0:
475,192,97613,128,0,98194:0:0:0:0:
402,192,97613,1,0,0:0:0:0:
182,192,97710,1,0,0:0:0:0:
109,192,97807,1,0,0:0:0:0:
36,192,97903,1,0,0:0:0:0:
109,192,98000,1,0,0:0:0:0:
182,192,98097,1,0,0:0:0:0:
256,192,98194,1,0,0:0:0:0:
329,192,98290,1,0,0:0:0:0:
36,192,98387,128,0,98968:0:0:0:0:
402,192,98387,1,0,0:0:0:0:
475,192,98484,1,0,0:0:0:0:
402,192,98581,1,0,0:0:0:0:
329,192,98677,1,0,0:0:0:0:
256,192,98774,1,0,0:0:0:0:
182,192,98871,1,0,0:0:0:0:
109,192,98968,1,0,0:0:0:0:
402,192,99065,1,0,0:0:0:0:
475,192,99161,128,0,100709:0:0:0:0:
329,192,99161,1,0,0:0:0:0:
256,192,99258,1,0,0:0:0:0:
182,192,99355,1,0,0:0:0:0:
109,192,99452,1,0,0:0:0:0:
36,192,99548,1,0,0:0:0:0:
109,192,99645,1,0,0:0:0:0:
182,192,99742,1,0,0:0:0:0:
256,192,99839,1,0,0:0:0:0:
329,192,99935,1,0,0:0:0:0:
256,192,100032,1,0,0:0:0:0:
402,192,100129,128,0,100709:0:0:0:0:
182,192,100129,1,0,0:0:0:0:
109,192,100226,1,0,0:0:0:0:
36,192,100322,1,0,0:0:0:0:
109,192,100419,1,0,0:0:0:0:
256,192,100419,128,0,100709:0:0:0:0:
182,192,100516,1,0,0:0:0:0:
329,192,100709,128,0,101484:0:0:0:0:
182,192,100806,1,0,0:0:0:0:
109,192,100903,1,0,0:0:0:0:
36,192,101000,1,0,0:0:0:0:
475,192,101000,128,0,101290:0:0:0:0:
109,192,101097,1,0,0:0:0:0:
182,192,101193,1,0,0:0:0:0:
256,192,101290,1,0,0:0:0:0:
402,192,101290,128,0,101484:0:0:0:0:
182,192,101387,1,0,0:0:0:0:
475,192,101484,128,0,102258:0:0:0:0:
109,192,101484,1,0,0:0:0:0:
36,192,101580,1,0,0:0:0:0:
109,192,101677,1,0,0:0:0:0:
182,192,101774,1,0,0:0:0:0:
402,192,101774,128,0,102064:0:0:0:0:
256,192,101871,1,0,0:0:0:0:
182,192,101967,1,0,0:0:0:0:
109,192,102064,1,0,0:0:0:0:
329,192,102064,128,0,102258:0:0:0:0:
36,192,102161,1,0,0:0:0:0:
402,192,102258,128,0,102838:0:0:0:0:
109,192,102258,1,0,0:0:0:0:
182,192,102354,1,0,0:0:0:0:
256,192,102451,1,0,0:0:0:0:
329,192,102548,1,0,0:0:0:0:
36,192,102645,1,0,0:0:0:0:
109,192,102741,1,0,0:0:0:0:
182,192,102838,1,0,0:0:0:0:
256,192,102935,1,0,0:0:0:0:
475,192,103032,128,0,103806:0:0:0:0:
329,192,103032,1,0,0:0:0:0:
402,192,103129,1,0,0:0:0:0:
329,192,103225,1,0,0:0:0:0:
256,192,103322,1,0,0:0:0:0:
182,192,103419,1,0,0:0:0:0:
109,192,103516,1,0,0:0:0:0:
36,192,103612,1,0,0:0:0:0:
36,192,103806,128,0,104386:0:0:0:0:
109,192,103806,1,0,0:0:0:0:
182,192,103903,1,0,0:0:0:0:
256,192,103999,1,0,0:0:0:0:
329,192,104096,1,0,0:0:0:0:
402,192,104193,1,0,0:0:0:0:
475,192,104290,1,0,0:0:0:0:
402,192,104386,1,0,0:0:0:0:
329,192,104483,1,0,0:0:0:0:
475,192,104580,128,0,105354:0:0:0:0:
256,192,104580,1,0,0:0:0:0:
182,192,104677,1,0,0:0:0:0:
109,192,104773,1,0,0:0:0:0:
36,192,104870,1,0,0:0:0:0:
329,192,104967,1,0,0:0:0:0:
256,192,105064,1,0,0:0:0:0:
182,192,105161,1,0,0:0:0:0:
402,192,105354,128,0,105935:0:0:0:0:
329,192,105354,1,0,0:0:0:0:
256,192,105451,1,0,0:0:0:0:
182,192,105548,1,0,0:0:0:0:
109,192,105644,1,0,0:0:0:0:
36,192,105741,1,0,0:0:0:0:
109,192,105838,1,0,0:0:0:0:
475,192,105935,128,0,106515:0:0:0:0:
182,192,105935,1,0,0:0:0:0:
256,192,106031,1,0,0:0:0:0:
329,192,106128,1,0,0:0:0:0:
402,192,106225,1,0,0:0:0:0:
329,192,106322,1,0,0:0:0:0:
256,192,106418,1,0,0:0:0:0:
109,192,106515,128,0,106902:0:0:0:0:
182,192,106515,1,0,0:0:0:0:
256,192,106902,128,0,108450:0:0:0:0:
36,192,106902,1,0,0:0:0:0:
329,192,106902,1,0,0:0:0:0:
402,192,106902,1,0,0:0:0:0:
109,192,108450,5,0,0:0:0:0:
402,192,108450,1,0,0:0:0:0:
36,192,108450,1,0,0:0:0:0:
475,192,108450,1,0,0:0:0:0:
