osu file format v8

[General]
AudioFilename: Masquerade of Lies.mp3
AudioLeadIn: 1500
PreviewTime: 12934
Countdown: 0
SampleSet: Soft
StackLeniency: 0.7
Mode: 0
LetterboxInBreaks: 1

[Editor]
Bookmarks: 12940,37714,60914,73302,85689,110488,133708,161594
DistanceSpacing: 1
BeatDivisor: 4
GridSize: 8

[Metadata]
Title:Masquerade of Lies
Artist:Falcom Sound Team J.D.K.
Creator:f0012979
Version:Normal
Source:Sora no Kiseki the 3rd
Tags:falcom video game ignorethis

[Difficulty]
HPDrainRate:3
CircleSize:4
OverallDifficulty:6
ApproachRate:6
SliderMultiplier:1.4
SliderTickRate:1

[Events]
//Background and Video events
0,0,"bg.jpg"
//Break Periods
2,61158,72296
//Storyboard Layer 0 (Background)
//Storyboard Layer 1 (Fail)
//Storyboard Layer 2 (Pass)
//Storyboard Layer 3 (Foreground)
//Storyboard Sound Samples
//Background Colour Transformations
3,100,163,162,255

[TimingPoints]
572,387.096774193548,4,2,0,80,1,0
12953,-100,4,2,0,75,0,1
13049,-100,4,2,0,75,0,0
37733,-100,4,2,0,85,0,1
37830,-100,4,2,0,85,0,0
84281,-100,4,2,1,85,0,0
85733,-100,4,2,1,75,0,1
85830,-100,4,2,0,75,0,0
110507,-100,4,2,0,75,0,1
110604,-100,4,2,0,75,0,0
135281,-100,4,2,0,0,0,0

[Colours]
Combo1 : 128,128,128
Combo2 : 192,192,192
Combo3 : 95,0,189
Combo4 : 128,0,128

[HitObjects]
256,344,572,2,0,B|304:288|408:304,1,140,4|0
448,272,1152,2,0,B|480:192|448:128,1,140
496,80,1733,1,2
392,16,2120,6,0,B|320:0|240:16,1,140,4|0
224,80,2701,2,0,B|152:56|80:80,1,140
48,136,3281,2,0,B|48:224,1,70
80,272,3668,6,0,B|120:328|200:352,1,140,4|0
256,312,4249,2,0,B|336:312,1,70,0|2
400,312,4636,2,0,B|424:248|416:160,1,140
416,104,5217,5,4
400,32,5410,1,0
256,48,5797,1,0
256,48,5991,2,0,B|267:123|264:208,1,140,2|2
184,296,6765,5,4
184,296,6959,2,0,B|110:292|16:296,1,140
16,232,7539,2,0,B|16:152,1,70,4|0
64,112,7926,2,0,B|136:96|216:104,1,140,2|4
232,168,8507,6,0,B|305:161|392:168,1,140
440,176,9088,1,4
488,232,9281,1,0
448,288,9475,2,0,B|384:336|304:368,1,140,2|4
256,344,10055,6,0,B|176:328,1,70
200,264,10442,2,0,B|120:240,1,70,4|0
128,104,11023,2,0,B|176:64|264:48,1,140,4|4
256,344,12959,6,0,B|224:280|112:264,1,140,4|0
72,152,13733,2,0,B|112:64,1,70,2|0
152,40,14120,2,0,B|232:64|272:144,1,140,0|4
360,104,14797,6,0,B|400:224,1,105
464,224,15281,2,0,B|464:320,1,70,2|0
408,336,15668,2,0,B|328:320|240:344,1,140,0|4
152,256,16442,6,0,B|136:344,2,70,0|0|2
168,184,17023,2,0,B|200:160|264:160,1,70
304,168,17410,2,0,B|400:144,1,70,0|4
472,248,17991,6,0,B|480:328,2,70,0|0|2
464,176,18571,1,0
424,120,18765,2,0,B|344:104,1,70
288,88,19152,6,0,B|217:81|144:88,1,140,4|0
96,136,19733,2,0,B|88:216,1,70,0|2
128,264,20120,1,0
128,264,20313,2,0,B|120:352,2,70,0|0|4
256,208,21088,5,0
256,208,21281,2,0,B|328:200,1,70,0|2
368,144,21668,1,0
368,144,21862,2,0,B|464:128,2,70,0|0|4
304,56,22539,6,0,B|248:40|192:56,1,105
136,88,23023,2,0,B|112:192,1,105,4|0
200,248,23604,2,0,B|184:320,1,70,0|4
320,344,24184,6,0,B|344:264|456:264,1,140,0|4
424,128,24959,2,0,B|400:48|288:48,1,140,2|4
216,144,25733,6,0,B|192:120|144:112,1,70
80,120,26120,1,2
88,192,26313,1,0
96,264,26507,2,0,B|48:344,2,70,0|0|4
216,336,27281,6,0,B|272:304|360:280,1,140,0|2
416,160,28055,2,0,B|488:168,2,70,0|0|4
288,104,28830,6,0,B|320:32,2,70,0|0|2
168,176,29604,2,0,B|136:248,2,70,0|0|4
96,56,30378,6,0,B|48:112|24:192,1,140,0|2
80,224,30959,1,0
120,280,31152,1,0
160,336,31346,2,0,B|256:336,1,70,0|4
336,248,31926,6,0,B|407:232|504:248,1,140,0|2
456,104,32701,1,0
400,56,32894,1,0
344,96,33088,6,0,B|264:104|192:96,1,140,4|0
72,136,33862,2,0,B|80:224|176:216,1,140,4|0
232,192,34442,1,0
304,200,34636,6,0,B|376:192|472:200,1,140,4|0
400,328,35410,2,0,B|328:320|240:328,1,140,4|0
208,280,35991,2,0,B|112:280,1,70,0|4
80,232,36378,5,0
80,232,36571,1,0
40,168,36765,2,0,B|40:64,1,70,0|4
128,48,37249,2,0,B|184:32|264:56,1,105
231,47,37733,5,4
328,88,38023,2,0,B|383:83|456:88,1,105
472,144,38507,2,0,B|496:216|472:296,1,140,4|0
344,240,39281,6,0,B|232:240,2,105,4|0|0
352,312,40055,2,0,B|277:339|214:313,1,140,4|4
80,272,40830,5,4
80,272,41120,2,0,B|64:224|64:152,1,105
80,96,41604,2,0,B|152:80|232:72,1,140,4|0
304,184,42378,6,0,B|320:296,2,105,4|0|0
320,112,43152,2,0,B|392:88|480:80,1,140,4|0
472,224,43926,6,0,B|400:224|400:320,1,105,4|0
312,344,44507,1,0
312,344,44701,2,0,B|152:368,1,140,4|0
96,248,45475,6,0,B|168:248|168:160,1,105,4|0
256,120,46055,1,0
256,120,46249,2,0,B|408:80,2,140,4|0|4
168,64,47313,6,0,B|96:64|80:144,1,105
88,192,47797,2,0,B|104:336,2,140,4|2|4
192,208,48862,6,0,B|192:144|272:136,1,105,0|2
320,176,49346,2,0,B|424:112,2,105,4|2|0
328,248,50120,6,0,B|264:272|280:360,1,105,4|0
384,336,50701,1,2
448,320,50894,2,0,B|496:264|480:176,1,140,4|0
424,56,51668,6,0,B|360:40|304:88,1,105,4|0
224,48,52249,1,2
160,72,52442,2,0,B|120:144|168:208,1,140,4|4
80,320,53217,5,4
80,320,53507,2,0,B|200:304,1,105,0|2
256,304,53991,2,0,B|256:208|376:208,1,140,4|0
432,104,54765,5,4
432,104,55055,2,0,B|320:120,1,105,0|2
256,128,55539,2,0,B|240:40|144:48,2,140,4|0|4
192,216,56604,6,0,B|160:264|200:328,1,105,0|2
256,344,57088,2,0,B|320:336|416:344,1,140,4|0
448,216,57862,6,0,B|448:104,1,105,4|2
368,48,58442,1,0
368,48,58636,2,0,B|296:32|216:48,1,140,4|0
104,112,59410,5,4
128,216,59701,2,0,B|184:208|256:216,1,105,0|2
288,168,60184,2,0,B|416:168,1,105,4|2
456,248,60765,2,0,B|456:320,1,70,0|4
256,72,73346,6,0,B|312:16|416:72,1,140,4|0
432,112,73926,2,0,B|464:264,1,140
400,288,74507,2,0,B|424:384,2,70,2|0|4
256,312,75281,6,0,B|232:224,1,70
120,312,75862,2,0,B|104:232,1,70,0|2
72,176,76249,1,0
72,104,76442,5,4
200,40,76830,1,0
200,40,77023,2,0,B|352:72,1,140
336,136,77604,2,0,B|248:176,2,70,2|0|4
472,160,78378,6,0,B|504:240,1,70
408,328,78959,2,0,B|336:360,2,70,0|2|0
376,264,79539,5,4
376,264,79733,2,0,B|344:200|296:136,1,140
232,160,80313,2,0,B|176:88,1,70,4|0
136,56,80701,2,0,B|64:72|0:152,1,140,2|4
32,200,81281,6,0,B|32:352,1,140
104,352,81862,2,0,B|144:344|200:352,1,70,4|0
216,296,82249,2,0,B|296:288|384:296,1,140,2|4
400,240,82830,5,0
448,192,83023,2,0,B|448:120,1,70,0|4
376,120,83410,2,0,B|376:32,1,70
304,40,83797,2,0,B|224:24|144:40,1,140,4|4
256,192,84281,12,4,85733
256,64,86120,6,0,B|326:56|416:64,1,140,0|2
440,120,86701,2,0,B|462:151|480:192,1,70
392,288,87281,6,0,B|328:328|224:304,1,140,4|0
192,344,87862,2,0,B|112:344,1,70,0|2
80,288,88249,1,0
16,248,88442,2,0,B|16:152,2,70,0|0|4
128,160,89217,6,0,B|128:88,1,70
184,40,89604,2,0,B|256:16|328:40,1,140,2|0
384,72,90184,1,0
456,72,90378,1,4
376,192,90765,1,0
304,176,90959,1,0
232,192,91152,1,4
184,328,91539,1,0
112,312,91733,1,0
40,328,91926,5,4
40,192,92313,2,0,B|33:152|40:112,1,70
88,72,92701,1,2
152,40,92894,1,0
216,16,93088,2,0,B|296:10|376:16,1,140,0|4
472,96,93862,6,0,B|478:135|472:176,1,70
448,232,94250,1,2
408,288,94443,1,0
352,336,94637,2,0,B|271:341|192:336,1,140,2|4
96,256,95410,6,0,B|176:232,2,70,0|0|4
112,120,96184,2,0,B|32:144,2,70,0|0|4
224,40,96959,6,0,B|297:45|376:72,1,140,0|4
432,192,97733,2,0,B|415:269|392:344,1,140,2|4
256,304,98507,6,0,B|272:262|288:208,1,70
216,200,98894,2,0,B|240:128,1,70,2|0
208,72,99281,2,0,B|142:45|64:24,1,140,0|4
48,168,100055,6,0,B|31:209|16:264,1,70
48,304,100442,2,0,B|80:320|120:328,1,70,2|0
184,304,100829,2,0,B|256:320|328:352,1,140,0|4
424,256,101604,5,0
424,256,101797,1,0
424,256,101991,1,4
424,120,102378,1,0
424,120,102571,1,0
424,120,102765,1,4
304,48,103152,6,0,B|224:48,1,70
192,104,103539,2,0,B|112:112,1,70,2|0
80,168,103926,1,0
64,240,104120,1,0
80,312,104313,1,4
216,336,104701,6,0,B|304:336,1,70
344,296,105088,1,2
400,248,105281,1,0
456,200,105475,2,0,B|464:128,2,70,0|0|4
328,152,106249,6,0,B|336:72|240:64,1,140,0|2
176,72,106830,1,0
112,104,107023,1,0
48,136,107217,2,0,B|64:216,1,70,0|4
168,296,107797,6,0,B|184:368,2,70,0|0|4
216,160,108571,2,0,B|200:88,2,70,0|0|4
304,272,109346,6,0,B|336:256|384:248,1,70
400,184,109733,2,0,B|453:166|512:152,2,105,4|2|2
352,136,110507,6,0,B|334:75|304:16,1,105,4|0
208,32,111088,1,2
208,32,111281,2,0,B|136:24|48:32,1,140,4|0
16,160,112055,6,0,B|76:177|136:208,1,105,4|0
200,256,112636,1,2
200,256,112829,2,0,B|272:248|360:256,1,140,4|4
464,192,113604,5,4
464,88,113894,2,0,B|411:82|352:88,1,105,0|2
296,48,114378,2,0,B|225:45|144:48,1,140,4|0
88,176,115152,5,4
88,280,115442,2,0,B|140:285|200:280,1,105,0|2
256,320,115926,2,0,B|326:322|408:320,1,140,4|2
456,192,116701,6,0,B|432:144|376:112,1,105,4|0
280,96,117281,1,2
280,96,117475,2,0,B|212:92|128:96,2,140,4|0|4
312,200,118539,6,0,B|328:256|312:304,1,105,0|2
256,352,119023,2,0,B|104:352,1,140,4|2
64,304,119604,2,0,B|24:248,1,70,0|4
24,144,120088,5,0
24,144,120378,2,0,B|48:56,1,70,2|4
136,32,120862,1,0
136,32,121152,2,0,B|216:8,1,70,2|4
256,104,121636,6,0,B|368:64,1,105,0|2
400,128,122120,2,0,B|512:88,2,105,4|0|2
360,192,122894,6,0,B|360:304,1,105,4|0
256,328,123475,1,2
256,328,123668,2,0,B|184:324|96:328,1,140,4|0
72,192,124442,6,0,B|72:80,1,105,4|0
160,32,125023,1,2
160,32,125216,2,0,B|231:35|320:32,1,140,4|4
352,160,125991,6,0,B|392:120|456:136,2,105,4|0|2
320,224,126765,2,0,B|304:368,1,140,4|0
184,288,127539,6,0,B|144:328|80:312,2,105,4|0|2
200,216,128313,2,0,B|216:72,1,140,4|0
352,40,129088,5,4
352,40,129378,2,0,B|408:32|456:40,1,105,0|2
496,104,129862,2,0,B|504:176|496:264,1,140,4|0
392,336,130636,5,4
392,336,130926,2,0,B|330:330|264:336,1,105,0|2
232,288,131410,2,0,B|160:281|72:288,2,140,4|0|4
280,232,132378,6,0,B|368:232,1,70,0|0
408,192,132765,2,0,B|448:176,2,35,0|0|4
360,96,133249,2,0,B|308:92|248:96,1,105,0|2
255,95,133733,1,4
256,192,133926,12,0,135281
