osu file format v8

[General]
AudioFilename: Masquerade of Lies.mp3
AudioLeadIn: 1500
PreviewTime: 12934
Countdown: 0
SampleSet: Normal
StackLeniency: 0.7
Mode: 0
LetterboxInBreaks: 1

[Editor]
Bookmarks: 12940,37714,60914,73302,85689,108174,110488,133708,161579
DistanceSpacing: 1
BeatDivisor: 4
GridSize: 8

[Metadata]
Title:Masquerade of Lies
Artist:Falcom Sound Team J.D.K.
Creator:f0012979
Version:Hard
Source:Sora no Kiseki the 3rd
Tags:falcom video game ignorethis

[Difficulty]
HPDrainRate:6
CircleSize:4
OverallDifficulty:7
ApproachRate:7
SliderMultiplier:1.6
SliderTickRate:0.5

[Events]
//Background and Video events
0,0,"bg.jpg"
//Break Periods
2,61159,72446
//Storyboard Layer 0 (Background)
//Storyboard Layer 1 (Fail)
//Storyboard Layer 2 (Pass)
//Storyboard Layer 3 (Foreground)
//Storyboard Sound Samples
//Background Colour Transformations
3,100,163,162,255

[TimingPoints]
572,387.096774193548,4,2,1,80,1,0
12959,-100,4,1,1,50,0,1
13055,-100,4,1,1,50,0,0
37733,-100,4,1,1,50,0,1
37830,-100,4,1,1,50,0,0
60862,-100,4,2,1,50,0,0
73249,-100,4,1,1,50,0,0
85733,-100,4,1,1,50,0,1
85830,-100,4,1,1,50,0,0
110507,-100,4,1,1,50,0,1
110604,-100,4,1,1,50,0,0

[Colours]
Combo1 : 128,128,128
Combo2 : 192,192,192
Combo3 : 95,0,189
Combo4 : 128,0,128

[HitObjects]
40,335,572,2,0,B|105:276|214:292,1,160,0|0
271,316,1152,1,0
271,316,1249,1,0
271,316,1346,2,0,B|359:344|460:295,1,160
432,132,2120,6,0,B|458:76|435:-8,2,120
344,121,2894,1,0
346,165,2991,1,0
265,200,3184,1,0
260,156,3281,1,0
253,68,3475,1,0
179,116,3668,6,0,B|102:89|16:140|33:252,1,240,4|0
32,245,4346,1,0
32,245,4442,1,0
189,325,4830,1,0
172,149,5217,2,0,B|155:92|175:16,2,120
245,100,5991,2,0,B|332:66|432:101,1,160
449,306,6765,6,0,B|352:329|286:308,1,160,4|0
205,285,7346,1,0
162,296,7442,1,0
119,309,7539,2,0,B|19:287|24:180,1,160
167,95,8313,6,0,B|260:67|344:98,1,160,4|0
400,45,8894,1,0
441,58,8991,1,0
482,71,9088,2,0,B|501:165|443:234,1,160
256,192,9862,12,4,11410
48,336,12959,6,0,B|224:336,1,160,0|0
304,256,13539,1,0
272,256,13636,1,0
240,256,13733,2,0,B|152:296|72:216,1,160,0|0
40,168,14313,1,0
112,120,14507,2,0,B|152:56|128:0,2,120
192,112,15281,2,0,B|280:96|368:112,1,160,0|0
464,224,16055,6,0,B|384:248|272:224,1,160
224,216,16636,2,0,B|224:272,2,40,0|0|0
112,192,17120,1,0
192,112,17410,1,0
192,112,17604,2,0,B|272:56|384:72,1,160
343,68,18184,1,0
320,272,18378,2,0,B|240:328|128:312,1,160
48,288,19152,6,0,B|96:216|64:112,1,160
152,64,19733,1,0
152,64,19830,1,0
152,64,19926,2,0,B|136:136|184:200,2,120
64,80,20701,2,0,B|64:160|80:208|128:256,1,160
128,320,21281,1,0
128,320,21378,1,0
128,320,21475,6,0,B|216:304|296:312,1,160
424,320,22249,6,0,B|472:272|464:184,2,120
360,264,23023,2,0,B|288:264|224:264,2,120
376,184,23797,2,0,B|424:104|360:16,1,160
280,56,24378,1,0
280,56,24475,1,0
280,56,24571,2,0,B|192:64|88:48,1,160
48,120,25346,5,4
48,120,25733,1,0
48,120,25830,1,0
48,120,25926,1,0
136,201,26120,1,0
136,201,26507,1,0
136,201,26604,1,0
136,201,26701,1,0
222,216,26894,6,0,B|286:206|366:220,2,120
164,282,27668,2,0,B|153:333,2,40
250,299,28055,1,0
416,329,28442,6,0,B|492:256|444:165,1,160
319,84,29023,1,0
319,84,29120,1,0
319,84,29217,2,0,B|252:158|296:243,1,160
237,328,29991,6,0,B|152:350|56:302,1,160
89,210,30571,1,0
89,210,30668,1,0
89,210,30765,2,0,B|174:252|264:228,1,160
404,86,31539,6,0,B|468:157|414:247,1,160,4|0
326,190,32120,1,0
326,190,32217,1,0
326,190,32313,2,0,B|262:261|321:347,1,160
155,338,33088,6,0,B|59:309|60:207,1,160
357,46,33862,2,0,B|453:75|452:177,1,160
389,233,34442,1,0
444,304,34636,6,0,B|387:342|314:315,2,120,4|0|0
389,233,35410,2,0,B|328:264|290:200|207:240,1,160,4|0
168,292,35991,1,0
85,262,36184,6,0,B|9:210|43:95,1,160,4|0
117,85,36765,1,0
156,163,36959,2,0,B|228:180|246:126|338:140,1,160,4|0
450,246,37733,5,4
371,284,37926,1,0
371,284,38023,1,0
371,284,38120,1,0
371,284,38217,1,0
371,284,38313,1,0
286,310,38507,1,0
198,319,38701,2,0,B|141:318,2,40
111,303,39088,1,0
36,256,39281,6,0,B|-2:221|16:168,1,80
27,142,39571,1,0
46,102,39668,2,0,B|65:65|132:61,1,80
200,63,40055,1,0
260,127,40249,1,0
260,127,40346,1,0
335,81,40539,1,0
335,81,40636,1,0
399,141,40830,5,0
475,97,41023,1,0
475,97,41120,1,0
475,97,41217,1,0
481,184,41410,1,0
412,239,41604,6,0,B|415:296|392:348,1,80
402,318,41894,1,0
315,306,42088,1,0
273,318,42184,1,0
229,326,42281,1,0
185,322,42378,6,0,B|138:325|96:272,1,80
62,219,42765,1,0
62,130,42959,1,0
114,59,43152,1,0
152,138,43346,2,0,B|163:188,1,40
207,251,43636,1,0
207,251,43733,2,0,B|240:219|299:226,1,80,0|4
367,236,44120,5,0
367,236,44217,1,0
454,245,44410,1,0
454,245,44507,1,0
417,164,44701,2,0,B|442:112|419:60,1,80
356,34,45088,2,0,B|334:86|353:119,1,80
338,199,45475,6,0,B|281:186|240:192,1,80
216,202,45765,2,0,B|169:222|122:206,1,80
94,202,46055,1,0
49,203,46152,1,0
15,231,46249,6,0,B|7:284|28:325,1,80
102,344,46636,1,0
124,306,46733,2,0,B|139:244|127:203,1,80
94,202,47023,6,0,B|89:142|109:88,1,80,4|0
121,37,47410,1,0
162,51,47507,2,0,B|206:61|262:40,1,80
284,39,47797,2,0,B|330:31|386:47,1,80
431,97,48184,1,0
444,139,48281,2,0,B|457:187|436:236,1,80
425,258,48571,6,0,B|406:296|425:364,1,80
330,330,48959,1,0
242,319,49152,1,0
155,338,49346,1,0
155,338,49442,1,0
69,315,49636,1,0
69,315,49733,1,0
53,228,49926,1,0
83,145,50120,6,0,B|132:123|196:134,1,80,4|0
160,130,50410,1,0
249,135,50604,1,0
249,135,50701,2,0,B|308:150|349:126,1,80
415,121,51088,1,0
415,121,51184,1,0
469,190,51378,1,0
469,190,51475,1,0
451,275,51668,6,0,B|440:331|389:356,1,80
366,338,51959,2,0,B|317:320|263:330,1,80
247,344,52249,1,0
160,361,52442,1,0
74,340,52636,1,0
74,340,52733,1,0
55,254,52926,1,0
55,253,53023,1,0
55,164,53217,5,0
67,77,53410,2,0,B|114:63|115:64,1,40
193,74,53701,2,0,B|239:86,1,40
318,102,53991,6,0,B|370:75|431:93,1,80
437,98,54281,2,0,B|425:147|454:187,1,80
462,216,54571,1,0
484,301,54765,6,0,B|386:300,1,80
318,280,55152,1,0
275,293,55249,1,0
195,330,55442,1,0
151,320,55539,2,0,B|103:312|98:256,1,80
23,221,55926,2,0,B|45:172|101:169,1,80
169,183,56313,6,0,B|199:110|178:46,2,120,4|0|0
256,169,57088,2,0,B|226:242|270:320,2,120
319,107,57862,6,0,B|370:102|417:109,1,80
398,106,58152,1,0
420,192,58346,1,0
420,192,58442,1,0
479,256,58636,2,0,B|443:338,1,80
358,325,59023,2,0,B|304:247,1,80
261,187,59410,6,0,B|183:212|157:293,2,120
271,99,60184,2,0,B|340:70|420:89,2,120
185,122,60959,1,4
28,233,73346,6,0,B|71:137|180:146,1,160
180,62,73926,1,0
180,62,74023,1,0
180,62,74120,2,0,B|273:49|352:110,1,160
449,227,74894,6,0,B|476:293|446:368,2,120
371,269,75668,2,0,B|348:212|377:128,2,120
302,324,76442,6,0,B|232:271|131:320,1,160,4|0
95,242,77023,1,0
95,242,77120,1,0
95,242,77217,2,0,B|169:201|258:231,1,160
317,66,77991,6,0,B|395:48|454:57,2,120
231,89,78765,2,0,B|180:102|92:83,2,120
293,151,79539,6,0,B|276:240|301:322,1,160,4|0
210,325,80120,2,0,B|194:376,2,40
213,236,80507,1,0
134,275,80701,1,0
32,131,81088,6,0,B|54:22|176:50,1,160
183,124,81668,1,0
183,124,81765,1,0
183,124,81862,1,0
260,83,82055,1,0
267,170,82249,1,0
405,278,82636,5,4
320,304,82830,1,0
320,304,82926,1,0
320,304,83023,1,0
233,284,83217,1,0
233,284,83313,1,0
233,284,83410,1,0
146,266,83604,1,0
59,282,83797,1,0
86,198,83991,2,0,B|86:108,1,80,0|4
377,67,85733,6,0,B|435:140|372:233,1,160
333,289,86313,1,0
333,289,86410,1,0
333,289,86507,2,0,B|260:352|162:304,1,160
77,172,87281,2,0,B|122:120|95:38,2,120
104,255,88055,2,0,B|168:204|259:225,1,160
411,306,88830,6,0,B|365:234|414:137,1,160
441,72,89410,2,0,B|488:40,2,40
370,124,89797,1,0
288,90,89991,1,0
117,46,90378,6,0,B|33:99|51:202,1,160
56,268,90959,1,0
127,217,91152,2,0,B|200:244|212:185|308:214,1,160
406,334,91926,6,0,B|484:287|445:191,1,160,4|0
373,145,92507,1,0
373,145,92604,1,0
373,146,92701,2,0,B|295:193|334:289,1,160
160,320,93475,6,0,B|64:336|32:240,1,160
93,182,94055,1,0
88,93,94249,2,0,B|179:61|260:113,1,160
374,219,95023,6,0,B|371:279|388:324,1,80
305,345,95410,2,0,B|310:305|299:249,1,80
297,177,95797,2,0,B|212:157|134:206,1,160
252,63,96571,6,0,B|233:147|294:218,1,160
331,290,97152,1,0
331,290,97249,1,0
331,290,97346,2,0,B|240:282|172:332,1,160
66,191,98120,6,0,B|51:277|115:350,1,160
169,277,98701,1,0
169,277,98797,1,0
169,277,98894,2,0,B|156:231|177:175,2,80
230,339,99475,1,0
276,264,99668,2,0,B|333:256|402:271,2,120
220,195,100442,2,0,B|262:128|212:21,1,160
387,97,101217,6,0,B|366:190|438:254,1,160
493,301,101797,2,0,B|479:352,2,40
410,331,102184,2,0,B|312:331,1,80
278,259,102571,1,0
191,275,102765,6,0,B|96:316|44:219,1,160
130,191,103346,2,0,B|108:174|113:136,2,40
217,178,103733,1,0
304,172,103926,1,0
399,319,104313,6,0,B|304:310|226:360,1,160
158,330,104894,2,0,B|136:284,2,40
70,322,105281,1,0
42,238,105475,1,0
120,198,105668,1,0
79,119,105862,6,0,B|120:65|208:76,2,120
120,198,106636,2,0,B|124:294|224:330,1,160
290,345,107217,1,0
290,345,107313,1,0
290,345,107410,6,0,B|388:364|445:310,1,160
440,70,108184,2,0,B|388:20|290:39,1,160
207,69,108765,1,0
118,70,108959,1,0
256,192,109152,12,0,110120
61,245,110507,5,4
71,332,110700,1,0
114,325,110797,1,0
157,331,110894,1,0
201,328,110991,1,0
244,334,111087,1,0
247,245,111281,1,0
322,289,111475,2,0,B|379:288,2,40
246,243,111862,1,0
160,260,112055,6,0,B|144:218|180:172,1,80
206,157,112345,1,0
245,138,112442,2,0,B|292:139|311:176,1,80
356,251,112829,1,0
407,179,113023,1,0
407,179,113120,1,0
364,102,113313,1,0
364,102,113410,1,0
277,85,113604,5,0
192,108,113797,1,0
148,114,113894,1,0
103,114,113991,1,0
102,201,114184,1,0
190,199,114378,6,0,B|187:256|210:308,1,80
212,319,114668,1,0
294,287,114862,1,0
309,327,114958,1,0
351,337,115055,1,0
394,328,115152,6,0,B|441:331|483:278,1,80
428,217,115539,1,0
490,154,115733,1,0
427,92,115926,1,0
362,151,116120,2,0,B|320:196,1,40
304,250,116410,1,0
304,250,116507,2,0,B|271:218|212:225,1,80,0|4
144,235,116894,5,0
144,235,116991,1,0
57,244,117184,1,0
57,244,117281,1,0
94,163,117475,2,0,B|69:111|92:59,1,80
155,33,117862,2,0,B|177:85|158:118,1,80
173,198,118249,6,0,B|230:185|271:191,1,80
295,201,118539,2,0,B|342:221|389:205,1,80
417,201,118829,1,0
462,202,118926,1,0
496,230,119023,6,0,B|504:283|483:324,1,80
409,343,119410,1,0
387,305,119507,2,0,B|372:243|384:202,1,80
417,201,119797,6,0,B|422:141|402:87,1,80,4|0
390,36,120184,1,0
349,50,120281,2,0,B|305:60|249:39,1,80
227,38,120571,2,0,B|181:30|125:46,1,80
80,96,120958,1,0
67,138,121055,2,0,B|54:186|75:235,1,80
86,257,121345,6,0,B|105:295|86:363,1,80
181,329,121733,1,0
269,318,121926,1,0
356,337,122120,1,0
356,337,122216,1,0
442,314,122410,1,0
442,314,122507,1,0
458,227,122700,1,0
373,251,122894,6,0,B|324:229|260:240,1,80,4|0
296,236,123184,1,0
208,247,123378,1,0
166,261,123475,2,0,B|120:276|66:252,1,80
38,186,123862,1,0
55,146,123958,1,0
128,97,124152,1,0
146,136,124249,1,0
226,171,124442,6,0,B|266:151|265:103,1,80
285,66,124733,2,0,B|334:48|377:89,1,80
394,104,125023,1,0
412,189,125216,1,0
384,272,125410,1,0
402,312,125507,1,0
321,346,125700,1,0
300,306,125797,1,0
211,308,125991,5,0
145,249,126184,2,0,B|199:229,1,40
206,150,126475,2,0,B|160:162,1,40
157,72,126765,6,0,B|194:42|242:52,1,80
274,60,127055,2,0,B|286:109|372:95,1,80
380,92,127345,1,0
466,75,127539,6,0,B|482:125|466:165,1,80
469,241,127926,1,0
449,280,128023,1,0
389,344,128216,1,0
344,344,128313,2,0,B|303:358|247:326,1,80
187,296,128700,2,0,B|165:247|109:244,1,80
40,241,129088,6,0,B|10:168|31:104,2,120,4|0|0
127,224,129862,2,0,B|157:297|113:375,2,120
124,135,130636,6,0,B|152:130|203:135,1,80
247,135,130926,1,0
306,69,131120,1,0
349,70,131216,1,0
437,74,131410,2,0,B|465:108|473:156,1,80
467,233,131797,2,0,B|460:282|421:298,1,80
348,340,132184,6,0,B|286:328|282:247,2,120
372,254,132959,2,0,B|417:202|369:119,2,120
296,224,133733,5,4
