osu file format v8

[General]
AudioFilename: Masquerade of Lies.mp3
AudioLeadIn: 1500
PreviewTime: 12934
Countdown: 0
SampleSet: Soft
StackLeniency: 0.7
Mode: 0
LetterboxInBreaks: 1

[Editor]
Bookmarks: 12940,37714,54755,60914,73302,85689,110488,133708,161594
DistanceSpacing: 1
BeatDivisor: 4
GridSize: 8

[Metadata]
Title:Masquerade of Lies
Artist:Falcom Sound Team J.D.K.
Creator:f0012979
Version:Easy
Source:Sora no Kiseki the 3rd
Tags:falcom video game ignorethis

[Difficulty]
HPDrainRate:0
CircleSize:4
OverallDifficulty:3
ApproachRate:3
SliderMultiplier:0.7
SliderTickRate:0.5

[Events]
//Background and Video events
0,0,"bg.jpg"
//Break Periods
2,61158,71906
//Storyboard Layer 0 (Background)
//Storyboard Layer 1 (Fail)
//Storyboard Layer 2 (Pass)
//Storyboard Layer 3 (Foreground)
//Storyboard Sound Samples
//Background Colour Transformations
3,100,163,162,255

[TimingPoints]
572,387.096774193548,4,2,0,80,1,0
12953,-100,4,2,0,75,0,1
13049,-100,4,2,0,75,0,0
37733,-100,4,2,0,85,0,1
37830,-100,4,2,0,85,0,0
85733,-100,4,2,1,75,0,1
85830,-100,4,2,0,75,0,0
110507,-100,4,2,0,75,0,1
110604,-100,4,2,0,75,0,0
135281,-100,4,2,0,0,0,0

[Colours]
Combo1 : 128,128,128
Combo2 : 192,192,192
Combo3 : 95,0,189
Combo4 : 128,0,128

[HitObjects]
256,336,572,2,0,B|304:280|400:296,1,140,4|0
440,256,1733,1,2
480,200,2120,2,0,B|456:112|344:112,1,140,4|0
256,48,3668,6,0,B|208:104|112:88,1,140,4|0
72,128,4829,1,2
32,184,5216,2,0,B|56:272|168:272,1,140,4|0
256,344,6765,6,0,B|328:336|416:344,1,140,4|4
408,272,7926,1,2
480,272,8313,6,0,B|504:192|480:128,1,140,4|4
432,80,9475,1,2
256,192,9862,12,4,11410
256,328,12959,6,4,B|200:272|104:304,1,140,4|2
96,232,14120,1,0
96,160,14507,6,0,B|112:72|24:56,2,140,4|2|4
160,192,16442,1,0
160,192,16830,5,2
256,88,17604,1,4
352,192,18378,1,2
256,288,19152,6,0,B|288:368|392:344,1,140,4|2
408,288,20313,2,0,B|488:288,1,70,0|4
440,152,21475,2,0,B|360:152,1,70,2|0
320,104,22249,6,0,B|320:24|200:24,1,140,4|4
184,160,23797,2,0,B|96:120|40:216,2,140,4|2|4
256,280,26120,6,0,B|304:352|408:288,1,140,2|4
416,168,27668,2,0,B|512:168,2,70,2|0|4
320,64,29217,6,0,B|240:16|168:104,1,140,2|4
136,208,30765,2,0,B|40:208,2,70,2|0|4
256,272,32313,6,0,B|296:248|344:304,1,70,2|0
384,320,33088,2,0,B|464:176,1,140,4|2
480,136,34249,5,0
480,136,34636,2,0,B|432:64|328:80,1,140,4|4
264,176,36184,6,0,B|200:216|208:328,2,140,4|2|4
144,104,38507,6,0,B|80:152|80:248,1,140,0|4
136,352,40055,2,0,B|184:344|232:360,1,70,4|4
272,352,40830,6,0,B|352:368|408:280,1,140,4|0
448,168,42378,1,4
344,56,43152,1,0
208,64,43926,6,0,B|144:56|48:64,1,140,4|0
144,184,45475,6,0,B|56:176|-16:184,1,140,4|0
64,304,47023,6,0,B|128:296|224:304,1,140,4|0
256,352,48184,1,0
256,352,48571,6,0,B|344:344|416:352,1,140,4|4
464,232,50120,6,0,B|456:144|360:128,2,140,4|0|4
328,248,52442,2,0,B|224:248,1,70,4|4
200,200,53217,6,0,B|112:184|72:288,1,140,4|0
16,136,54765,2,0,B|0:48|104:8,2,140,4|0|4
144,192,57088,6,0,B|144:272|152:344,1,140,0|4
288,320,58636,2,0,B|384:312,1,70,4|0
352,248,59410,6,0,B|422:239|504:248,2,140,4|0|4
256,336,73346,6,0,B|208:280|112:296,1,140,4|0
72,256,74507,1,2
32,200,74894,2,0,B|56:112|168:112,1,140,4|0
256,48,76442,6,0,B|304:104|400:88,1,140,4|0
440,128,77603,1,2
480,184,77990,2,0,B|456:272|344:272,1,140,4|0
256,344,79539,6,0,B|184:336|96:344,1,140,4|4
104,272,80700,1,2
32,272,81087,6,0,B|8:192|32:128,1,140,4|4
80,80,82249,1,2
256,192,82636,12,4,85733
224,152,86507,6,0,B|262:150|304:152,1,70,2|0
336,208,87281,2,0,B|408:200|480:208,1,140,4|2
488,280,88442,1,0
488,352,88830,1,4
352,352,89604,6,0,B|311:347|272:352,1,70,2|0
232,304,90378,1,4
136,200,91152,2,0,B|176:195|216:200,1,70,2|0
256,152,91926,1,4
352,48,92701,6,0,B|312:40|272:48,1,70,2|0
216,24,93475,2,0,B|148:19|64:24,1,140,4|2
32,80,94636,1,2
64,144,95023,6,0,B|73:182|72:224,1,70,4|0
120,264,95797,1,4
256,232,96571,2,0,B|265:193|264:152,1,70,4|0
312,112,97345,1,4
448,64,98120,6,0,B|468:97|472:136,1,70,4|0
432,192,98894,2,0,B|432:264|424:336,1,140,2|4
288,336,100442,2,0,B|216:336,1,70,2|0
176,280,101217,6,0,B|137:278|96:280,1,70,4|0
56,232,101991,1,2
136,112,102765,6,0,B|174:110|216:112,1,70,4|0
256,64,103539,1,2
328,56,103926,1,0
400,64,104313,1,4
448,192,105088,6,0,B|453:229|448:264,2,70,2|0|4
336,272,106636,6,0,B|330:309|336:344,2,70,2|0|4
256,160,108184,1,4
136,96,108959,1,4
16,160,109733,1,4
136,224,110507,6,0,B|136:304,1,70,4|0
192,336,111281,2,0,B|261:329|344:336,1,140,0|4
432,232,112830,1,4
432,160,113217,1,4
432,88,113604,6,0,B|395:86|360:88,1,70,4|0
312,40,114378,2,0,B|242:37|160:40,1,140,0|4
88,152,115926,1,2
72,224,116313,1,2
88,296,116701,6,0,B|152:304|232:296,1,140,4|0
336,192,118249,2,0,B|400:200|480:192,2,140,4|0|4
256,80,120571,6,0,B|216:77|176:80,1,70,4|0
128,120,121346,2,0,B|126:194|128:264,1,140,4|4
256,320,122894,5,4
256,320,123281,1,0
256,320,123668,2,0,B|329:323|408:320,1,140,0|4
456,192,125217,1,4
392,168,125604,1,4
328,192,125991,6,0,B|176:192,1,140,4|0
96,88,127539,2,0,B|248:88,2,140,4|0|4
0,192,129862,6,0,B|8:264,1,70,2|0
48,320,130636,2,0,B|123:316|200:320,1,140,4|2
256,320,131797,1,2
256,320,132184,5,4
256,176,132959,1,4
256,192,133733,12,0,135281
