osu file format v7

[General]
AudioFilename: Legend of The Five Great Dragons.mp3
AudioLeadIn: 1496
PreviewTime: 75940
Countdown: 0
SampleSet: Soft
StackLeniency: 0.3
Mode: 0
LetterboxInBreaks: 1

[Editor]
Bookmarks: 12555,24620,30668,36706,48771,51800,63876,88027,100102,115196,128781,134819,136329,137838,139347,140857,152932,158970,165196,171046,178970
DistanceSpacing: 1
BeatDivisor: 6
GridSize: 16

[Metadata]
Title:Legend of The Five Great Dragons
Artist:Falcom Sound Team J.D.K.
Creator:f0012979
Version:!ignore this
Source:Ys Seven
Tags:falcom video game Alace ignorethis

[Difficulty]
HPDrainRate:3
CircleSize:4
OverallDifficulty:7
SliderMultiplier:1.9
SliderTickRate:2

[Events]
//Background and Video events
0,0,"ys7.jpg"
//Break Periods
2,100290,114285
2,159159,170134
//Storyboard Layer 0 (Background)
//Storyboard Layer 1 (Fail)
//Storyboard Layer 2 (Pass)
//Storyboard Layer 3 (Foreground)
//Storyboard Sound Samples
//Background Colour Transformations
3,100,163,162,255

[TimingPoints]
470,754.716981132075,4,2,0,25,1,0
12168,-100,4,2,0,60,0,1
12545,377.358490566038,4,2,0,60,1,0
30658,1509.43396226415,4,2,0,60,1,0
32167,377.358490566038,4,2,0,60,1,0
75940,-100,4,2,0,60,0,0
87450,-100,4,2,0,80,0,0
87827,-100,4,2,0,60,0,0
105374,-200,4,2,0,60,0,0
105657,-100,4,2,0,60,0,0
128016,-200,4,2,0,60,0,0
128770,-100,4,2,0,40,0,0
139336,-200,4,2,0,40,0,0
140468,-100,4,2,0,60,0,0
164714,-200,4,2,0,60,0,0
165185,-100,4,2,0,60,0,0
177072,1509.43396226415,4,2,0,60,1,0
178582,377.358490566038,4,2,0,60,1,0
182355,-100,4,2,0,60,0,1

[Colours]
Combo1 : 0,109,219
Combo2 : 224,147,31
Combo3 : 99,190,54
Combo4 : 198,69,47
Combo5 : 33,153,211

[HitObjects]
96,192,470,2,0,B|32:192,2,47.5
176,192,1224,1,8
256,192,1602,1,0
416,192,1979,2,0,B|480:192,2,47.5
336,192,2733,1,8
256,192,3111,1,0
224,64,3488,5,0
256,48,3677,1,0
288,64,3866,1,0
256,192,4243,1,8
256,304,4620,1,0
128,304,4998,5,0
96,320,5186,1,0
64,304,5375,1,0
96,192,5753,1,8
96,64,6130,1,0
320,112,6507,6,0,B|368:48|464:48,2,142.5
192,112,8017,2,0,B|144:48|48:48,2,142.5
80,192,9526,2,0,B|96:288|160:368|272:368|400:304,1,380
256,192,11224,12,4,12168
256,144,12545,6,2,B|288:48|416:16|528:96,2,285
256,240,14054,2,2,B|224:144|96:112|-16:192,2,285
256,336,15563,2,2,B|288:240|416:208|528:288,2,285
256,240,17073,2,2,B|128:256|64:192|96:48,2,285
256,48,18582,5,0
336,112,18771,1,0
336,112,18865,1,0
336,112,18960,1,2
400,192,19148,2,2,B|208:192,1,190
128,192,19714,2,2,B|96:304|240:352,1,190
256,272,20280,5,0
256,272,20375,1,0
256,272,20469,1,2
293,342,20658,2,2,B|384:384|485:294,1,190
400,256,21224,2,2,B|304:320|208:208,1,190
192,160,21790,5,0
192,160,21884,1,0
192,160,21978,1,2
112,176,22167,2,2,B|128:64|272:80,1,190
320,32,22733,2,2,B|416:96|368:208,1,190
336,272,23299,6,0,B|352:288|400:288,2,47.5,0|0|2
256,256,23677,2,2,B|144:224|64:304,1,190
77,291,24243,1,0
144,336,24431,1,2
224,304,24620,6,4,B|320:336|432:304|480:208,2,285
144,272,25941,1,0
64,240,26129,2,0,B|32:288|48:352,2,95,0|0|2
128,192,26695,1,0
64,144,26884,2,0,B|32:96|48:32,2,95,0|0|2
128,192,27450,1,0
144,112,27639,6,4,B|208:48|304:32|416:48,2,285
192,192,28960,1,0
112,224,29148,2,0,B|112:288|160:304,2,95,0|0|2
192,192,29714,1,0
112,160,29903,2,0,B|112:96|160:80,2,95,0|0|2
32,192,30469,1,0
32,192,30563,1,0
32,192,30658,2,2,B|224:192,1,190
352,192,32481,5,0
416,128,32733,1,2
416,256,32984,1,0
480,192,33236,1,2
352,192,33487,1,0
416,192,33739,1,4
256,192,33802,12,6,36317
192,112,36695,6,2,B|160:64|112:64|64:80,2,142.5
320,112,37450,2,2,B|352:64|400:64|448:80,2,142.5
256,48,38204,2,0,B|208:208|304:192|256:352,1,285
80,304,38959,1,0
432,304,39336,1,0
352,288,39525,1,0
352,288,39619,1,0
352,288,39714,6,2,B|272:352|160:304,1,190
256,240,40280,1,0
256,240,40468,2,2,B|128:256|75:163,1,190
208,160,41034,1,0
208,160,41223,2,2,B|144:144|96:96|80:16,3,190
352,80,42733,6,2,B|384:48|432:32|496:64,2,142.5,6|2|2
400,288,43487,2,2,B|368:320|320:336|256:304,2,142.5
448,192,44242,2,2,B|320:144|288:256|144:192,1,285
169,202,44902,1,0
169,202,44997,2,2,B|96:160|16:208,2,142.5
112,320,45751,6,0,B|208:368|320:320,1,190,0|2
160,80,46317,1,0
160,80,46506,2,0,B|240:32|352:48,1,190,0|2
288,240,47072,1,0
288,240,47261,2,0,B|384:288|496:240,1,190,0|2
384,64,47827,1,0
384,64,48016,2,0,B|288:16|176:64,1,190,0|2
199,54,48582,1,0
256,192,48770,12,4,51412
80,176,51789,6,0,B|48:256|96:336,1,142.5,0|2
288,288,52355,1,0
288,288,52544,2,0,B|336:224|304:144,1,142.5,0|2
176,96,53110,1,0
176,96,53299,2,2,B|144:192|192:288,1,190
400,320,53865,1,0
400,320,54053,2,2,B|464:240|416:128,2,190
240,352,55091,5,0
288,192,55374,1,2
224,128,55563,6,2,B|160:112|80:128,2,142.5
304,96,56317,2,2,B|368:64|464:96,2,142.5
240,48,57072,2,2,B|80:96|64:256,1,285
112,320,57827,6,0,B|176:272|272:288,2,142.5,4|2|0
320,336,58582,2,0,B|390:348|454:300,2,142.5,0|2|0
384,256,59336,2,2,B|304:288|224:224|96:288,1,285
48,336,60091,2,0,B|0:272|32:192,2,142.5,0|2|0
272,144,60846,6,0,B|320:224|272:304,1,142.5,0|2
128,288,61412,1,0
128,288,61600,2,0,B|80:224|128:128,1,142.5,0|2
336,96,62167,1,0
336,96,62355,2,2,B|400:192|336:288,3,190
464,320,63865,6,0,B|352:368|256:304,1,190,4|2
352,256,64431,2,0,B|240:240|208:144,1,190,0|2
144,80,64997,2,0,C|240:64,1,95,0|2
320,48,65374,2,2,B|384:144|304:224,3,190
480,336,66695,5,0
480,336,66789,1,0
480,336,66883,2,2,B|288:256|96:336,1,380,6|2
32,352,67827,1,0
51,271,68016,1,0
109,329,68204,1,0
32,352,68393,2,2,B|144:240|64:64,2,285
64,352,69619,1,0
96,352,69714,1,0
128,352,69808,1,0
160,352,69902,6,2,B|272:368|368:304|432:240|448:128,1,380,6|2
400,80,70846,2,0,B|448:80|496:32,2,95,0|2|0
320,80,71412,2,2,B|208:32|112:96,3,190
64,128,72733,1,0
48,224,72921,6,2,B|144:160|224:160|352:240,2,285,6|2|2
480,336,74431,2,2,B|384:272|304:272|176:352,2,285
480,240,75751,1,0
480,240,75846,1,0
480,240,75940,6,2,B|480:128|400:64|272:64|176:96,1,380,6|2
128,32,76883,1,0
96,112,77072,1,0
160,176,77261,1,2
128,256,77450,2,2,B|256:224|272:304|432:256,1,285
448,336,78204,2,2,B|352:368|240:336,1,190
288,80,78770,1,0
288,80,78865,1,0
288,80,78959,6,2,B|176:48|96:80|48:192,1,285,6|2
304,336,79714,2,0,B|416:352|464:240,1,190,0|2
272,160,80280,1,0
272,160,80468,2,2,B|144:128|48:192|64:320,1,285
128,320,81223,2,0,B|224:368|336:320,1,190,0|2
128,96,81789,5,0
128,96,81883,1,0
128,96,81978,2,2,B|224:32|304:32|432:64,2,285,6|2|2
480,240,83299,1,0
480,240,83393,1,0
480,240,83487,2,2,B|384:176|304:176|176:208,2,285
32,352,84808,5,0
32,352,84902,1,0
32,352,84997,2,2,B|128:288|208:288|336:320,2,285
48,272,86317,1,0
32,192,86506,2,0,B|64:96,1,95,0|2
208,176,86883,2,0,B|240:80,1,95,0|2
352,256,87261,2,0,B|416:48,1,190,0|2
480,192,87827,1,0
464,336,88016,6,0,B|368:288|272:320,1,190,4|2
96,224,88582,1,0
96,224,88676,1,0
96,224,88770,2,2,B|176:160|288:192,1,190
464,80,89336,1,0
464,80,89525,2,2,B|384:16|272:48,1,190
256,192,90091,1,0
240,112,90280,2,0,B|128:112,1,95,0|2
64,112,90657,2,2,B|48:224,1,95
50,206,90940,1,0
50,206,91034,6,2,B|48:288|80:368,1,142.5,6|2
288,304,91600,1,0
288,304,91789,2,2,B|304:256|288:160,1,142.5,6|2
128,128,92355,1,0
128,128,92544,2,2,B|112:224|160:320,2,190,6|2|2
208,112,93487,1,0
272,64,93676,1,2
352,32,93865,5,2
352,32,93959,1,2
352,32,94053,2,0,B|416:128|336:240,1,190,6|2
64,144,94619,1,0
64,144,94714,1,0
64,144,94808,2,2,B|16:240|64:336,1,190
336,336,95374,1,0
336,336,95563,2,2,B|448:272|464:144|448:80,2,285
272,64,96883,6,0,B|256:112,2,47.5,0|0|4
160,192,97355,1,0
320,224,97638,1,2
272,304,97827,1,4
416,336,98110,1,0
368,192,98393,1,2
320,128,98582,6,2,B|384:80|480:96,2,142.5,6|2|2
256,64,99336,2,2,B|160:112|48:80,2,190,2|2|6
64,160,115185,6,2,B|96:64|192:16|304:64,2,285
448,240,116506,1,0
448,240,116600,1,0
448,240,116695,2,2,B|416:144|320:96|208:144,2,285,2|2|2
416,320,118016,1,0
416,320,118110,1,0
416,320,118204,6,0,B|272:320,1,142.5,4|2
240,128,118770,1,0
208,208,118959,2,0,B|64:208,1,142.5,4|2
144,32,119525,1,0
176,112,119714,2,2,B|320:112,2,142.5,6|2|2
94,99,120468,2,2,B|37:193|98:301,2,190,2|2|6
448,128,121789,5,0
448,128,121884,1,0
448,128,121978,2,2,B|480:224|464:272|400:320,1,190
352,352,122544,1,0
352,272,122733,2,2,B|288:224|208:224|160:320,1,190
144,352,123299,1,0
96,288,123487,2,2,B|36:273|0:320,2,95
64,64,124053,5,0
64,64,124148,1,0
64,64,124242,2,2,B|208:80,1,142.5,6|2
400,192,124808,1,0
400,192,124997,2,2,B|256:176,1,142.5,6|2
48,272,125563,1,0
48,272,125752,2,2,B|336:304,2,285
48,272,127261,1,2
256,192,128016,12,4,128770
64,192,129525,5,2
256,336,130280,1,0
448,192,131034,1,2
256,48,131789,1,0
97,271,132544,5,2
377,306,133299,1,0
256,48,134053,1,2
208,336,134808,6,0,C|112:336,1,95
304,272,135185,2,0,C|416:272,1,95,2|0
160,224,135563,2,0,C|48:224,1,95
256,176,135940,2,0,C|352:176,1,95,2|0
448,160,136317,6,0,B|416:64,1,95
384,240,136695,2,0,B|416:336,1,95,2|0
320,160,137072,2,0,B|288:64,1,95
256,240,137450,2,0,B|288:336,1,95,2|0
256,192,137827,12,4,139336
256,192,139431,12,4,140468
144,80,140846,6,2,B|80:144|64:256|96:368,2,285
208,304,142167,1,0
208,304,142261,1,0
208,304,142355,2,2,B|272:240|288:128|256:16,2,285
176,128,143676,1,0
176,128,143770,1,0
176,128,143865,6,2,B|320:128,2,142.5
208,208,144619,2,0,B|48:208,2,142.5,0|2|0
160,288,145374,2,2,B|288:384|448:272,2,285
352,96,146883,6,2,B|224:0|64:112,2,285,6|2|2
160,224,148204,1,0
160,224,148299,1,0
160,224,148393,2,2,B|288:128|448:240,2,285
336,336,149714,1,0
336,336,149809,1,0
336,336,149903,2,2,B|208:240|48:352,2,285
336,336,151223,1,0
416,320,151412,6,2,B|480:272|464:176,1,142.5
384,240,151978,1,0
384,240,152167,2,2,B|416:176|368:96,1,142.5
304,208,152733,1,0
304,208,152921,6,2,B|320:128|236:78|176:64,1,190,6|2
176,160,153487,1,0
176,160,153582,1,0
176,160,153676,2,2,B|144:256|224:368,1,190
206,341,154242,1,0
272,288,154431,2,2,B|352:336|464:288,1,190
448,208,154997,1,0
448,208,155091,1,0
448,208,155185,2,2,B|368:160|256:208,1,190
192,240,155751,1,0
256,192,155940,12,4,158959
48,192,171034,6,2,B|80:352|256:352,2,285
176,256,172355,1,0
176,176,172544,2,0,B|176:64,2,95,0|0|2
176,256,173110,1,0
256,256,173299,2,0,B|368:256,2,95,0|0|2
176,256,173865,1,0
224,64,174053,6,2,B|368:32|496:144,2,285
256,192,175374,1,0
176,336,175563,2,0,B|128:336|80:288,2,95,0|0|2
256,288,176129,1,0
336,336,176317,2,0,B|384:336|432:288,2,95,0|0|2
256,288,176883,1,0
256,288,176978,1,0
256,288,177072,2,0,B|224:192|288:192|256:96,1,190
64,192,178896,5,0
160,288,179147,1,2
256,192,179399,1,0
352,288,179651,1,2
448,192,179902,1,0
352,96,180154,1,2
256,192,180217,12,4,182355
