osu file format v6

[General]
AudioFilename: y7_op.mp3
AudioLeadIn: 3000
PreviewTime: 61555
Countdown: 0
SampleSet: Soft
StackLeniency: 0.2
Mode: 0
LetterboxInBreaks: 1

[Editor]
DistanceSpacing: 0.800000011920929
BeatDivisor: 4
GridSize: 8

[Metadata]
Title:Innocent Primeval Breaker
Artist:Falcom Sound Team J.D.K.
Creator:LuvCeciOsu
Version:Easy
Source:YS7 - Falcom
Tags:YS7 Opening

[Difficulty]
HPDrainRate:4
CircleSize:4
OverallDifficulty:3
SliderMultiplier:1.4
SliderTickRate:2

[Events]
//Background and Video events
0,0,"ys7_wp_pc_l11.jpg"
Video,0,"YouTube - Ys7 OP.flv"
//Break Periods
2,10427,18532
//Storyboard Layer 0 (Background)
//Storyboard Layer 1 (Fail)
//Storyboard Layer 2 (Pass)
//Storyboard Layer 3 (Foreground)
//Storyboard Sound Samples
//Background Colour Transformations
3,100,163,162,255

[TimingPoints]
-127,609.075220789768,4,2,1,100,1,0
482,-100,4,2,1,70,0,0
10227,-100,4,1,1,61,0,0
38244,-100,4,2,1,100,0,0
48294,-100,4,1,1,71,0,0
61389,-100,4,1,1,100,0,1
80880,-100,4,2,1,100,0,0
100370,-100,4,1,1,100,0,1
109963,-100,4,1,1,100,0,0
110115,-100,4,1,1,100,0,1
114988,-100,4,2,1,100,0,0

[Colours]
Combo1 : 128,255,128
Combo2 : 255,255,255
Combo3 : 128,255,255
Combo4 : 192,192,192

[HitObjects]
56,184,482,2,0,B|56:96|144:64,1,140
176,48,1395,1,0
232,40,1700,2,0,B|328:40|360:128,1,140
368,216,2918,1,0
280,288,3527,1,0
168,288,4136,2,0,B|88:288,2,70
456,200,5354,6,0,B|456:288|368:320,1,140
336,336,6268,1,0
280,344,6572,2,0,B|184:344|152:256,1,140
144,168,7790,1,0
232,96,8400,1,0
256,192,9009,12,4,10227
72,72,19972,6,0,B|72:216,1,140,4|0
160,280,21190,2,0,B|312:280,1,140
384,208,22408,2,0,B|312:208,4,70
256,96,24540,5,0
208,64,24845,2,0,B|208:136,2,70
152,56,25758,2,2,B|64:56|40:216,1,210
256,192,27281,12,4,28499
440,312,29717,6,0,B|440:168,1,140,4|0
352,104,30935,2,0,B|200:104,1,140
128,176,32153,2,0,B|200:176,4,70
256,288,34285,5,0
304,320,34590,2,0,B|304:248,2,70
360,328,35503,2,2,B|448:328|472:168,1,210
256,192,37026,12,6,38244
112,56,39462,5,0
152,88,39767,1,2
112,128,40071,1,0
152,168,40376,1,2
192,128,40681,2,0,B|240:128|272:160|288:200|288:248,1,140,0|2
352,128,41899,5,2
400,224,42508,1,2
328,312,43117,1,2
264,216,43726,2,0,B|264:272|256:304|216:312|184:312,1,140,4|0
136,296,44640,5,2
88,264,44944,1,0
120,224,45249,1,2
120,168,45553,2,0,B|168:168|200:136|216:96|216:48,1,140,0|2
245,186,46771,5,4
227,103,47228,1,4
168,163,47685,1,4
86,86,48294,6,0,B|30:38,2,70
141,79,49208,1,0
127,133,49512,1,0
74,151,49817,1,0
116,187,50121,1,0
169,170,50426,1,0
183,115,50730,1,0
225,151,51035,1,0
212,205,51339,1,0
165,236,51644,6,2,B|165:332|253:356,1,140
288,348,52558,1,0
343,343,52862,2,2,B|431:343|479:263,1,140
480,230,53776,1,0
477,174,54080,2,2,B|421:94|357:70|269:62|197:78,1,280
240,128,55603,5,0
184,104,55907,1,0
184,48,56212,1,0
136,72,56516,2,2,B|56:136|32:192|48:256|72:312|144:352|224:360|264:352,1,420
256,192,58953,12,4,60780
256,192,61389,6,0,B|344:192|376:96,1,140
456,56,62607,2,0,B|480:136|472:200|400:248|488:352,1,280
384,264,64434,1,0
350,308,64739,1,0
304,339,65044,2,0,B|232:347|168:299,1,140
120,279,65957,1,0
120,279,66262,2,0,B|64:191|64:135|120:71|176:39,1,280
224,64,69003,5,0
246,115,69307,1,0
301,118,69612,1,0
295,62,69916,2,0,B|135:62,1,140
85,149,71134,2,0,B|93:229|157:261|229:285|285:293|317:261,1,280
372,335,74180,5,0
427,336,74484,1,0
483,334,74789,2,0,B|483:214,2,105
427,335,76007,2,0,B|123:335,1,280
64,248,78748,5,0
78,193,79052,1,0
134,191,79357,1,0
189,182,79661,1,0
256,92,80270,1,0
416,56,80880,5,4
411,111,81184,6,0,B|499:119|515:199|451:215,1,140
422,205,82098,2,0,B|310:205|222:293,1,210
185,312,83316,1,2
140,209,83925,1,2
94,311,84534,1,2
37,310,84838,2,0,B|37:166,1,140
39,113,85752,5,4
39,57,86057,6,0,B|127:57|183:105,1,140
184,150,86970,2,0,B|296:150|384:238,1,210
426,245,88188,1,2
440,134,88797,1,2
451,245,89407,1,2
507,246,89711,2,0,B|507:102,1,140
397,80,90929,5,8
285,92,91538,1,8
189,150,92147,1,8
195,261,92756,1,8
290,319,93366,5,8
379,251,93975,1,8
349,142,94584,1,8
253,83,95193,1,8
204,111,95497,1,8
157,141,95802,5,8
189,248,96411,1,8
112,329,97020,1,8
38,244,97629,1,8
73,137,98238,1,8
159,65,98847,1,8
266,34,99456,1,8
270,89,99761,1,8
251,141,100065,1,8
222,188,100370,6,0,B|174:156|166:236|102:164|62:212,1,140
46,236,101284,1,0
46,291,101588,2,0,B|118:347|150:363|198:355,1,140
219,335,102502,1,0
261,298,102806,2,0,B|309:274|325:338|365:266|405:322,1,140
445,339,103720,1,0
477,293,104024,2,0,B|445:221|493:173|413:157,1,140
426,109,104938,5,0
390,65,105243,2,0,B|334:33|318:113|278:25|230:81,1,140
200,83,106156,1,0
154,49,106461,2,0,B|90:25|50:41|34:129,1,140
54,149,107374,1,4
165,163,107983,5,0
209,129,108288,1,0
254,161,108592,1,0
244,216,108897,1,0
309,268,109354,1,0
376,218,109811,1,0
397,166,110115,1,4
256,192,111333,12,4,114379
72,64,114988,6,0,B|216:64,1,140,8|0
151,158,116206,2,0,B|295:158,1,140,8|0
230,252,117424,2,0,B|374:252,1,140,8|0
416,150,118642,2,0,B|488:150,2,70,8|0|4
256,88,120165,5,4
256,168,120622,1,4
256,168,120926,1,4
