osu file format v8

[General]
AudioFilename: Determination of Fight.mp3
AudioLeadIn: 3000
PreviewTime: 26167
Countdown: 0
SampleSet: Normal
StackLeniency: 0.7
Mode: 0
LetterboxInBreaks: 1

[Editor]
DistanceSpacing: 0.800000011920929
BeatDivisor: 4
GridSize: 8

[Metadata]
Title:Determination of Fight
Artist:Falcom Sound Team J.D.K.
Creator:PSPDS Eddie
Version:Nivalis' Normal+
Source:Legend of Heroes VI: Sora no Kiseki the 3rd
Tags:Nivalis RPG

[Difficulty]
HPDrainRate:4
CircleSize:4
OverallDifficulty:5
ApproachRate:5
SliderMultiplier:1.4
SliderTickRate:1

[Events]
//Background and Video events
0,0,"BGwww.jpg"
//Break Periods
//Storyboard Layer 0 (Background)
//Storyboard Layer 1 (Fail)
//Storyboard Layer 2 (Pass)
//Storyboard Layer 3 (Foreground)
//Storyboard Sound Samples
//Background Colour Transformations
3,100,163,162,255

[TimingPoints]
1093,394.736842105263,4,1,0,60,1,0
9880,-100,4,1,0,41,0,0
10669,-100,4,1,0,61,0,0
13531,-100,4,2,0,60,0,0
26163,-100,4,1,0,60,0,0
63663,-100,4,2,0,60,0,0
64249,-100,4,2,0,60,0,1
68892,-200,4,2,0,60,0,1
69880,-100,4,2,0,60,0,1
72840,-100,4,2,0,30,0,1
73235,-100,4,2,0,36,0,1
73630,-100,4,2,0,41,0,1
74025,-100,4,2,0,47,0,1
74419,-100,4,2,0,52,0,1
74814,-100,4,2,0,61,0,1
76689,-100,4,1,0,60,0,1
89117,-100,4,1,0,41,0,0
102051,-100,4,2,0,41,0,0

[Colours]
Combo1 : 0,128,255
Combo2 : 0,128,0
Combo3 : 255,128,0

[HitObjects]
88,64,1290,1,0
136,32,1487,1,0
136,88,1685,2,0,B|216:88|240:192|336:192,1,210
392,272,2671,2,0,B|328:336|256:264,3,140
176,336,4250,5,0
136,296,4448,1,0
176,256,4645,1,0
216,296,4843,2,0,B|272:288|304:224|272:168|208:144,1,210
152,56,5829,1,0
152,224,6421,1,0
488,192,7606,6,0,B|448:136|400:240|360:184,1,140
192,192,8593,2,0,B|232:136|280:240|320:184,1,140
352,144,9185,1,0
376,192,9382,1,0
352,240,9579,1,0
296,336,9974,2,4,B|224:336,2,70
408,336,10764,5,0
456,304,10961,1,0
408,280,11158,2,0,B|320:240|296:176,1,140
256,192,11948,12,0,13329
168,192,13724,5,0
200,240,13921,1,0
224,192,14119,2,0,B|224:104|328:104,2,140,0|0|2
256,240,15106,1,0
312,240,15303,2,0,B|376:280|376:352,1,70
392,336,15698,2,0,B|480:336|480:240,2,140,0|0|2
280,336,16882,5,0
200,256,17277,1,0
120,336,17671,1,0
40,256,18066,1,2
120,176,18461,6,0,B|120:96,1,70
72,128,18856,1,0
72,72,19053,1,0
120,48,19250,1,0
168,72,19448,1,0
168,128,19645,1,2
272,80,20040,5,0
272,136,20237,1,0
296,184,20435,2,0,B|384:184|376:88,2,140,0|0|2
272,240,21421,1,0
272,295,21619,2,0,B|264:343|224:351,1,70
176,352,22014,2,0,B|72:352|176:352|112:280|64:280,2,140,0|0|2
256,272,23198,5,0
176,192,23593,1,0
256,112,23987,1,0
336,192,24382,1,2
256,192,24777,12,2,25961
128,312,26356,5,0
80,280,26553,1,0
128,256,26750,2,0,B|128:120|288:120,1,210
312,120,27540,2,0,B|400:120|400:24,1,140
64,40,29119,5,0
72,152,29514,2,0,B|144:240|0:272|80:360,1,210
124,345,30303,1,0
160,304,30500,1,0
208,280,30698,1,0
256,304,30895,1,0
296,344,31093,2,0,B|328:312|384:376|424:328,2,105
296,344,31882,1,4
296,225,32277,1,4
296,112,32671,5,0
256,72,32869,1,0
240,128,33066,2,0,B|208:120|176:144|192:176|232:192|272:176|304:144|304:112|272:72|256:64|224:64|208:48,1,210
254,17,33856,1,0
144,16,34250,6,0,B|40:80|8:192|40:296|160:352,1,420
269,350,35829,2,0,B|328:280|256:208,1,140
200,136,36619,2,0,B|128:40,1,105
144,136,37211,2,0,B|87:193,1,70
256,192,37803,12,4,38987
432,312,40369,6,0,B|432:256,2,35
347,312,40862,2,0,B|240:312,1,105
184,312,41356,1,0
288,176,41948,6,0,B|288:128,2,35
288,264,42441,2,0,B|176:264,1,105
128,264,42935,1,0
48,192,43329,1,8
128,112,43724,2,0,B|184:120|232:88,1,105
312,90,44316,1,0
440,192,44908,6,0,B|464:224,2,35,0|0|8
383,192,45303,2,0,B|295:136|199:256|111:192,2,280
416,272,47178,1,0
352,328,47474,1,0
296,328,47671,1,0
200,272,48066,1,8
256,192,48461,12,0,50829
256,192,51224,5,4
168,256,51619,1,0
184,312,51816,1,0
224,272,52014,2,0,B|272:296|336:264|368:216|328:136,1,210
296,112,52803,2,0,B|248:80|176:112|152:168|176:192,1,140
488,32,54382,5,0
375,32,54777,2,0,B|312:96|232:-8|159:48,1,210
120,40,55566,1,0
80,80,55764,1,0
64,136,55961,1,0
80,192,56158,1,0
120,232,56356,2,0,B|152:264|88:320|136:360,2,105
120,232,57145,1,4
232,232,57540,1,4
344,232,57935,5,0
360,176,58132,1,0
400,216,58329,2,0,B|392:184|416:152|448:168|464:208|448:248|416:280|384:280|344:248|336:232|336:200|320:184,1,210
288,232,59119,1,0
288,344,59514,6,0,B|120:344|120:56|296:56,1,420
394,56,61092,2,0,B|394:202,1,140
392,312,61882,2,0,B|272:312,1,105
216,352,62474,2,0,B|200:312|224:256,1,70
256,192,62869,12,2,64250
128,280,64645,5,0
128,168,65040,2,0,B|128:88|128:88|176:48,1,140,0|2
232,48,65632,1,0
288,48,65829,2,2,B|384:48,3,70,2|2|2|2
416,48,66619,2,2,B|520:48,3,70
488,104,67408,6,0,B|440:168,1,70,0|2
406,199,67803,2,0,B|326:159,1,70,0|2
296,144,68198,2,0,B|240:216,1,70,0|2
213,238,68592,2,0,B|133:198,1,70,0|2
96,208,68987,6,0,B|32:144|104:72,1,140
120,40,69974,2,0,B|192:72,1,70
240,64,70369,2,0,B|336:168|216:240,1,210,0|4
144,320,71356,5,0
256,320,71750,1,0
256,208,72145,1,0
144,208,72540,1,0
32,208,72935,6,2,B|32:168,1,35
112,144,73329,2,2,B|132:109,1,35
216,120,73724,2,2,B|250:100,1,35
296,168,74119,2,2,B|336:168,1,35
320,248,74514,2,2,B|354:268,1,35
280,320,74908,2,0,B|300:354,2,35
256,192,75303,12,0,76882
432,48,78264,6,0,B|432:104,2,35
352,48,78757,2,0,B|216:48,1,105
190,48,79250,1,0
264,200,79842,6,0,B|264:256,2,35,0|0|0
184,200,80336,2,0,B|72:200,1,105
24,200,80829,1,0
0,312,81224,1,8
96,368,81619,2,0,B|160:368|208:336,1,105
264,296,82211,1,0
136,192,82803,6,0,B|104:160,2,35,0|0|8
192,192,83198,2,0,B|280:248|376:128|464:192,2,280
240,120,85073,1,0
192,48,85369,1,0
192,48,85566,1,0
79,48,85961,1,8
256,192,86356,12,0,88724
256,192,89119,5,4
208,296,89514,1,0
256,328,89711,1,0
304,296,89908,1,0
432,192,90500,1,0
400,144,90698,1,0
400,32,91093,6,0,B|280:32|224:192|16:192,1,420
118,247,92671,2,0,B|231:219|306:140|326:140,1,210
352,120,93461,2,0,B|392:64|448:136|408:184|360:184,1,140
294,241,94250,2,0,B|253:275|190:295,2,105
352,240,95040,1,4
464,240,95435,1,4
408,144,95829,5,0
448,104,96027,1,0
392,88,96224,2,0,B|256:40|112:96,1,280
64,96,97211,1,0
104,136,97408,1,0
432,192,98593,6,0,B|432:352,2,140
320,192,99777,2,0,B|192:192,2,105
376,192,100566,1,0
256,192,100764,12,0,102145
448,64,102441,6,0,B|408:96,1,35,0|2
472,152,102836,2,0,B|420:155,1,35,0|2
456,240,103231,2,0,B|412:213,1,35,0|2
256,192,103724,12,0,105303
64,64,105599,6,0,B|104:96,1,35,0|2
40,152,105994,2,0,B|91:155,1,35,0|2
56,240,106389,2,0,B|99:213,1,35,0|2
256,192,106882,12,0,108461
240,176,108757,6,0,B|200:136,1,35,0|2
256,224,109152,2,0,B|256:264,1,35,0|2
288,184,109546,2,0,B|352:184,1,35,0|2
256,192,110040,12,0,111619
208,160,111915,6,0,B|256:200,1,35,0|2
256,264,112310,2,0,B|256:216,1,35,0|2
328,192,112704,2,0,B|288:192,1,35,0|2
256,192,113198,12,4,114777
