osu file format v8

[General]
AudioFilename: Determination of Fight.mp3
AudioLeadIn: 3000
PreviewTime: 26167
Countdown: 0
SampleSet: Normal
StackLeniency: 0.7
Mode: 0
LetterboxInBreaks: 1

[Editor]
DistanceSpacing: 1
BeatDivisor: 4
GridSize: 8

[Metadata]
Title:Determination of Fight
Artist:Falcom Sound Team J.D.K.
Creator:PSPDS Eddie
Version:Insane
Source:Legend of Heroes VI: Sora no Kiseki the 3rd
Tags:Nivalis RPG

[Difficulty]
HPDrainRate:7
CircleSize:4
OverallDifficulty:7
ApproachRate:7
SliderMultiplier:1.6
SliderTickRate:1

[Events]
//Background and Video events
0,0,"3rdBG.jpg"
//Break Periods
//Storyboard Layer 0 (Background)
//Storyboard Layer 1 (Fail)
//Storyboard Layer 2 (Pass)
//Storyboard Layer 3 (Foreground)
//Storyboard Sound Samples
//Background Colour Transformations
3,100,163,162,255

[TimingPoints]
1093,394.736842105263,4,1,0,50,1,0
19693,-100,4,2,0,50,0,0
19841,-100,4,1,0,50,0,0
46387,-100,4,2,0,50,0,0
46584,-100,4,1,0,50,0,0
64249,-100,4,1,0,50,0,1
89117,-100,4,1,0,50,0,0

[Colours]
Combo1 : 0,128,255
Combo2 : 192,192,192
Combo3 : 255,128,0

[HitObjects]
80,192,1092,1,0
240,192,1487,2,0,B|232:304|112:320,2,160,8|0|8
184,136,2474,1,0
128,192,2671,2,0,B|304:192,2,160,0|8|0
128,32,3856,1,8
264,112,4250,6,0,B|88:112,2,160,0|8|0
344,112,5237,1,0
400,168,5435,1,8
344,224,5632,1,0
288,168,5829,1,0
128,168,6224,1,8
128,328,6619,2,0,B|128:264,4,40,0|0|0|0|4
368,328,7606,5,0
288,328,7803,1,0
208,328,8000,1,0
432,48,8987,5,0
432,128,9185,1,0
352,128,9382,1,0
352,48,9579,1,0
256,336,10764,5,0
184,296,10961,1,0
120,248,11158,1,0
256,168,11553,1,0
256,336,11948,5,0
256,168,12342,1,0
176,168,12540,1,0
216,240,12737,1,0
256,168,12935,5,0
272,144,13033,1,0
296,128,13132,1,0
328,120,13231,1,0
360,120,13329,1,0
392,128,13428,1,0
416,144,13527,1,0
432,168,13625,1,0
432,168,13724,6,0,B|448:208|432:248,1,80
352,248,14119,1,8
352,168,14316,1,0
272,168,14514,2,0,B|248:208|288:280,1,80
352,248,14908,1,8
352,216,15007,1,0
352,184,15106,1,0
352,104,15303,6,0,B|264:104,3,80,0|0|8|0
192,104,16092,1,0
192,184,16290,1,0
128,232,16487,1,8
160,256,16586,1,0
200,264,16685,1,0
256,320,16882,6,0,B|168:320,1,80
256,240,17277,2,0,B|344:240,1,80,8|0
256,160,17671,2,0,B|160:160,1,80
256,80,18066,2,0,B|352:80,1,80,8|0
416,80,18461,5,0
448,152,18658,1,0
440,232,18856,1,8
400,304,19053,1,0
360,232,19250,1,0
328,232,19349,1,0
296,232,19448,1,0
264,232,19546,1,0
232,232,19645,1,4
72,232,20040,6,0,B|72:336|200:360,2,160,0|8|0
152,232,21027,1,0
112,160,21224,1,8
256,232,21619,6,0,B|224:272|272:328,1,80
336,304,22014,1,8
336,224,22211,1,0
336,144,22408,1,0
400,96,22606,1,8
368,64,22704,1,0
328,64,22803,1,8
168,64,23198,5,0
104,112,23395,1,0
88,192,23593,1,8
112,272,23790,1,0
184,304,23987,1,0
264,312,24185,1,8
336,280,24382,1,8
336,120,24777,6,0,B|296:88|256:128,1,80
264,200,25171,1,8
344,200,25369,1,0
424,200,25566,2,0,B|424:272,4,40,0|0|0|0|12
416,40,26356,6,0,B|248:40,1,160
96,40,27145,1,0
96,120,27343,1,8
96,120,27441,1,0
96,120,27540,1,8
248,72,27935,6,0,B|296:128|232:208,2,120
40,192,29119,5,0
104,240,29316,1,0
168,288,29514,1,0
256,144,29908,1,8
336,144,30106,2,0,B|360:192|320:248,1,80
296,288,30500,1,0
216,264,30698,1,8
264,200,30895,1,0
264,120,31093,5,0
264,40,31290,1,0
264,40,31389,2,0,B|392:40,1,120
464,40,31882,1,0
464,120,32079,1,8
464,160,32178,1,0
464,200,32277,1,8
336,296,32671,5,0
256,288,32869,1,0
224,264,32968,1,0
192,240,33066,1,0
192,80,33461,1,0
352,80,33856,1,0
352,240,34250,5,0
256,312,34546,1,0
160,240,34843,1,0
96,192,35040,1,0
96,112,35237,1,8
136,112,35336,1,0
176,112,35435,1,8
336,112,35829,5,0
336,272,36224,1,0
192,192,36619,2,0,B|256:256|248:328,2,120
320,192,37408,5,0
128,192,37704,1,0
320,192,38000,1,0
192,192,38198,1,0
352,192,38592,1,0
192,192,38987,5,4
352,192,39382,1,0
192,192,39777,2,0,B|192:296,1,80,8|0
192,192,40171,2,0,B|192:88,1,80,8|0
192,192,40566,1,0
266,296,40961,1,0
344,192,41356,2,0,B|344:104,1,80,8|0
344,192,41750,2,0,B|344:288,1,80,8|0
344,192,42145,5,0
344,352,42540,1,0
184,352,42935,2,0,B|184:176,1,160,0|8
256,48,43724,2,0,B|320:56|384:120,2,120
256,48,44711,1,8
256,48,44908,1,8
256,192,45303,12,2,46487
256,192,46882,5,0
320,240,47079,1,0
384,192,47277,1,8
320,136,47474,1,0
320,56,47671,1,0
288,56,47770,1,0
256,56,47869,1,0
224,56,47967,1,0
192,56,48066,1,8
48,128,48461,6,0,B|48:280,2,120
128,128,49250,1,0
128,248,49546,1,0
128,128,49842,1,0
208,128,50040,1,0
208,248,50336,1,0
208,128,50632,1,0
288,128,50829,1,0
368,128,51027,5,8
360,168,51125,1,0
328,200,51224,1,12
184,128,51619,6,0,B|184:328,1,160,0|8
344,288,52408,1,0
344,208,52606,1,0
344,128,52803,1,8
320,128,52902,1,0
296,128,53000,1,0
272,128,53099,1,0
248,128,53198,5,0
152,192,53494,1,0
248,272,53790,1,0
24,352,54382,6,0,B|216:352,1,160
184,192,55171,1,8
184,352,55566,1,0
248,304,55764,1,0
312,352,55961,1,8
376,304,56158,1,0
312,256,56356,5,0
248,208,56553,1,0
312,160,56750,1,8
376,208,56948,1,0
312,256,57145,1,0
312,256,57342,1,8
312,256,57441,1,0
312,256,57540,1,8
312,256,57935,6,0,B|144:256,1,160,0|8
152,176,58527,1,0
152,96,58724,2,0,B|328:96,1,160,0|8
256,344,59514,5,0
160,176,59810,1,0
352,176,60106,1,0
256,32,60698,5,0
256,192,61092,1,0
256,352,61487,1,8
344,216,61882,5,0
256,136,62178,1,0
168,216,62474,1,8
88,216,62671,5,0
88,96,62967,1,0
88,216,63264,1,8
168,216,63461,1,0
248,216,63658,1,0
328,216,63856,1,8
328,216,63954,1,0
328,216,64053,1,0
328,136,64250,6,0,B|368:120|408:136,1,80
408,216,64645,1,8
408,296,64842,1,0
408,296,65040,2,0,B|312:296,1,80
248,296,65435,1,8
248,216,65632,1,0
248,136,65829,6,0,B|144:136,3,80,0|0|8|0
168,216,66619,1,0
168,296,66816,1,8
136,296,66915,1,0
104,296,67014,1,8
168,296,67211,1,8
168,216,67408,6,0,B|288:224|288:336,4,160,0|8|0|8|0
104,264,69185,1,0
40,216,69382,1,8
104,168,69579,5,0
112,136,69678,1,0
128,112,69777,1,0
152,96,69875,1,0
184,80,69974,1,0
216,80,70073,1,0
248,96,70171,1,8
272,120,70270,1,0
288,144,70369,1,0
296,176,70467,1,0
296,208,70566,1,0
400,328,70961,5,8
400,328,71356,1,0
400,248,71553,1,0
400,168,71750,1,8
264,80,72145,5,0
328,128,72342,1,0
264,176,72540,1,8
328,224,72737,1,0
264,176,72935,5,0
248,200,73033,1,0
232,232,73132,1,0
248,264,73231,1,0
264,288,73329,2,0,B|432:288,1,160,8|0
352,248,73921,1,0
424,208,74119,1,8
352,168,74316,1,0
424,128,74514,1,0
368,72,74711,1,0
296,40,74908,1,8
216,48,75106,1,0
152,96,75303,5,0
136,128,75402,1,0
128,160,75500,1,0
128,192,75599,1,0
137,222,75698,1,8
150,251,75796,1,0
176,272,75895,1,0
204,286,75994,1,0
234,297,76092,1,0
266,297,76191,1,0
296,288,76290,1,0
320,267,76389,1,0
336,239,76487,1,12
336,80,76882,6,0,B|144:80,1,160,0|8
176,240,77671,1,0
256,240,77869,1,0
336,240,78066,1,8
496,240,78461,1,0
416,240,78658,1,0
336,240,78856,2,0,B|232:240,1,80,8|0
176,240,79250,1,0
96,240,79448,1,8
96,240,79546,1,0
96,240,79645,1,8
96,160,79842,6,0,B|72:112,2,40
256,160,80435,1,8
376,56,80829,1,0
376,136,81026,1,0
448,96,81224,1,8
320,184,81619,5,0
216,120,81915,1,0
112,184,82211,1,0
352,184,82803,1,4
256,312,83198,6,0,B|88:312,1,160,0|8
96,152,83987,1,4
136,152,84086,1,0
176,152,84185,1,0
256,152,84382,1,8
96,152,84777,5,0
176,152,84974,1,0
176,232,85171,1,8
256,232,85369,1,0
328,272,85566,1,0
336,232,85665,1,0
328,192,85764,1,0
256,152,85961,1,8
256,312,86356,6,0,B|112:312,2,120
256,232,87145,1,0
376,232,87441,1,0
256,232,87737,1,0
256,152,87935,1,0
136,152,88231,1,0
256,152,88527,1,0
192,208,88724,1,0
136,152,88921,5,8
136,112,89020,1,0
136,72,89119,1,12
296,72,89514,6,0,B|296:248,1,160,0|8
216,368,90303,1,0
296,344,90500,1,0
376,368,90698,1,8
256,264,91093,5,0
256,144,91389,1,0
256,264,91685,1,0
200,200,91882,1,0
120,200,92079,1,0
120,280,92277,2,0,B|160:360|288:336,1,160,8|0
256,104,93264,5,0
256,184,93461,1,0
336,184,93658,1,0
336,104,93856,1,8
256,104,94053,1,0
256,184,94250,2,0,B|256:320,2,120
176,184,95040,1,0
176,304,95336,1,0
176,184,95632,1,0
96,184,95829,5,0
128,112,96027,1,0
168,96,96125,1,0
208,104,96224,1,0
440,328,97014,5,0
440,168,97408,1,0
336,232,97704,1,0
336,112,98000,1,0
283,172,98198,5,0
267,196,98296,1,0
259,228,98395,1,0
267,260,98494,1,0
283,284,98593,6,0,B|451:284,1,160,8|0
443,203,99185,1,0
443,123,99382,1,8
304,48,99777,1,0
224,48,99974,1,0
192,48,100073,1,0
160,48,100171,1,8
48,168,100566,5,0
120,208,100764,1,0
192,240,100961,1,8
264,208,101158,1,0
320,152,101356,1,0
328,120,101454,1,0
320,88,101553,1,0
296,64,101652,1,0
264,56,101750,1,8
136,128,102145,6,0,C|136:184,3,40
232,224,102737,2,0,C|232:168,3,40
328,128,103329,1,0
328,160,103428,1,0
328,192,103527,1,0
328,224,103625,1,0
328,256,103724,5,0
200,192,104020,1,0
328,128,104316,1,4
392,312,105303,6,0,B|320:312,3,40
256,240,105895,2,0,B|192:240,3,40
264,128,106487,1,0
232,128,106586,1,0
200,128,106685,1,0
168,128,106783,1,0
136,128,106882,5,0
328,128,107178,1,0
136,128,107474,1,4
344,168,107869,5,0
336,136,107968,1,0
320,112,108066,1,0
296,88,108165,1,0
272,72,108264,1,0
216,128,108461,6,0,B|152:128,3,40
256,216,109053,2,0,B|320:216,3,40,0|0|0|0
152,144,109645,1,0
176,128,109744,1,0
203,111,109843,1,0
232,97,109941,1,0
259,81,110040,5,0
472,192,110336,1,0
256,296,110632,1,4
256,216,110829,5,0
224,216,110928,1,0
192,208,111027,1,0
160,200,111125,1,0
136,184,111224,1,0
120,160,111323,1,0
112,128,111421,1,0
112,48,111619,5,0
144,48,111718,1,0
176,48,111816,2,0,B|224:48,1,40
304,80,112211,6,0,B|304:24,3,40
392,80,112803,2,0,B|392:136,2,40
456,80,113198,5,0
288,168,113494,1,0
456,272,113790,1,4
328,272,114185,5,0
296,272,114283,1,0
264,272,114382,1,0
232,272,114481,1,0
200,272,114579,1,0
168,272,114678,1,0
136,272,114777,1,4
