osu file format v8

[General]
AudioFilename: Determination of Fight.mp3
AudioLeadIn: 3000
PreviewTime: 26167
Countdown: 0
SampleSet: Normal
StackLeniency: 0.7
Mode: 0
LetterboxInBreaks: 1

[Editor]
DistanceSpacing: 1
BeatDivisor: 4
GridSize: 8

[Metadata]
Title:Determination of Fight
Artist:Falcom Sound Team J.D.K.
Creator:PSPDS Eddie
Version:Hard
Source:Legend of Heroes VI: Sora no Kiseki the 3rd
Tags:Nivalis RPG

[Difficulty]
HPDrainRate:6
CircleSize:4
OverallDifficulty:7
ApproachRate:7
SliderMultiplier:1.6
SliderTickRate:1

[Events]
//Background and Video events
0,0,"3rd.jpg"
//Break Periods
//Storyboard Layer 0 (Background)
//Storyboard Layer 1 (Fail)
//Storyboard Layer 2 (Pass)
//Storyboard Layer 3 (Foreground)
//Storyboard Sound Samples
//Background Colour Transformations
3,100,163,162,255

[TimingPoints]
1093,394.736842105263,4,1,0,50,1,0
64249,-100,4,1,0,50,0,1
89117,-100,4,1,0,50,0,0

[Colours]
Combo1 : 0,128,255
Combo2 : 192,192,192
Combo3 : 255,128,0

[HitObjects]
80,192,1092,1,0
240,192,1487,2,0,B|240:288|136:320,2,160,8|0|8
160,48,2671,1,0
240,192,3066,1,8
80,192,3461,1,0
160,48,3856,1,8
240,192,4250,6,0,B|64:192,2,160,0|8|0
400,192,5435,1,8
240,192,5829,1,0
400,192,6224,1,8
240,192,6619,1,0
400,192,7014,1,12
256,304,7606,5,0
256,224,7803,1,0
256,144,8000,1,0
256,64,8987,5,0
256,144,9185,1,0
256,224,9382,1,0
256,304,9579,1,0
256,192,10764,5,0
200,136,10961,1,0
144,192,11158,1,0
256,192,11553,1,0
416,192,11948,1,0
256,192,12342,1,0
200,248,12540,1,0
144,192,12737,1,0
200,136,12935,2,0,B|304:136,1,80
360,120,13329,2,0,B|472:120,1,80,8|0
456,200,13724,6,0,B|472:240|456:280,1,80
376,280,14119,1,8
376,200,14316,1,0
296,200,14514,2,0,B|272:240|312:312,1,80
376,280,14908,1,8
376,200,15106,1,0
376,120,15303,2,0,B|288:120,3,80,0|0|8|0
216,120,16092,5,0
216,200,16290,1,0
216,280,16487,1,8
216,360,16685,1,0
296,360,16882,2,0,B|296:128|296:128|200:80,1,320
64,40,18066,1,8
64,200,18461,5,0
136,232,18658,1,0
208,200,18856,1,8
208,40,19250,1,0
136,80,19448,1,0
64,40,19645,1,8
64,200,20040,6,0,B|72:304|192:320,2,160
144,200,21027,1,8
208,248,21224,1,8
360,192,21619,6,0,B|400:240|336:288,1,80
296,312,22014,1,8
296,232,22211,1,0
296,152,22408,1,0
296,72,22606,1,8
296,152,22803,1,8
152,72,23198,5,0
104,136,23395,1,0
80,208,23593,1,8
104,288,23790,1,0
176,328,23987,1,0
256,336,24185,1,8
336,336,24382,1,8
328,176,24777,6,0,B|288:136|240:192,1,80
256,256,25171,1,8
256,336,25369,1,0
336,336,25566,2,0,B|424:336,2,80,0|8|8
408,64,26356,6,0,B|240:64,1,160
376,160,27145,1,0
312,200,27343,1,8
248,160,27540,1,8
248,320,27935,2,0,B|400:320,2,120
40,192,29119,5,0
200,192,29514,1,0
360,192,29908,1,8
440,192,30106,2,0,B|464:240|424:296,1,80
360,272,30500,1,0
360,192,30698,1,8
360,112,30895,1,0
360,32,31093,2,0,B|168:32,2,160,0|8|0
360,32,32079,1,8
360,32,32277,1,8
360,192,32671,5,0
296,232,32869,1,0
224,192,33066,1,8
224,32,33461,1,0
224,192,33856,1,8
360,280,34250,5,0
256,336,34546,1,0
152,280,34843,1,0
376,192,35435,5,0
216,192,35829,1,0
56,192,36224,1,8
216,192,36619,2,0,B|280:256|272:328,2,120
296,192,37408,1,0
216,104,37704,1,0
128,192,38000,1,8
128,272,38198,1,0
128,112,38592,1,8
288,112,38987,1,4
416,352,39777,6,0,B|224:352,1,160,0|8
256,192,40566,1,0
96,192,40961,1,0
96,32,41356,2,0,B|280:32,1,160,0|8
256,192,42145,1,0
256,352,42540,1,0
96,352,42935,2,0,B|96:176,1,160,0|8
96,32,43724,2,0,B|160:40|224:104,2,120
256,192,45303,12,8,46487
256,192,46882,5,0
416,192,47277,1,8
416,32,47671,1,0
336,56,47869,1,0
256,32,48066,1,8
104,88,48461,6,0,B|104:224,2,120
184,88,49250,6,0,B|184:224,2,120
264,88,50040,6,0,B|264:224,2,120
344,88,50829,1,0
184,88,51224,1,4
24,88,51619,6,0,B|24:288,1,160,0|8
184,248,52408,1,0
184,168,52606,1,0
184,88,52803,1,8
344,88,53198,5,0
408,192,53494,1,0
344,288,53790,1,0
104,328,54382,6,0,B|296:328,1,160
264,168,55171,1,8
328,312,55566,1,0
264,264,55764,1,0
200,312,55961,1,8
264,168,56356,1,0
344,168,56553,1,0
304,240,56750,2,0,B|304:144,1,80,8|0
304,80,57145,1,0
304,80,57342,1,8
304,80,57540,1,8
304,240,57935,6,0,B|136:240,1,160,0|8
144,80,58724,2,0,B|320:80,1,160,0|8
304,240,59514,5,0
224,328,59810,1,0
144,240,60106,1,0
256,32,60698,5,0
256,192,61092,1,0
256,352,61487,1,8
256,192,61882,1,0
336,192,62079,1,0
256,192,62277,1,8
96,216,62671,2,0,B|88:144|176:120,2,120
176,216,63461,1,0
336,216,63856,1,0
408,72,64250,6,0,B|352:56|320:80,1,80
328,152,64645,1,8
408,152,64842,1,0
408,232,65040,2,0,B|312:232,1,80
248,232,65435,1,8
248,152,65632,1,0
248,72,65829,2,0,B|144:72,3,80,0|0|8|0
168,152,66619,1,0
168,232,66816,1,0
168,312,67014,1,8
168,232,67211,1,0
168,152,67408,6,0,B|288:160|288:272,4,160,0|8|0|8|0
88,152,69185,1,0
128,224,69382,1,8
168,152,69579,2,0,B|168:96,10,40,0|0|0|0|0|0|8|0|0|0|0
168,312,70961,5,8
328,312,71356,1,0
384,256,71553,1,0
392,176,71750,1,8
392,16,72145,1,0
312,24,72342,1,0
240,56,72540,1,8
176,104,72737,1,0
144,176,72935,1,0
136,256,73132,1,0
168,328,73329,6,0,B|248:376|328:336,1,160,8|0
392,296,73921,1,0
432,224,74119,1,8
432,144,74316,1,0
392,72,74514,1,0
328,32,74711,1,0
248,24,74908,1,8
168,48,75106,1,0
128,112,75303,1,4
336,112,76882,6,0,B|144:112,1,160,0|8
176,272,77671,1,0
256,272,77869,1,0
336,272,78066,1,8
336,112,78461,1,0
280,168,78658,1,0
224,112,78856,1,8
168,168,79053,1,0
112,112,79250,1,0
56,168,79448,1,8
112,224,79645,1,8
112,304,79842,6,0,B|112:352,2,40
256,232,80435,1,8
256,72,80829,2,0,B|456:72,2,160,0|8|0
96,72,82014,1,8
256,72,82408,1,0
256,152,82606,1,0
256,232,82803,1,12
336,320,83198,6,0,B|168:320,1,160,0|8
176,160,83987,1,0
256,160,84185,1,0
336,160,84382,1,8
176,160,84777,1,0
256,160,84974,1,0
336,160,85171,1,8
416,160,85369,1,0
496,160,85566,1,0
336,160,85961,1,8
256,296,86356,5,0
136,296,86652,1,0
16,296,86948,1,0
16,216,87145,1,0
136,216,87441,1,0
256,216,87737,1,0
256,136,87935,1,0
136,136,88231,1,0
16,136,88527,1,0
16,56,88724,1,0
176,56,89119,1,4
16,56,89514,6,0,B|16:232,1,160,0|8
128,328,90303,1,0
208,344,90500,1,0
288,328,90698,1,8
208,192,91092,6,0,B|208:56,2,120
280,232,91882,1,8
208,272,92079,1,0
136,232,92277,2,0,B|160:320|272:336,1,160,8|0
488,336,93264,5,0
424,288,93461,1,0
488,240,93658,1,0
424,184,93856,1,0
488,136,94053,1,0
424,88,94250,2,0,B|296:88,2,120
376,24,95040,2,0,B|232:24,2,120
456,24,95829,5,0
456,24,96027,2,0,B|456:80,2,40
176,192,97014,1,0
336,192,97408,5,0
408,96,97704,1,0
480,192,98000,1,0
288,336,98593,6,0,B|456:336,1,160
448,256,99185,1,0
368,256,99382,1,8
368,96,99777,1,0
288,96,99974,1,0
208,96,100171,1,8
80,184,100566,1,0
136,240,100764,1,0
208,264,100961,1,8
280,240,101158,1,0
336,184,101356,1,8
208,88,101750,1,4
88,192,102145,6,0,B|88:144,3,40
200,192,102737,2,0,B|248:192,3,40
200,304,103329,2,0,B|248:304,2,40
120,304,103724,2,0,B|120:152,2,120
456,192,105303,6,0,B|456:144,3,40
344,192,105895,2,0,B|344:136,3,40
232,192,106487,2,0,B|232:136,2,40
232,272,106882,5,0
136,344,107178,1,0
40,272,107474,1,0
136,144,107869,6,0,B|136:80,4,40
216,144,108461,2,0,B|216:200,3,40
328,136,109053,2,0,B|328:64,3,40
440,136,109645,2,0,B|488:96,2,40
384,192,110040,1,0
280,248,110336,1,0
176,192,110632,1,0
96,192,110829,6,0,B|96:256,6,40
96,112,111619,2,0,B|40:112,3,40
176,112,112211,2,0,B|176:64,3,40
176,192,112803,6,0,B|176:248,2,40
256,192,113198,2,0,B|400:192,2,120
96,192,114185,2,0,B|96:248,6,40,0|0|0|0|0|0|4
