osu file format v8

[General]
AudioFilename: Determination of Fight.mp3
AudioLeadIn: 3000
PreviewTime: 26167
Countdown: 0
SampleSet: Normal
StackLeniency: 0.7
Mode: 0
LetterboxInBreaks: 1

[Editor]
DistanceSpacing: 0.800000011920929
BeatDivisor: 4
GridSize: 8

[Metadata]
Title:Determination of Fight
Artist:Falcom Sound Team J.D.K.
Creator:PSPDS Eddie
Version:Easy
Source:Legend of Heroes VI: Sora no Kiseki the 3rd
Tags:Nivalis RPG

[Difficulty]
HPDrainRate:1
CircleSize:4
OverallDifficulty:1
ApproachRate:1
SliderMultiplier:1
SliderTickRate:2

[Events]
//Background and Video events
0,0,"BGwww.jpg"
//Break Periods
//Storyboard Layer 0 (Background)
//Storyboard Layer 1 (Fail)
//Storyboard Layer 2 (Pass)
//Storyboard Layer 3 (Foreground)
//Storyboard Sound Samples
//Background Colour Transformations
3,100,163,162,255

[TimingPoints]
1093,394.736842105263,4,1,0,50,1,0
64250,-100,4,1,0,50,0,1
89119,-100,4,1,0,50,0,0

[Colours]
Combo1 : 0,128,255
Combo2 : 0,128,0
Combo3 : 255,128,0

[HitObjects]
64,192,1092,1,0
256,192,1882,1,0
448,192,2671,1,0
256,192,3461,1,0
256,192,4250,6,0,B|152:192,2,100
400,192,5829,1,0
400,264,6224,1,0
336,224,6619,1,4
192,192,7408,6,0,B|192:80,2,100
192,192,8987,2,0,B|360:192,1,150
184,192,10961,5,0
184,264,11356,1,0
328,264,12145,1,0
432,264,12737,1,0
225,194,13724,6,0,B|225:298|225:298,1,100,0|8
285,293,14514,2,0,B|285:181,1,100,0|8
255,133,15303,2,0,B|255:70,6,50,0|0|8|0|0|0|8
256,200,16882,2,0,B|304:240|304:240|304:296|304:296|176:296|176:296|176:224,1,300,0|8
176,168,18461,5,0
216,112,18856,2,0,B|250:77|250:77|291:117,1,100,8|0
328,168,19645,1,8
328,168,20040,6,0,B|360:272|432:280,2,150,0|0|8
400,168,21619,2,0,B|368:272|304:280,2,150,0|0|8
328,168,23198,5,0
256,168,23593,1,8
184,168,23987,1,0
112,168,24382,1,8
120,240,24777,6,0,B|232:240,1,100,0|8
296,240,25566,2,0,B|296:304,2,50,0|0|4
296,168,26356,6,0,B|192:168,1,100
176,240,27145,1,0
248,240,27540,1,0
320,240,27935,1,0
424,240,28527,1,0
424,136,29119,5,0
352,136,29514,1,0
280,136,29908,2,0,B|280:248,2,100
280,136,31093,2,0,B|128:136,2,150
280,208,32671,5,0
280,280,33066,1,8
352,280,33461,1,0
352,208,33856,1,8
352,136,34250,6,0,B|192:136,2,150
352,280,36224,1,8
224,208,37014,1,8
368,208,37803,1,8
296,208,38198,1,8
224,208,38592,1,8
152,208,38987,1,4
376,344,40566,5,0
304,344,40961,1,0
232,344,41356,2,0,B|232:136,1,200
152,224,42935,2,0,B|152:112,1,100
224,104,43724,2,0,B|328:160,2,100
376,144,45303,6,0,B|376:248,1,100
295,244,46092,1,0
135,244,46882,2,0,B|135:132,1,100
215,144,47671,1,0
128,64,48461,5,0
128,184,49053,2,0,B|192:184,1,50
178,64,49842,2,0,B|234:64,1,50
228,183,50632,2,0,B|300:183,1,50
360,184,51224,1,4
392,112,51619,6,0,B|392:280,2,150
312,112,53198,2,0,B|160:112,1,150
384,288,55171,5,8
256,200,55961,1,8
128,288,56750,1,8
128,208,57145,2,0,B|128:144,2,50,0|0|4
208,208,57935,6,0,B|392:208,2,150
208,128,59514,2,0,B|296:128,2,75
256,32,60698,5,0
256,192,61487,1,8
256,352,62277,1,8
256,192,63066,1,8
256,192,63461,2,0,B|328:192,2,50,0|0|4
176,192,64250,6,0,B|176:80,1,100,0|8
240,40,65040,2,0,B|360:40,1,100,0|8
392,96,65829,2,0,B|392:208,1,100,0|8
336,256,66619,2,0,B|216:256,1,100,0|8
256,176,67408,6,0,B|256:104,8,50
256,296,69579,2,0,B|256:336,10,25
256,216,70961,5,8
416,192,71750,1,8
256,192,72540,1,8
96,192,73329,1,8
96,112,73724,2,0,B|320:112,2,200,0|0|4
352,296,76882,6,0,B|352:72,2,200,0|8|0
192,296,79250,1,8
32,296,80040,2,0,B|32:72,2,200,0|8|0
192,296,82408,1,8
256,192,83198,12,4,85566
336,208,86750,5,8
176,208,87540,1,8
256,192,87935,6,0,B|256:32,2,150,0|0|4
