osu file format v9

[General]
AudioFilename: ed7404.mp3
AudioLeadIn: 1985
PreviewTime: -1
Countdown: 0
SampleSet: Soft
StackLeniency: 0.7
Mode: 0
LetterboxInBreaks: 1

[Editor]
Bookmarks: 6238
DistanceSpacing: 0.8
BeatDivisor: 4
GridSize: 16

[Metadata]
Title:Inevitable Struggle
Artist:Falcom Sound Team J.D.K
Creator:cxyyx
Version:Elie-insane
Source:The Legend of Heroes VII:zero no Kiseki
Tags:

[Difficulty]
HPDrainRate:6
CircleSize:4
OverallDifficulty:7
ApproachRate:8
SliderMultiplier:1.39999990463257
SliderTickRate:1

[Events]
//Background and Video events
0,0,"1.jpg"
//Break Periods
//Storyboard Layer 0 (Background)
//Storyboard Layer 1 (Fail)
//Storyboard Layer 2 (Pass)
//Storyboard Layer 3 (Foreground)
//Storyboard Sound Samples
//Background Colour Transformations
3,100,163,162,255

[TimingPoints]
519,319.148936170213,4,2,0,100,1,0
28604,-100,4,2,0,80,0,0
28604,-100,4,2,0,80,0,0
28604,-100,4,2,0,80,0,0
31157,-100,4,2,0,80,0,0
42327,-100,4,1,0,80,0,0
42646,-100,4,2,0,80,0,0
49998,-100,4,1,0,80,0,0
50306,-100,4,2,0,80,0,0
50625,-100,4,1,0,80,0,0
50944,-100,4,2,0,80,0,0
51263,-100,4,1,0,80,0,0
51582,-100,4,2,0,80,0,0
97620,-100,4,1,0,80,0,0
99375,-100,4,2,0,80,0,0
107832,-100,4,1,0,80,0,0
109109,-100,4,2,0,80,0,0
112939,-142.857142857143,4,2,0,80,0,0

[Colours]
Combo1 : 255,255,0
Combo2 : 5,240,5
Combo3 : 5,5,240
Combo4 : 240,5,5

[HitObjects]
32,48,28604,6,2,B|32:96|80:96,1,69.9999952316285,0|2
160,96,28923,2,10,B|208:80|208:48,1,69.9999952316285
304,64,29242,1,0
368,64,29401,1,8
304,64,29561,1,0
304,128,29721,1,8
304,192,29880,1,0
304,256,30040,1,8
192,224,30199,1,0
192,256,30279,1,0
192,288,30359,1,0
96,288,30519,1,8
96,256,30598,1,8
96,224,30678,1,8
16,256,30838,1,4
96,96,31157,6,2,B|96:48|144:48,1,69.9999952316285,0|2
192,96,31476,2,10,B|272:96|256:144,1,69.9999952316285
256,192,31795,1,0
256,192,31955,5,0
256,192,32114,5,4
368,64,32433,2,2,B|416:64|416:112,1,69.9999952316285,0|2
416,160,32753,2,10,B|416:208|368:208,1,69.9999952316285
304,160,33072,5,0
304,192,33151,1,0
304,224,33231,1,0
208,192,33391,1,4
64,64,33710,6,0,B|64:112|112:112,1,69.9999952316285
176,112,34029,2,10,B|224:96|224:48,1,69.9999952316285
320,96,34348,2,0,B|320:144|272:144,1,69.9999952316285
304,192,34667,1,8
384,192,34827,1,4
400,256,34987,6,0,B|400:304|352:304,1,69.9999952316285
304,304,35306,2,10,B|272:288|256:240,1,69.9999952316285
208,192,35625,2,0,B|160:192,2,34.9999976158143
224,64,35944,2,10,B|272:80|272:128,1,69.9999952316285,10|4
368,128,36263,6,0,B|400:160|368:192,1,69.9999952316285
352,256,36582,2,10,B|320:288|272:256,1,69.9999952316285
208,288,36901,1,0
176,288,36981,1,0
144,288,37061,1,0
96,208,37221,1,8
96,176,37300,1,8
96,144,37380,1,4
96,48,37540,6,0,B|144:32|160:96,1,69.9999952316285
224,80,37859,2,10,B|272:64|272:32,1,69.9999952316285
384,64,38178,1,8
384,96,38258,1,8
384,128,38338,1,8
384,160,38417,1,8
384,192,38497,1,4
400,288,38816,6,0,B|368:336|336:336,1,69.9999952316285
256,320,39136,2,10,B|256:272,2,34.9999976158143
96,288,39455,2,0,B|144:336|176:320,1,69.9999952316285
256,320,39774,2,10,B|256:368|256:352,2,34.9999976158143
192,224,40093,2,2,B|144:176|176:144,1,69.9999952316285
320,224,40412,2,10,B|368:192|352:160,1,69.9999952316285
192,128,40731,6,2,B|160:80|176:48,1,69.9999952316285
320,128,41050,2,10,B|352:96|352:64,1,69.9999952316285
256,48,41370,2,2,B|256:96,8,34.9999976158143
256,192,42327,5,2
144,224,42646,2,0,B|96:272|128:304,1,69.9999952316285
208,352,42965,2,10,B|272:336|288:304,1,69.9999952316285
368,288,43284,1,8
400,288,43364,1,8
432,288,43444,1,8
400,192,43604,1,2
432,80,43923,6,2,B|432:144|384:144,1,69.9999952316285,0|2
404,140,44242,1,10
404,140,44401,1,10
432,256,44561,2,0,B|400:320|368:288,1,69.9999952316285
382,297,44880,1,10
382,297,45040,1,10
256,304,45199,6,0,B|176:272|224:240,1,69.9999952316285
206,261,45519,1,10
206,261,45678,1,10
112,176,45838,2,0,B|64:112|112:96,1,69.9999952316285
90,112,46157,1,10
90,112,46316,1,10
160,48,46476,6,2,B|240:48,1,69.9999952316285
336,48,46795,1,10
416,144,46955,1,10
368,256,47114,6,2,B|304:320,1,69.9999952316285
192,304,47433,1,10
96,224,47593,1,4
256,192,47832,12,0,49428
208,192,49667,5,10
240,192,49747,1,10
272,192,49827,1,10
384,192,49987,6,10,B|448:160|416:128,1,69.9999952316285,10|0
352,48,50306,1,0
224,48,50465,1,0
96,48,50625,2,0,B|32:96|96:112,1,69.9999952316285,10|2
80,208,50944,5,0
80,304,51104,1,0
208,304,51263,2,0,B|304:304,1,69.9999952316285,10|2
352,224,51582,1,0
256,192,51742,1,0
160,128,51901,5,10
176,112,51981,1,10
192,96,52061,1,10
288,32,52221,5,10
320,48,52300,1,10
352,64,52380,1,10
432,128,52540,5,0
432,160,52620,1,0
432,192,52699,1,0
432,224,52779,1,0
432,256,52859,1,4
256,192,53178,12,0,53896
288,192,54455,6,0,B|288:272,1,69.9999952316285,0|10
224,208,54774,2,10,B|224:112,1,69.9999952316285,0|10
352,192,55093,2,0,B|352:272,1,69.9999952316285,0|10
160,208,55412,2,10,B|160:128,1,69.9999952316285,0|10
192,128,55731,6,0,B|272:128,1,69.9999952316285,0|10
320,224,56050,2,10,B|240:224,1,69.9999952316285,0|10
192,64,56370,2,0,B|272:64,1,69.9999952316285,0|10
320,288,56689,2,10,B|224:288,1,69.9999952316285,0|10
256,192,57008,2,0,B|256:144,8,34.9999976158143,2|2|2|2|2|2|2|2|2
256,192,57965,5,10
256,192,58604,1,4
64,64,59561,6,0,B|144:64,1,69.9999952316285,2|0
64,64,59880,1,10
64,64,60040,1,10
160,160,60199,6,0,B|160:256,1,69.9999952316285,0|0
160,160,60519,1,10
160,160,60678,1,10
240,336,60838,6,0,B|320:336,1,69.9999952316285,0|0
240,336,61157,1,10
240,336,61316,1,10
320,272,61476,5,0
176,240,61636,1,10
224,96,61795,1,10
320,160,61955,1,0
288,224,62114,1,10
224,208,62274,1,0
256,144,62433,1,0
320,160,62593,1,10
352,208,62753,6,0,B|352:288,1,69.9999952316285,2|10
352,144,63072,2,10,B|352:64,1,69.9999952316285,0|10
208,144,63391,2,0,B|208:48,1,69.9999952316285,0|10
208,224,63710,2,10,B|208:320,1,69.9999952316285,0|10
64,176,64029,5,0
64,176,64109,1,0
64,176,64189,1,0
64,176,64269,1,0
64,176,64348,1,4
144,176,64667,6,0,B|160:112|208:128,1,69.9999952316285,2|10
185,125,64987,6,10,B|224:96|256:112,1,69.9999952316285,2|10
250,109,65306,6,0,B|304:112|320:144,1,69.9999952316285,2|10
313,134,65625,6,10,B|352:176|320:208,1,69.9999952316285,2|10
328,196,65944,6,0,B|304:256|256:240,1,69.9999952316285,2|10
280,243,66263,6,10,B|224:256|208:224,1,69.9999952316285,2|10
214,233,66582,6,0,B|176:208|176:176,1,69.9999952316285,2|10
256,32,66901,5,2
256,352,67380,1,4
256,80,68497,5,10
256,112,68577,1,10
256,144,68657,1,10
256,224,68816,1,0
256,320,68976,1,10
416,304,69136,2,10,B|352:256|384:240,1,69.9999952316285,10|10
416,304,69455,6,10,B|480:240|448:240,1,69.9999952316285
432,160,69774,2,2,B|432:80,1,69.9999952316285,0|2
336,32,70093,1,0
176,32,70253,5,0
64,64,70412,2,10,B|16:128|48:128,1,69.9999952316285
64,64,70731,6,10,B|128:144|64:128,1,69.9999952316285,10|10
64,224,71050,2,0,B|64:304,1,69.9999952316285
176,336,71370,1,0
336,336,71529,5,0
448,304,71689,2,10,B|448:224,1,69.9999952316285
448,64,72008,2,10,B|448:144,1,69.9999952316285
416,192,72327,1,0
320,192,72487,5,10
256,192,72646,1,0
192,192,72806,1,10
48,192,72965,2,0,B|144:192,1,69.9999952316285
192,192,73284,5,0
304,80,73444,1,10
416,192,73604,1,10
304,304,73763,1,4
160,304,74082,1,0
128,304,74162,1,0
96,304,74242,1,0
32,304,74401,1,10
96,192,74561,5,10
96,192,74721,2,2,B|96:112,1,69.9999952316285,2|0
96,122,75040,1,10
192,48,75199,1,10
192,48,75359,2,2,B|288:48,1,69.9999952316285,2|0
262,48,75678,1,10
368,128,75838,5,10
368,128,75997,2,2,B|368:224,1,69.9999952316285,2|0
368,198,76316,1,10
272,272,76476,1,10
272,272,76636,2,0,B|176:272,1,69.9999952316285
202,272,76955,1,10
96,272,77114,5,0
48,176,77274,1,10
112,112,77433,1,0
48,32,77593,1,10
208,48,77753,6,2,B|272:112,3,69.9999952316285,0|10|0|10
208,160,78391,2,2,B|272:224,3,69.9999952316285,0|10|0|10
208,272,79029,2,2,B|272:336,3,69.9999952316285,0|10|0|10
384,320,79667,1,0
416,320,79747,1,0
448,320,79827,1,0
416,224,79987,1,10
416,144,80146,5,10
448,48,80306,1,0
416,48,80386,1,0
384,48,80465,1,0
288,48,80625,1,10
192,48,80784,5,10
96,48,80944,1,0
64,48,81024,1,0
32,48,81104,1,0
64,144,81263,1,10
64,224,81423,5,10
128,288,81582,1,0
144,256,81662,1,0
160,224,81742,1,0
176,192,81822,1,0
192,160,81901,2,10,B|224:112,3,34.9999976158143
240,160,82221,1,0
256,192,82300,1,0
272,224,82380,1,0
288,256,82460,1,0
304,288,82540,2,10,B|320:320,3,34.9999976158143
352,288,82859,1,0
368,256,82939,1,0
384,224,83019,1,0
400,192,83098,1,0
416,160,83178,2,10,B|432:128,4,34.9999976158143
240,128,83737,5,0
240,128,83896,1,0
240,128,84056,1,4
112,96,84375,1,0
112,96,84534,1,0
112,96,84694,1,10
224,80,84854,6,0,B|288:48|304:80,1,69.9999952316285,0|10
290,66,85173,1,10
290,66,85332,1,10
384,80,85492,2,0,B|480:112|432:128,1,69.9999952316285,0|10
446,110,85811,1,10
446,110,85971,1,10
416,224,86130,2,0,B|464:256,2,34.9999976158143,0|10|0
320,272,86449,2,0,B|320:320,2,34.9999976158143,0|10|4
208,272,86928,6,0,B|128:272,1,69.9999952316285,0|10
48,224,87247,2,0,B|48:144,1,69.9999952316285,0|10
112,64,87566,2,0,B|192:64,1,69.9999952316285,0|10
288,128,87886,2,2,B|288:224,1,69.9999952316285,0|10
400,192,88205,2,0,B|448:224,4,34.9999976158143,0|10|0|10|0
400,96,88683,1,0
400,96,89003,1,8
400,96,89322,1,10
400,96,89641,1,10
160,64,89960,5,0
80,224,90120,1,10
256,272,90279,1,10
272,144,90439,1,10
192,128,90598,1,0
144,192,90758,1,10
224,208,90917,1,10
272,144,91077,1,10
352,112,91237,6,0,B|416:80,2,69.9999952316285,0|0|10
368,192,91715,2,10,B|240:288,1,139.999990463257,10|10
128,240,92194,1,0
32,112,92354,1,10
176,32,92513,1,0
272,176,92673,1,10
128,240,92832,2,10,B|128:336,2,69.9999952316285
144,176,93311,5,0
96,128,93471,1,10
160,96,93630,1,0
208,144,93790,2,10,B|288:192,1,69.9999952316285,10|0
268,180,94109,1,10
320,224,94269,1,4
320,288,94588,6,0,B|256:304|224:288,1,69.9999952316285,0|10
250,295,94907,1,10
128,224,95066,1,10
128,80,95226,2,8,B|208:64|208:96,1,69.9999952316285,0|10
197,78,95545,1,10
336,80,95864,5,10
432,176,96024,1,10
336,272,96183,1,10
304,176,96343,2,0,B|224:176,1,69.9999952316285,0|10
234,176,96662,1,10
234,176,96822,1,10
128,288,97141,5,10
32,176,97300,1,0
128,64,97460,1,10
224,112,97620,2,2,B|320:64|432:112,1,209.999985694886,0|10
432,176,98258,2,2,B|320:224|224:176,1,209.999985694886
224,176,99375,5,0
128,256,99534,1,10
48,160,99694,1,10
144,80,99854,1,10
272,80,100013,2,0,B|352:80,1,69.9999952316285,0|10
448,80,100332,2,10,B|448:176,1,69.9999952316285
448,240,100651,1,10
448,272,100731,1,10
448,304,100811,1,10
352,272,100971,2,10,B|272:272,1,69.9999952316285
192,272,101290,6,0,B|112:272,1,69.9999952316285,0|10
32,240,101609,2,10,B|32:160,1,69.9999952316285
48,80,101928,2,0,B|16:48,2,34.9999976158143,0|10|0
48,80,102247,1,10
224,96,102566,6,0,B|224:48,2,34.9999976158143,0|10|0
416,80,102886,2,10,B|416:176,1,69.9999952316285,0|10
416,256,103205,2,10,B|336:256,1,69.9999952316285,0|10
192,256,103524,2,10,B|192:176,1,69.9999952316285,0|10
288,208,103843,2,0,B|288:128,1,69.9999952316285,0|10
288,48,104162,5,10
416,272,104322,1,10
192,272,104481,1,4
288,160,104800,5,10
288,160,104960,1,10
288,160,105120,1,10
208,64,105279,1,0
112,192,105439,1,10
256,272,105598,1,10
288,160,105758,5,0
224,128,105917,1,0
176,176,106077,1,10
240,208,106237,1,10
288,160,106396,2,0,B|368:160,1,69.9999952316285,10|10
432,160,106715,1,2
432,160,106875,2,0,B|480:160,2,34.9999976158143,10|10|4
320,160,107354,5,0
288,160,107433,1,0
256,160,107513,1,0
160,160,107673,1,10
144,80,107832,2,2,B|256:48|352:80,1,209.999985694886
352,240,108471,2,2,B|240:272|144:240,1,209.999985694886
48,176,109109,1,10
256,32,109428,1,10
464,176,109747,1,10
256,336,110066,1,10
256,176,110386,5,0
176,256,110545,1,10
96,176,110705,1,10
176,96,110864,1,10
256,176,111024,5,0
336,256,111183,1,10
416,176,111343,1,10
336,96,111503,1,4
256,96,111662,2,0,B|256:48,7,34.9999976158143
256,176,112540,5,10
128,240,112939,2,0,B|96:160|128:160,1,78.7499922886494
116,164,113417,2,0,B|144:96|176:80,1,104.999989718199,10|0
176,79,114082,2,0,B|256:48|304:80,1,131.249987147749,10|0
303,79,114774,2,0,B|352:128|368:176,1,104.999989718199,10|0
256,192,115412,5,4
