osu file format v5

[General]
AudioFilename: 02_falco_-_vienna_calling.mp3
AudioLeadIn: 0
PreviewTime: -1
Countdown: 1
SampleSet: Normal
StackLeniency: 0.7
Mode: 0

[Metadata]
Title:VIENNA CALLING
Artist:Falco
Creator:Potestas
Version:Normal

[Difficulty]
HPDrainRate:5
CircleSize:5
OverallDifficulty:5
SliderMultiplier:1.4
SliderTickRate:1

[Events]
//Background and Video events
//Break Periods
2,151039,153686
//Storyboard Layer 0 (Background)
//Storyboard Layer 1 (Failing)
//Storyboard Layer 2 (Passing)
//Storyboard Layer 3 (Foreground)
//Storyboard Sound Samples
//Background Colour Transformations
3,100,163,162,255

[TimingPoints]
1820,458.05296457698,4,1,0,100

[HitObjects]
160,96,47777,1,0
288,96,48312,1,0
384,96,49228,1,0
352,160,50144,1,0
352,192,50297,1,0
352,256,50755,1,0
224,32,51671,5,0
224,256,52587,1,0
416,160,53427,1,0
192,160,54343,1,0
96,64,55030,5,0
96,128,55259,1,0
96,160,55488,1,0
160,96,55870,1,0
160,128,56328,1,0
224,96,56786,1,0
448,64,57702,6,4,B|352:192,1,140
192,128,58618,6,0,B|256:160,3,70
352,160,59916,2,0,B|288:224,1,70
160,128,60832,1,0
32,192,61977,5,0
96,192,62435,1,0
192,192,63046,1,0
256,192,63275,1,0
320,192,63504,1,0
256,32,64878,5,0
256,96,65031,1,0
256,128,65260,1,0
256,192,65489,1,0
256,256,65947,1,0
416,224,66634,5,0
416,192,66863,1,0
416,128,67016,1,0
416,96,67245,1,0
416,64,67474,1,0
416,32,67703,1,0
384,32,67932,1,0
416,256,68619,1,0
96,128,69077,5,0
128,192,69535,1,0
160,64,70222,1,0
192,96,70451,1,0
224,128,70680,1,0
448,64,71978,5,0
416,96,72207,1,0
384,128,72436,1,0
448,128,72665,1,0
416,160,73123,1,0
288,320,73810,1,0
288,288,74039,1,0
288,256,74192,1,0
352,256,74650,1,0
352,288,75184,1,0
352,320,75566,1,0
64,192,76253,5,0
96,192,76711,1,0
128,192,77169,1,0
160,192,77551,1,0
192,192,78009,1,0
224,192,78467,1,0
320,192,78925,5,0
320,192,79154,1,0
320,192,79383,1,0
128,128,79689,6,0,B|512:352,1,420
96,192,81597,5,0
160,192,82055,1,0
192,192,82284,1,0
256,192,82437,1,0
384,192,82895,1,0
320,96,83353,5,0
256,96,84040,1,0
160,96,84956,1,0
160,160,85872,1,0
160,192,86101,1,0
160,256,86559,1,0
448,96,87017,5,0
448,160,87704,1,0
448,192,88544,1,0
384,192,89460,1,0
352,192,89613,1,0
288,192,90071,1,0
96,96,90529,5,0
128,96,90758,1,0
160,96,90987,1,0
448,96,92285,5,0
416,96,92514,1,0
352,96,92743,1,0
128,192,94117,5,0
160,224,94346,1,0
192,256,94499,1,0
160,160,95033,1,0
192,192,95262,1,0
224,224,95415,1,0
192,128,95720,6,4,B|320:256|128:320|128:352|96:128|128:64,1,420
64,96,97553,6,0,B|352:128,1,280
256,160,98850,1,0
320,192,99232,1,0
352,160,99461,1,0
384,192,99690,1,0
416,160,99919,1,0
384,96,100148,1,0
288,128,100606,1,0
256,128,100835,1,0
416,64,101217,5,0
416,96,101675,1,0
416,128,102133,1,0
416,160,102591,1,0
416,192,103126,1,0
416,224,103507,1,0
416,256,103965,1,0
416,288,104347,1,0
96,128,104881,5,0
128,128,105263,1,0
160,128,105492,1,0
192,128,105721,1,0
320,128,106637,1,0
352,128,106866,1,0
96,192,108469,5,2
128,192,108851,1,2
128,160,109080,1,2
128,128,109309,1,2
192,128,109615,1,2
192,192,109767,1,2
192,160,109996,1,2
256,160,110225,1,2
256,96,111981,5,0
256,128,112439,1,0
256,192,113126,1,0
288,192,113355,1,0
224,192,113584,1,0
128,96,114882,1,0
192,96,115111,1,0
224,96,115340,1,0
256,96,115569,1,0
256,128,115951,1,0
96,320,116714,5,2
96,288,116867,1,2
96,256,117096,1,2
96,224,117325,1,2
96,192,117554,1,2
96,160,117783,1,2
96,128,118012,1,2
96,64,118699,1,2
352,160,119157,5,0
320,192,119539,1,0
384,128,120226,1,0
416,160,120455,1,0
352,96,120684,1,0
256,192,122058,5,0
256,192,122287,1,0
256,160,122440,1,0
256,128,122669,1,0
384,128,123127,1,0
128,160,124349,5,0
96,192,124807,2,0,B|256:192,1,140
320,128,126334,5,0
320,192,126792,1,0
320,256,127173,1,0
352,256,127402,1,0
416,256,127631,1,0
416,224,127860,1,0
416,160,128089,1,0
416,128,128242,1,0
416,32,128700,1,0
64,320,130074,5,0
96,320,130303,1,0
128,320,130532,1,0
160,320,130685,1,0
192,320,130914,1,0
224,320,131143,1,0
256,320,131372,1,0
288,256,131601,5,4
288,256,131830,5,4
288,256,132059,5,4
128,128,132746,5,0
160,160,132975,1,0
192,192,133204,1,0
192,256,133510,2,0,B|320:160,1,140
320,256,134960,5,0
256,256,135418,1,0
192,256,135876,1,0
96,96,136334,5,0
160,128,136563,1,0
192,160,136716,1,0
128,192,136945,2,4,B|352:192,1,210
256,160,138625,5,4
320,160,139006,1,4
320,224,139464,1,4
32,192,140610,5,0
64,192,140839,1,0
96,192,140991,1,0
128,192,141220,1,0
512,192,142365,5,0
480,192,142594,1,0
448,192,142747,1,0
416,192,142976,1,0
416,160,143205,1,0
448,160,143434,1,0
480,160,143663,1,0
256,192,144121,5,0
256,160,145037,5,0
256,128,145877,5,0
256,96,146793,5,0
64,192,147709,5,0
64,192,147938,1,0
64,192,148167,1,0
96,192,148625,1,0
96,192,148855,1,0
96,192,149084,1,0
128,192,149542,1,0
128,192,149694,1,0
128,192,149923,1,0
160,192,150381,5,0
160,192,150610,1,0
160,192,150839,1,0
128,224,154886,5,0
192,224,155573,1,0
256,224,156412,1,0
320,224,157328,1,0
320,256,157558,1,0
320,288,158016,1,0
128,288,158474,5,0
128,256,159084,1,0
128,224,160000,1,0
128,192,160917,1,0
224,192,161146,1,0
320,192,161527,1,0
288,96,161985,5,0
288,128,162749,1,0
288,160,163589,1,0
192,128,164581,2,0,B|384:128,1,186.666666666667
416,128,165573,5,0
288,128,166261,1,0
288,256,167177,1,0
416,256,168016,1,0
416,256,168245,1,0
416,160,168703,1,0
64,64,169162,5,0
128,64,169620,1,0
160,64,169849,1,0
256,64,170078,1,0
352,64,170459,1,0
416,64,170765,1,0
448,64,170994,1,0
448,128,171146,1,0
384,256,171604,5,0
256,224,172063,5,0
96,224,172521,5,0
64,96,172750,5,0
128,96,173208,1,0
160,96,173437,1,0
192,96,173589,1,0
160,64,174047,2,0,B|160:288,1,210
352,256,176261,5,0
256,256,176719,1,0
288,352,177406,5,0
288,288,177635,1,0
288,256,177865,1,0
32,192,179239,5,0
64,192,179468,1,0
96,192,179620,1,0
160,192,179849,1,0
224,192,180307,1,0
128,96,181071,5,2
160,96,181224,1,2
192,96,181453,1,2
224,96,181682,1,2
256,96,181834,1,2
288,96,182140,1,2
352,128,182369,1,2
288,192,182979,5,0
96,160,183438,5,0
128,160,183896,1,0
160,192,184659,5,0
160,160,184812,1,0
160,96,185041,1,0
32,160,186339,5,0
64,160,186568,1,0
96,160,186797,1,0
160,160,187026,1,0
224,192,187484,1,0
192,128,188629,5,0
288,128,189087,1,0
224,192,189469,1,0
224,320,190614,5,0
224,256,191072,5,0
224,192,191530,5,0
224,128,191988,5,0
256,96,192370,5,0
288,128,192828,5,0
288,192,193286,5,0
288,256,193744,5,0
128,224,194202,5,0
192,224,195118,1,0
224,224,195347,1,0
288,224,195500,1,0
352,224,195729,1,0
416,128,195958,5,0
416,128,196187,1,0
416,128,196416,1,0
256,128,197103,5,0
256,160,197332,1,0
256,192,197561,1,0
256,256,197790,1,0
256,320,198172,1,0
128,224,198859,5,0
160,224,199317,5,0
192,224,199775,5,0
224,224,200233,5,0
352,128,200691,5,0
352,160,200920,1,0
352,224,201073,1,0
352,256,201302,1,0
352,320,201760,1,0
256,224,202218,5,0
256,224,202676,1,0
256,224,203134,5,0
256,224,203592,5,0
256,224,204050,5,0
288,192,204432,5,0
160,160,204890,5,0
256,192,205958,12,0,209852
