osu file format v14

[General]
AudioFilename: UNOWEN.mp3
AudioLeadIn: 0
PreviewTime: 148605
Countdown: 0
SampleSet: Soft
StackLeniency: 0.7
Mode: 0
LetterboxInBreaks: 0
WidescreenStoryboard: 1

[Editor]
Bookmarks: 52125,53775,56925,101325,102600,106200,148800
DistanceSpacing: 0.5
BeatDivisor: 4
GridSize: 8
TimelineZoom: 2.400001

[Metadata]
Title:~UN~Double difficulty
TitleUnicode:~UN~Double difficulty
Artist:Faeries Aire and Death Waltz
ArtistUnicode:Faerieā€™s Aire and Death Waltz
Creator:09kami
Version:EX
Source:
Tags:piano unowen N.Hime
BeatmapID:686358
BeatmapSetID:209397

[Difficulty]
HPDrainRate:6
CircleSize:4
OverallDifficulty:8
ApproachRate:9.5
SliderMultiplier:1.7
SliderTickRate:1

[Events]
//Background and Video events
0,0,"46217494_p0.jpg",0,0
//Break Periods
//Storyboard Layer 0 (Background)
//Storyboard Layer 1 (Fail)
//Storyboard Layer 2 (Pass)
//Storyboard Layer 3 (Foreground)
//Storyboard Sound Samples

[TimingPoints]
71,302.28527669179,4,2,0,50,1,0
2489,-50,4,2,0,50,0,0
3698,-100,4,2,0,50,0,0
42390,-80,4,2,0,50,0,0
46774,-100,4,2,0,50,0,0
47227,-80,4,2,0,50,0,0
53122,-100,4,2,0,50,0,0
53424,-80,4,2,0,50,0,0
56447,-100,4,2,0,50,0,0
56749,-80,4,2,0,50,0,0
60830,-66.6666666666667,4,2,0,50,0,0
61132,-50,4,2,0,50,0,0
61586,-80,4,2,0,50,0,0
81083,-80,4,2,0,50,0,0
100429,-80,4,2,0,50,0,0
104661,-100,4,2,0,50,0,0
105266,-80,4,2,0,50,0,0
118566,-80,4,2,0,50,0,1
139084,302.28527669179,4,2,0,50,1,0
169463,-80,4,2,0,50,0,0
177625,-80,4,2,0,50,0,1
198331,-80,4,2,0,50,0,0
200750,-80,4,2,0,35,0,0
203168,-80,4,2,0,15,0,0
205586,-80,4,2,0,10,0,0
206493,-80,4,2,0,5,0,0

[HitObjects]
56,12,1280,5,0,0:0:0:0:
52,52,1355,1,0,0:0:0:0:
88,76,1431,1,0,0:0:0:0:
104,116,1506,1,0,0:0:0:0:
136,144,1582,1,0,0:0:0:0:
136,188,1657,1,0,0:0:0:0:
168,216,1733,1,0,0:0:0:0:
188,256,1809,1,0,0:0:0:0:
232,252,1884,1,0,0:0:0:0:
276,248,1960,1,0,0:0:0:0:
316,232,2035,1,0,0:0:0:0:
352,212,2111,1,0,0:0:0:0:
388,188,2186,1,0,0:0:0:0:
416,156,2262,1,0,0:0:0:0:
440,120,2338,1,0,0:0:0:0:
460,84,2413,1,0,0:0:0:0:
456,52,2489,6,0,L|255:209,1,255
274,143,2791,2,0,L|359:383,1,255
292,364,3093,6,0,L|490:203,1,255
472,272,3396,2,0,L|388:20,1,255
480,184,3698,2,0,L|448:224,1,42.5
428,224,3849,1,0,0:0:0:0:
396,228,3925,1,0,0:0:0:0:
364,232,4000,1,0,0:0:0:0:
332,236,4076,1,0,0:0:0:0:
300,240,4151,1,0,0:0:0:0:
268,244,4227,1,0,0:0:0:0:
236,248,4302,1,0,0:0:0:0:
204,252,4378,1,0,0:0:0:0:
172,256,4454,1,0,0:0:0:0:
140,260,4529,1,0,0:0:0:0:
104,264,4605,2,0,L|64:236,3,42.5
80,188,4907,2,0,L|120:172,3,42.5
160,136,5209,2,0,L|204:124,2,42.5
240,48,5436,1,0,0:0:0:0:
284,60,5512,1,0,0:0:0:0:
320,96,5587,1,0,0:0:0:0:
340,144,5663,1,0,0:0:0:0:
348,196,5738,1,0,0:0:0:0:
344,248,5814,1,0,0:0:0:0:
316,292,5889,1,0,0:0:0:0:
288,320,5965,1,0,0:0:0:0:
152,352,6116,6,0,L|208:352,2,42.5
80,248,6343,1,0,0:0:0:0:
76,248,6418,2,0,L|20:248,2,42.5
188,188,6645,1,0,0:0:0:0:
188,188,6721,2,0,L|244:188,2,42.5
104,96,6947,1,0,0:0:0:0:
100,96,7023,2,0,L|60:52,2,42.5
228,80,7250,1,0,0:0:0:0:
228,80,7325,2,0,L|268:52,2,42.5
336,136,7552,1,0,0:0:0:0:
336,144,7628,2,0,L|360:188,2,42.5
444,72,7854,1,0,0:0:0:0:
444,72,7930,2,0,L|480:48,2,42.5
448,136,8157,2,0,L|448:192,1,42.5
416,224,8308,2,0,L|372:256,1,42.5
76,312,8534,5,0,0:0:0:0:
84,280,8610,1,0,0:0:0:0:
100,252,8686,1,0,0:0:0:0:
120,224,8761,1,0,0:0:0:0:
144,200,8837,1,0,0:0:0:0:
172,180,8912,1,0,0:0:0:0:
204,168,8988,1,0,0:0:0:0:
236,164,9063,1,0,0:0:0:0:
260,188,9139,1,0,0:0:0:0:
248,220,9215,1,0,0:0:0:0:
252,252,9290,1,0,0:0:0:0:
272,280,9366,1,0,0:0:0:0:
300,296,9441,1,0,0:0:0:0:
336,300,9517,1,0,0:0:0:0:
368,292,9592,1,0,0:0:0:0:
396,272,9668,1,0,0:0:0:0:
416,244,9744,2,0,L|400:200,1,42.5
412,180,9895,2,0,L|368:152,1,42.5
376,120,10046,2,0,L|320:112,1,42.5
320,80,10197,2,0,L|272:88,1,42.5
248,80,10348,1,0,0:0:0:0:
220,64,10424,1,0,0:0:0:0:
188,56,10499,1,0,0:0:0:0:
156,72,10575,1,0,0:0:0:0:
140,104,10650,1,0,0:0:0:0:
148,136,10726,1,0,0:0:0:0:
172,160,10802,1,0,0:0:0:0:
404,340,10953,5,0,0:0:0:0:
372,340,11028,1,0,0:0:0:0:
336,340,11104,1,0,0:0:0:0:
304,332,11179,1,0,0:0:0:0:
280,308,11255,1,0,0:0:0:0:
264,276,11331,1,0,0:0:0:0:
236,260,11406,1,0,0:0:0:0:
208,244,11482,1,0,0:0:0:0:
176,240,11557,1,0,0:0:0:0:
144,244,11633,1,0,0:0:0:0:
112,232,11708,1,0,0:0:0:0:
84,212,11784,1,0,0:0:0:0:
80,180,11860,1,0,0:0:0:0:
84,148,11935,1,0,0:0:0:0:
100,120,12011,1,0,0:0:0:0:
116,92,12086,1,0,0:0:0:0:
152,80,12162,2,0,L|200:64,1,42.5
224,80,12313,2,0,L|272:64,1,42.5
296,80,12464,2,0,L|336:64,1,42.5
360,88,12615,2,0,L|400:72,1,42.5
432,64,12766,1,0,0:0:0:0:
464,76,12842,1,0,0:0:0:0:
484,104,12918,1,0,0:0:0:0:
484,136,12993,1,0,0:0:0:0:
476,168,13069,1,0,0:0:0:0:
452,192,13144,1,0,0:0:0:0:
420,200,13220,1,0,0:0:0:0:
104,264,13371,5,0,0:0:0:0:
268,304,13522,2,0,L|228:276,2,42.5
336,148,13824,2,0,L|296:164,2,42.5
92,120,14127,2,0,L|44:104,2,42.5
252,64,14429,1,0,0:0:0:0:
192,224,14580,2,0,P|172:276|196:308,1,85
320,200,14882,2,0,P|340:148|316:116,1,85
292,88,15109,1,0,0:0:0:0:
252,72,15185,1,0,0:0:0:0:
152,112,15336,6,0,L|152:180,2,42.5
268,300,15638,2,0,L|268:232,2,42.5
412,168,15940,2,0,L|412:216,2,42.5
252,224,16243,1,0,0:0:0:0:
440,72,16394,2,0,L|364:116,2,85
412,144,16772,2,0,L|416:188,1,42.5
296,160,16998,1,0,0:0:0:0:
144,80,17150,2,0,L|184:108,2,42.5
148,248,17452,1,0,0:0:0:0:
156,240,17527,1,0,0:0:0:0:
164,232,17603,1,0,0:0:0:0:
292,120,17754,2,0,L|356:64,1,85
355,64,18056,1,0,0:0:0:0:
420,220,18208,5,0,0:0:0:0:
276,308,18359,1,0,0:0:0:0:
244,316,18434,1,0,0:0:0:0:
212,324,18510,1,0,0:0:0:0:
272,200,18661,1,0,0:0:0:0:
208,92,18812,1,0,0:0:0:0:
88,76,18963,1,0,0:0:0:0:
96,108,19039,1,0,0:0:0:0:
104,140,19114,1,0,0:0:0:0:
56,264,19266,1,0,0:0:0:0:
360,84,19417,2,0,L|280:124,1,85
440,152,19719,5,0,0:0:0:0:
128,216,19870,1,0,0:0:0:0:
160,228,19946,1,0,0:0:0:0:
192,240,20021,1,0,0:0:0:0:
400,276,20172,2,0,L|408:228,1,42.5
348,180,20324,1,0,0:0:0:0:
200,40,20475,2,0,L|208:88,1,42.5
276,112,20626,1,0,0:0:0:0:
388,64,20777,2,0,L|436:40,2,42.5
200,148,21079,2,0,L|152:172,2,42.5
432,204,21382,1,0,0:0:0:0:
296,328,21533,6,0,L|348:328,2,42.5
48,204,21835,2,0,L|116:268,1,85
312,216,22137,2,0,L|380:280,1,85
373,274,22364,1,0,0:0:0:0:
373,274,22440,1,0,0:0:0:0:
128,320,22591,2,0,L|224:304,2,85
52,40,23044,6,0,L|124:100,1,85
460,40,23346,2,0,L|388:100,1,85
460,344,23649,2,0,L|388:284,1,85
52,344,23951,2,0,L|124:284,2,85
394,289,24404,6,0,L|460:344,1,85
394,94,24707,2,0,L|460:40,1,85
117,94,25009,2,0,L|52:40,1,85
184,148,25311,1,0,0:0:0:0:
256,296,25462,5,0,0:0:0:0:
256,88,25614,1,0,0:0:0:0:
196,272,25765,1,0,0:0:0:0:
316,112,25916,1,0,0:0:0:0:
156,224,26067,1,0,0:0:0:0:
356,160,26218,1,0,0:0:0:0:
164,164,26369,1,0,0:0:0:0:
348,220,26520,1,0,0:0:0:0:
108,184,26672,5,0,0:0:0:0:
404,200,26823,1,0,0:0:0:0:
96,244,26974,1,0,0:0:0:0:
416,140,27125,1,0,0:0:0:0:
136,288,27276,1,0,0:0:0:0:
376,96,27427,1,0,0:0:0:0:
196,304,27578,1,0,0:0:0:0:
316,80,27730,1,0,0:0:0:0:
240,160,27881,5,0,0:0:0:0:
280,264,28032,2,0,L|364:324,1,85
440,248,28334,1,0,0:0:0:0:
204,52,28485,1,0,0:0:0:0:
136,152,28636,2,0,L|60:196,1,85
104,296,28939,1,0,0:0:0:0:
272,360,29090,2,0,L|368:328,1,85
468,328,29392,1,0,0:0:0:0:
232,288,29543,2,0,L|328:256,1,85
428,256,29846,1,0,0:0:0:0:
184,216,29997,2,0,L|280:184,1,85
64,52,30299,5,0,0:0:0:0:
144,184,30450,1,0,0:0:0:0:
448,332,30601,1,0,0:0:0:0:
368,200,30752,1,0,0:0:0:0:
64,52,30904,5,0,0:0:0:0:
216,128,31055,1,0,0:0:0:0:
448,332,31206,1,0,0:0:0:0:
296,256,31357,1,0,0:0:0:0:
64,52,31508,5,0,0:0:0:0:
292,80,31659,1,0,0:0:0:0:
448,332,31810,1,0,0:0:0:0:
220,304,31962,1,0,0:0:0:0:
64,52,32113,5,0,0:0:0:0:
152,352,32264,1,0,0:0:0:0:
448,332,32415,1,0,0:0:0:0:
360,32,32566,1,0,0:0:0:0:
128,200,32717,6,0,L|176:224,2,42.5
120,136,32944,1,0,0:0:0:0:
156,92,33020,2,0,L|204:76,1,42.5
220,120,33171,2,0,L|272:140,1,42.5
248,184,33322,2,0,L|288:220,1,42.5
232,248,33473,2,0,L|244:292,1,42.5
192,304,33624,2,0,L|180:360,2,42.5
104,76,33926,1,0,0:0:0:0:
120,136,34002,1,0,0:0:0:0:
136,200,34078,1,0,0:0:0:0:
316,280,34229,2,0,L|356:293,1,42.5
379,251,34380,2,0,L|418:235,1,42.5
407,187,34531,2,0,L|438:158,1,42.5
392,123,34682,2,0,L|403:81,1,42.5
352,67,34833,2,0,L|343:25,2,42.5
56,88,35136,5,0,0:0:0:0:
220,132,35287,1,0,0:0:0:0:
52,160,35438,1,0,0:0:0:0:
220,140,35589,1,0,0:0:0:0:
76,232,35740,1,0,0:0:0:0:
224,148,35891,1,0,0:0:0:0:
128,288,36042,1,0,0:0:0:0:
232,152,36194,1,0,0:0:0:0:
196,320,36345,1,0,0:0:0:0:
240,156,36496,1,0,0:0:0:0:
268,324,36647,1,0,0:0:0:0:
248,156,36798,1,0,0:0:0:0:
336,300,36949,1,0,0:0:0:0:
256,152,37100,1,0,0:0:0:0:
392,256,37252,1,0,0:0:0:0:
260,148,37403,1,0,0:0:0:0:
368,36,37554,6,0,P|432:80|436:92,1,85
328,184,37856,2,0,P|336:204|324:228,1,42.5
240,252,38007,2,0,P|236:268|208:284,1,42.5
120,296,38158,1,0,0:0:0:0:
160,128,38310,1,0,0:0:0:0:
312,104,38461,2,0,L|360:112,1,42.5
388,136,38612,1,0,0:0:0:0:
416,168,38687,1,0,0:0:0:0:
444,200,38763,2,0,B|468:264|468:264|464:284,1,85
380,288,39065,2,0,P|368:308|336:316,1,42.5
308,308,39216,2,0,P|280:320|252:312,1,42.5
232,300,39368,1,0,0:0:0:0:
144,252,39519,1,0,0:0:0:0:
64,176,39670,6,0,L|120:164,1,42.5
112,112,39821,2,0,L|156:84,1,42.5
164,40,39972,1,0,0:0:0:0:
192,36,40048,1,0,0:0:0:0:
220,40,40123,1,0,0:0:0:0:
248,52,40199,1,0,0:0:0:0:
272,68,40274,1,0,0:0:0:0:
296,88,40350,1,0,0:0:0:0:
324,100,40426,1,0,0:0:0:0:
352,100,40501,1,0,0:0:0:0:
380,104,40577,1,0,0:0:0:0:
404,120,40652,1,0,0:0:0:0:
420,144,40728,1,0,0:0:0:0:
448,156,40803,1,0,0:0:0:0:
468,176,40879,1,0,0:0:0:0:
484,200,40955,1,0,0:0:0:0:
500,224,41030,2,0,L|444:232,1,42.5
432,216,41181,2,0,L|376:216,1,42.5
368,196,41332,2,0,L|320:196,1,42.5
304,176,41484,2,0,L|256:176,1,42.5
244,152,41635,2,0,L|192:152,1,42.5
180,128,41786,1,0,0:0:0:0:
136,132,41861,1,0,0:0:0:0:
104,160,41937,1,0,0:0:0:0:
80,196,42013,1,0,0:0:0:0:
68,236,42088,1,0,0:0:0:0:
64,280,42164,1,0,0:0:0:0:
80,320,42239,1,0,0:0:0:0:
108,352,42315,1,0,0:0:0:0:
144,372,42390,6,0,L|204:348,1,53.125
240,284,42542,2,0,L|296:320,1,53.125
360,352,42693,1,0,0:0:0:0:
168,240,42844,1,0,0:0:0:0:
400,260,42995,2,0,L|448:160,1,106.25
376,36,43222,2,0,L|408:88,1,53.125
476,192,43448,1,0,0:0:0:0:
284,108,43600,1,0,0:0:0:0:
80,92,43751,2,0,L|136:124,1,53.125
108,160,43902,2,0,L|168:140,2,53.125
336,176,44204,6,0,L|280:208,1,53.125
308,244,44355,2,0,L|248:224,1,53.125
244,280,44506,2,0,L|232:220,1,53.125
180,248,44658,2,0,L|224:204,2,53.125
48,328,44960,5,0,0:0:0:0:
100,324,45035,1,0,0:0:0:0:
152,320,45111,1,0,0:0:0:0:
480,280,45262,2,0,L|372:232,1,106.25
264,184,45564,1,0,0:0:0:0:
216,160,45640,1,0,0:0:0:0:
168,136,45716,1,0,0:0:0:0:
332,64,45867,2,0,L|272:88,1,53.125
212,68,46018,2,0,L|109:38,1,106.25
300,316,46320,2,0,L|402:345,1,106.25
180,320,46622,1,0,0:0:0:0:
72,88,46774,6,0,L|72:272,1,170,2|0,0:0|0:0,0:0:0:0:
440,124,47227,2,0,L|372:140,1,53.125
276,168,47378,2,0,L|328:180,1,53.125
412,208,47529,1,0,0:0:0:0:
176,240,47680,1,0,0:0:0:0:
204,68,47832,2,0,B|292:80|292:80|268:104,1,106.25
208,144,48058,2,0,L|158:164,1,53.125
8,256,48285,2,0,P|72:284|116:284,1,106.25
236,320,48587,2,0,L|292:296,1,53.125
352,224,48738,2,0,L|372:280,1,53.125
356,352,48890,1,0,0:0:0:0:
413,138,49041,2,0,L|357:114,1,53.125
297,42,49192,2,0,L|277:98,1,53.125
260,172,49343,2,0,L|277:222,1,53.125
192,247,49494,2,0,L|144:268,1,53.125
80,328,49645,1,0,0:0:0:0:
452,268,49796,6,0,L|428:204,2,53.125
168,96,50099,1,0,0:0:0:0:
344,288,50250,1,0,0:0:0:0:
72,136,50401,1,0,0:0:0:0:
104,168,50477,1,0,0:0:0:0:
136,192,50552,1,0,0:0:0:0:
480,136,50703,2,0,L|428:168,1,53.125
400,180,50854,1,0,0:0:0:0:
368,200,50930,1,0,0:0:0:0:
336,220,51006,1,0,0:0:0:0:
308,240,51081,1,0,0:0:0:0:
276,260,51157,1,0,0:0:0:0:
108,356,51308,1,0,0:0:0:0:
200,96,51459,6,0,L|144:120,1,53.125
72,168,51610,2,0,L|112:224,1,53.125
192,224,51761,2,0,L|192:280,2,53.125
384,48,52064,6,0,B|304:56|304:56|324:80,1,106.25
468,184,52366,1,0,0:0:0:0:
128,336,52668,2,0,B|208:328|208:328|188:304,1,106.25
44,200,52970,1,0,0:0:0:0:
112,112,53122,2,0,B|176:96|192:136,1,85
236,192,53424,2,0,L|320:112,1,106.25
236,328,53726,2,0,L|159:254,1,106.25
100,60,54028,1,0,0:0:0:0:
424,320,54180,2,0,L|336:248,1,106.25
96,304,54482,5,0,0:0:0:0:
264,264,54633,1,0,0:0:0:0:
444,132,54784,1,0,0:0:0:0:
288,192,54935,1,0,0:0:0:0:
88,132,55086,1,0,0:0:0:0:
336,252,55238,1,0,0:0:0:0:
364,276,55313,1,0,0:0:0:0:
396,300,55389,1,0,0:0:0:0:
208,200,55540,1,0,0:0:0:0:
320,96,55691,2,0,P|244:68|208:68,1,106.25
192,288,55993,2,0,P|268:316|304:316,1,106.25
424,252,56296,1,0,0:0:0:0:
144,176,56447,6,2,P|160:136|144:88,1,85
44,276,56749,1,0,0:0:0:0:
336,304,56900,2,0,B|276:252|276:252|236:240,1,106.25
176,80,57202,2,0,B|236:132|236:132|276:144,1,106.25
440,96,57505,1,0,0:0:0:0:
440,96,57656,1,0,0:0:0:0:
440,96,57807,1,0,0:0:0:0:
240,32,57958,1,0,0:0:0:0:
212,56,58034,1,0,0:0:0:0:
184,80,58109,1,0,0:0:0:0:
156,104,58185,1,0,0:0:0:0:
128,128,58260,5,0,0:0:0:0:
320,252,58412,2,0,B|304:196|304:196|272:144,1,106.25
44,80,58714,1,0,0:0:0:0:
236,204,58865,1,0,0:0:0:0:
452,344,59016,1,0,0:0:0:0:
428,316,59092,1,0,0:0:0:0:
404,288,59167,1,0,0:0:0:0:
236,136,59318,1,0,0:0:0:0:
92,344,59470,1,0,0:0:0:0:
308,152,59621,1,0,0:0:0:0:
92,344,59772,1,0,0:0:0:0:
368,200,59923,1,0,0:0:0:0:
160,148,60074,2,0,P|132:148|112:168,2,53.125
292,260,60376,6,0,B|292:324|292:324|328:360,2,106.25
292,344,60830,6,0,B|262:314|262:314|264:216,1,127.500004863739
252,328,61132,6,0,B|222:298|222:298|228:164,1,170
408,72,61434,1,0,0:0:0:0:
60,148,61586,2,0,L|112:184,1,53.125
160,248,61737,1,0,0:0:0:0:
216,56,61888,5,0,0:0:0:0:
52,136,62039,1,0,0:0:0:0:
352,136,62190,1,0,0:0:0:0:
296,328,62341,1,0,0:0:0:0:
460,248,62492,1,0,0:0:0:0:
148,140,62644,1,0,0:0:0:0:
364,244,62795,1,0,0:0:0:0:
136,64,62946,5,0,0:0:0:0:
264,152,63097,2,0,L|216:116,2,53.125
136,64,63399,1,0,0:0:0:0:
216,240,63550,2,0,L|184:192,2,53.125
136,64,63853,1,0,0:0:0:0:
128,296,64004,2,0,L|128:232,2,53.125
224,340,64306,5,0,0:0:0:0:
312,160,64457,1,0,0:0:0:0:
84,220,64608,1,0,0:0:0:0:
288,364,64760,1,0,0:0:0:0:
336,108,64911,1,0,0:0:0:0:
84,220,65062,1,0,0:0:0:0:
340,312,65213,1,0,0:0:0:0:
308,56,65364,5,0,0:0:0:0:
255,59,65440,1,0,0:0:0:0:
204,73,65515,1,0,0:0:0:0:
153,86,65591,1,0,0:0:0:0:
106,62,65666,1,0,0:0:0:0:
108,96,65742,1,0,0:0:0:0:
145,134,65818,1,0,0:0:0:0:
188,165,65893,1,0,0:0:0:0:
234,191,65969,1,0,0:0:0:0:
282,215,66044,1,0,0:0:0:0:
331,235,66120,1,0,0:0:0:0:
381,253,66195,1,0,0:0:0:0:
419,284,66271,1,0,0:0:0:0:
388,321,66347,1,0,0:0:0:0:
336,327,66422,1,0,0:0:0:0:
92,336,66573,5,0,0:0:0:0:
180,284,66724,1,0,0:0:0:0:
456,344,66876,1,0,0:0:0:0:
72,172,67027,1,0,0:0:0:0:
268,160,67178,1,0,0:0:0:0:
456,344,67329,1,0,0:0:0:0:
128,24,67480,1,0,0:0:0:0:
428,124,67631,1,0,0:0:0:0:
456,344,67782,5,0,0:0:0:0:
100,100,67934,2,0,L|192:164,1,106.25
456,344,68236,1,0,0:0:0:0:
156,136,68387,2,0,L|260:208,1,106.25
456,344,68689,1,0,0:0:0:0:
276,220,68992,5,0,0:0:0:0:
448,48,69143,1,0,0:0:0:0:
360,132,69294,1,0,0:0:0:0:
236,164,69445,5,0,0:0:0:0:
64,336,69596,1,0,0:0:0:0:
152,252,69747,1,0,0:0:0:0:
364,220,69898,5,0,0:0:0:0:
148,164,70050,1,0,0:0:0:0:
40,36,70201,5,0,0:0:0:0:
76,48,70276,1,0,0:0:0:0:
112,52,70352,1,0,0:0:0:0:
148,48,70427,1,0,0:0:0:0:
184,44,70503,1,0,0:0:0:0:
220,40,70579,1,0,0:0:0:0:
256,48,70654,1,0,0:0:0:0:
288,68,70730,1,0,0:0:0:0:
308,100,70805,1,0,0:0:0:0:
344,112,70881,1,0,0:0:0:0:
380,120,70956,1,0,0:0:0:0:
404,148,71032,1,0,0:0:0:0:
428,176,71108,1,0,0:0:0:0:
420,212,71183,1,0,0:0:0:0:
404,244,71259,1,0,0:0:0:0:
252,180,71410,5,0,0:0:0:0:
336,304,71561,1,0,0:0:0:0:
192,308,71712,1,0,0:0:0:0:
360,320,71863,5,0,0:0:0:0:
256,152,72014,1,0,0:0:0:0:
160,328,72166,1,0,0:0:0:0:
260,124,72317,5,0,0:0:0:0:
388,344,72468,1,0,0:0:0:0:
264,320,72619,5,0,0:0:0:0:
412,100,72770,2,0,L|320:164,1,106.25
264,320,73072,1,0,0:0:0:0:
356,136,73224,2,0,L|252:208,1,106.25
264,320,73526,1,0,0:0:0:0:
64,172,73828,5,0,0:0:0:0:
208,260,73979,1,0,0:0:0:0:
184,276,74130,1,0,0:0:0:0:
64,172,74282,1,0,0:0:0:0:
344,256,74433,1,0,0:0:0:0:
316,320,74584,1,0,0:0:0:0:
64,172,74735,1,0,0:0:0:0:
460,200,74886,1,0,0:0:0:0:
448,308,75037,1,0,0:0:0:0:
360,160,75188,6,0,B|288:96|288:96|264:96,1,106.25
164,116,75491,1,0,0:0:0:0:
234,256,75642,2,0,B|306:320|306:320|330:320,1,106.25
460,200,75944,1,0,0:0:0:0:
336,36,76095,1,0,0:0:0:0:
256,160,76246,5,0,0:0:0:0:
240,156,76398,1,0,0:0:0:0:
104,228,76549,1,0,0:0:0:0:
344,276,76700,1,0,0:0:0:0:
312,212,76851,1,0,0:0:0:0:
104,228,77002,1,0,0:0:0:0:
440,376,77153,1,0,0:0:0:0:
380,248,77304,1,0,0:0:0:0:
104,228,77456,5,0,0:0:0:0:
196,40,77607,2,0,L|100:96,1,106.25
104,228,77909,1,0,0:0:0:0:
316,72,78060,2,0,L|220:128,1,106.25
104,228,78362,1,0,0:0:0:0:
284,200,78514,1,0,0:0:0:0:
376,336,78665,5,0,0:0:0:0:
376,312,78816,1,0,0:0:0:0:
376,284,78967,1,0,0:0:0:0:
376,336,79118,5,0,0:0:0:0:
356,288,79269,1,0,0:0:0:0:
336,240,79420,1,0,0:0:0:0:
376,336,79572,5,0,0:0:0:0:
308,280,79723,1,0,0:0:0:0:
232,184,79874,1,0,0:0:0:0:
76,76,80327,1,0,0:0:0:0:
472,348,80781,1,0,0:0:0:0:
116,180,81083,5,0,0:0:0:0:
408,172,81234,2,0,L|348:180,1,53.125
320,204,81385,1,0,0:0:0:0:
180,224,81536,1,0,0:0:0:0:
336,36,81688,2,0,L|436:100,2,106.25
164,80,82141,1,0,0:0:0:0:
244,156,82292,1,0,0:0:0:0:
352,332,82443,1,0,0:0:0:0:
324,308,82519,1,0,0:0:0:0:
296,284,82594,1,0,0:0:0:0:
96,236,82746,5,0,0:0:0:0:
444,208,82897,2,0,P|476:268|460:308,1,106.25
259,199,83199,2,0,P|295:161|344:140,1,106.25
408,264,83501,5,2,0:0:0:0:
124,72,83652,1,2,0:0:0:0:
160,84,83728,1,2,0:0:0:0:
196,100,83804,2,2,B|232:140|232:140|160:136,1,106.25
40,132,84106,1,2,0:0:0:0:
268,308,84257,1,2,0:0:0:0:
220,328,84333,1,0,0:0:0:0:
180,344,84408,2,2,B|112:328|112:328|140:288,1,106.25
264,200,84710,5,2,0:0:0:0:
416,108,84862,1,2,0:0:0:0:
364,80,84937,1,2,0:0:0:0:
312,52,85013,2,2,B|284:36|284:36|300:120,1,106.25
352,280,85315,1,2,0:0:0:0:
152,160,85466,1,2,0:0:0:0:
108,216,85542,1,2,0:0:0:0:
64,268,85617,2,2,B|44:344|44:344|80:316,1,106.25
212,68,85920,5,0,0:0:0:0:
360,180,86071,2,0,L|408:216,1,53.125
368,216,86222,1,0,0:0:0:0:
216,264,86373,1,0,0:0:0:0:
400,348,86524,2,0,B|340:344|340:344|312:312|312:312|292:312,1,106.25
136,104,86826,2,0,L|180:140,1,53.125
104,144,86978,2,0,L|164:148,1,53.125
84,196,87129,2,0,L|140:180,1,53.125
76,248,87280,2,0,B|128:228|144:200|144:200|176:188,2,106.25
400,76,87733,2,0,P|436:128|416:160,1,106.25
222,253,88036,2,0,B|320:212,1,106.25
428,196,88338,5,0,0:0:0:0:
64,40,88489,1,0,0:0:0:0:
112,64,88565,1,0,0:0:0:0:
160,84,88640,1,0,0:0:0:0:
256,124,88791,2,0,L|360:168,1,106.25
72,296,89094,1,0,0:0:0:0:
124,288,89169,1,0,0:0:0:0:
176,280,89245,2,0,L|284:264,1,106.25
472,132,89547,1,0,0:0:0:0:
228,56,89698,1,0,0:0:0:0:
200,104,89774,2,0,L|168:164,3,53.125
40,252,90152,1,0,0:0:0:0:
284,328,90303,1,0,0:0:0:0:
312,280,90378,2,0,L|344:220,3,53.125
152,40,90756,5,0,0:0:0:0:
332,164,90907,1,0,0:0:0:0:
280,180,90983,1,0,0:0:0:0:
228,176,91058,1,0,0:0:0:0:
60,120,91210,2,0,L|136:208,2,106.25
416,304,91663,1,0,0:0:0:0:
140,152,91814,1,0,0:0:0:0:
412,216,91965,1,0,0:0:0:0:
40,240,92116,1,0,0:0:0:0:
92,244,92192,1,0,0:0:0:0:
144,248,92268,2,0,B|212:256|212:256|172:280,1,106.25
344,192,92570,2,0,B|276:184|276:184|316:160,1,106.25
436,88,92872,1,0,0:0:0:0:
436,88,92948,1,0,0:0:0:0:
436,88,93023,1,0,0:0:0:0:
212,152,93174,5,2,0:0:0:0:
408,288,93326,1,2,0:0:0:0:
356,276,93401,1,2,0:0:0:0:
304,264,93477,2,2,L|200:216,1,106.25
408,16,93779,5,2,0:0:0:0:
212,152,93930,1,2,0:0:0:0:
264,140,94006,1,2,0:0:0:0:
316,128,94081,2,2,L|420:80,1,106.25
212,152,94384,5,2,0:0:0:0:
16,288,94535,1,2,0:0:0:0:
68,276,94610,1,2,0:0:0:0:
120,264,94686,2,2,L|216:219,1,106.25
16,16,94988,5,2,0:0:0:0:
212,152,95139,1,2,0:0:0:0:
160,140,95215,1,2,0:0:0:0:
108,128,95290,2,2,L|11:83,1,106.25
344,176,95593,5,0,0:0:0:0:
176,328,95744,1,0,0:0:0:0:
228,324,95819,1,0,0:0:0:0:
280,320,95895,2,0,B|344:304|344:304|384:280,1,106.25
468,120,96197,1,0,0:0:0:0:
44,264,96348,1,0,0:0:0:0:
256,192,96500,1,0,0:0:0:0:
44,120,96651,1,0,0:0:0:0:
468,264,96802,1,0,0:0:0:0:
416,248,96877,1,0,0:0:0:0:
364,232,96953,1,0,0:0:0:0:
316,212,97029,1,0,0:0:0:0:
256,192,97104,6,0,L|140:152,1,106.25
336,132,97406,2,0,L|452:172,2,106.25
72,300,98011,1,0,0:0:0:0:
436,116,98313,1,0,0:0:0:0:
88,108,98616,1,0,0:0:0:0:
452,292,98918,1,0,0:0:0:0:
256,192,99069,1,0,0:0:0:0:
356,244,99220,1,0,0:0:0:0:
181,158,99371,2,0,L|77:102,1,106.25
380,100,99825,1,0,0:0:0:0:
256,192,99976,1,0,0:0:0:0:
132,284,100127,1,0,0:0:0:0:
80,64,100429,5,0,0:0:0:0:
256,192,100580,1,0,0:0:0:0:
432,320,100731,1,0,0:0:0:0:
28,100,101034,5,0,0:0:0:0:
484,284,101336,1,0,0:0:0:0:
304,300,101487,2,0,B|192:296|192:296,1,106.25
116,276,101789,2,0,L|32:348,1,106.25
336,228,102092,1,0,0:0:0:0:
44,184,102243,1,0,0:0:0:0:
348,116,102394,2,0,B|272:104|272:104|232:116,2,106.25
68,48,102847,6,0,P|120:116|140:120,1,106.25
415,187,103150,2,0,P|363:119|343:115,1,106.25
228,140,103452,1,0,0:0:0:0:
76,312,103603,1,0,0:0:0:0:
132,304,103679,1,0,0:0:0:0:
180,296,103754,1,0,0:0:0:0:
364,256,103905,1,0,0:0:0:0:
108,176,104057,2,0,B|40:232|40:232|32:252,1,106.25
232,248,104359,2,0,B|300:192|300:192|308:172,1,106.25
288,72,104661,2,0,P|196:64|204:128,1,170
224,136,105039,1,0,0:0:0:0:
256,144,105115,1,0,0:0:0:0:
448,180,105266,2,0,L|344:204,1,106.25
56,280,105568,2,0,L|168:296,1,106.25
464,316,105870,6,0,L|380:256,1,53.125
368,288,106021,2,0,L|252:280,1,106.25
216,304,106248,1,0,0:0:0:0:
164,316,106324,1,0,0:0:0:0:
116,296,106399,1,0,0:0:0:0:
88,252,106475,1,0,0:0:0:0:
100,200,106550,1,0,0:0:0:0:
140,168,106626,1,0,0:0:0:0:
428,248,106777,1,0,0:0:0:0:
240,128,106928,1,0,0:0:0:0:
48,344,107079,1,0,0:0:0:0:
340,184,107231,2,0,L|432:112,2,106.25
176,240,107684,6,0,B|264:216|264:216|236:208,1,106.25
124,92,107986,2,0,B|36:116|36:116|64:124,1,106.25
388,280,108289,1,0,0:0:0:0:
304,56,108440,1,0,0:0:0:0:
340,96,108515,1,0,0:0:0:0:
376,136,108591,2,0,L|448:220,1,106.25
256,192,108893,12,0,109800,0:0:0:0:
256,192,109951,5,0,0:0:0:0:
36,192,110102,2,0,L|160:192,1,106.25
476,192,110405,2,0,L|352:192,1,106.25
256,16,110707,2,0,L|256:132,1,106.25
256,368,111009,2,0,L|256:252,1,106.25
256,261,111236,1,0,0:0:0:0:
256,261,111311,1,0,0:0:0:0:
72,252,111463,2,0,B|152:224|152:224|132:248,1,106.25
40,336,111765,1,0,0:0:0:0:
348,176,111916,5,0,0:0:0:0:
397,136,111992,1,0,0:0:0:0:
397,72,112067,1,0,0:0:0:0:
348,32,112143,1,0,0:0:0:0:
285,47,112218,1,0,0:0:0:0:
258,104,112294,1,0,0:0:0:0:
285,162,112369,1,0,0:0:0:0:
132,100,112521,6,0,L|36:56,1,106.25
380,284,112823,2,0,L|476:328,1,106.25
132,284,113125,1,0,0:0:0:0:
384,104,113276,1,0,0:0:0:0:
340,136,113352,1,0,0:0:0:0:
296,164,113427,1,0,0:0:0:0:
212,232,113579,1,0,0:0:0:0:
28,192,113730,2,0,L|136:176,1,106.25
484,192,114032,2,0,L|376:208,1,106.25
272,224,114334,5,0,0:0:0:0:
220,224,114410,1,0,0:0:0:0:
168,212,114485,1,0,0:0:0:0:
133,176,114561,1,0,0:0:0:0:
120,124,114637,1,0,0:0:0:0:
140,76,114712,1,0,0:0:0:0:
184,44,114788,1,0,0:0:0:0:
412,120,114939,2,0,L|316:200,1,106.25
138,292,115241,2,0,L|219:223,1,106.25
434,164,115543,2,0,L|326:188,1,106.25
115,247,115846,5,0,0:0:0:0:
356,304,115997,2,0,L|244:276,1,106.25
48,224,116299,1,0,0:0:0:0:
184,260,116450,1,0,0:0:0:0:
424,236,116601,1,0,0:0:0:0:
104,176,116753,6,0,L|192:112,1,106.25
368,188,117055,2,0,L|280:252,1,106.25
48,300,117357,1,0,0:0:0:0:
256,160,117508,1,0,0:0:0:0:
148,232,117659,1,0,0:0:0:0:
360,88,117811,1,0,0:0:0:0:
152,88,117962,5,0,0:0:0:0:
244,256,118113,1,0,0:0:0:0:
272,300,118188,1,0,0:0:0:0:
300,344,118264,1,0,0:0:0:0:
288,96,118415,1,0,0:0:0:0:
128,304,118566,6,0,L|192:300,1,53.125
352,236,118717,2,0,L|296:216,1,53.125
184,112,118869,2,0,L|164:168,1,53.125
424,196,119020,2,0,L|400:144,1,53.125
88,64,119171,2,0,L|48:108,1,53.125
448,40,119322,2,0,L|384:32,1,53.125
52,184,119473,2,0,L|48:236,1,53.125
400,300,119624,6,0,L|456:316,1,53.125
480,284,119775,1,0,0:0:0:0:
480,240,119851,1,0,0:0:0:0:
456,204,119927,1,0,0:0:0:0:
420,180,120002,1,0,0:0:0:0:
380,168,120078,1,0,0:0:0:0:
340,180,120153,1,0,0:0:0:0:
308,208,120229,1,0,0:0:0:0:
296,248,120304,1,0,0:0:0:0:
272,284,120380,1,0,0:0:0:0:
240,312,120456,1,0,0:0:0:0:
204,332,120531,1,0,0:0:0:0:
160,324,120607,1,0,0:0:0:0:
128,296,120682,1,0,0:0:0:0:
104,260,120758,1,0,0:0:0:0:
108,216,120833,1,0,0:0:0:0:
124,176,120909,1,0,0:0:0:0:
136,136,120985,1,0,0:0:0:0:
112,100,121060,1,0,0:0:0:0:
84,68,121136,5,0,0:0:0:0:
40,72,121211,1,0,0:0:0:0:
12,104,121287,1,0,0:0:0:0:
8,144,121362,1,0,0:0:0:0:
8,188,121438,1,0,0:0:0:0:
16,228,121514,1,0,0:0:0:0:
24,268,121589,1,0,0:0:0:0:
44,304,121665,1,0,0:0:0:0:
72,336,121740,1,0,0:0:0:0:
108,360,121816,1,0,0:0:0:0:
148,368,121891,1,0,0:0:0:0:
192,368,121967,1,0,0:0:0:0:
236,368,122043,1,0,0:0:0:0:
280,364,122118,1,0,0:0:0:0:
324,360,122194,1,0,0:0:0:0:
364,352,122269,1,0,0:0:0:0:
404,340,122345,2,0,L|464:328,1,53.125
448,288,122496,2,0,L|504:272,1,53.125
484,232,122647,2,0,L|432:200,1,53.125
456,164,122798,2,0,L|400:132,1,53.125
428,100,122949,6,0,L|380:72,1,53.125
400,36,123101,2,0,L|348:16,1,53.125
332,56,123252,2,0,L|276:68,1,53.125
284,108,123403,2,0,L|228:136,1,53.125
252,172,123554,2,0,L|208:224,1,53.125
252,240,123705,2,0,L|256:296,1,53.125
300,296,123856,2,0,L|348:344,1,53.125
368,304,124007,2,0,L|428:308,1,53.125
416,264,124159,2,0,L|472:232,5,53.125
424,224,124612,5,0,0:0:0:0:
408,180,124688,1,0,0:0:0:0:
384,140,124763,1,0,0:0:0:0:
352,104,124839,1,0,0:0:0:0:
316,72,124914,1,0,0:0:0:0:
272,48,124990,1,0,0:0:0:0:
228,36,125065,1,0,0:0:0:0:
180,36,125141,1,0,0:0:0:0:
132,48,125217,1,0,0:0:0:0:
88,72,125292,1,0,0:0:0:0:
56,104,125368,2,0,L|108:124,1,53.125
88,160,125519,2,0,L|144:180,1,53.125
120,216,125670,2,0,L|176:236,1,53.125
152,272,125821,2,0,L|208:292,1,53.125
192,336,125972,1,0,0:0:0:0:
236,312,126048,1,0,0:0:0:0:
276,284,126123,1,0,0:0:0:0:
316,256,126199,1,0,0:0:0:0:
352,228,126275,1,0,0:0:0:0:
392,200,126350,1,0,0:0:0:0:
424,168,126426,5,0,0:0:0:0:
460,140,126501,1,0,0:0:0:0:
444,96,126577,2,0,L|384:108,1,53.125
388,60,126728,2,0,L|348:96,1,53.125
324,52,126879,2,0,L|300:100,1,53.125
260,72,127030,2,0,L|276:124,1,53.125
228,124,127181,2,0,L|272:164,1,53.125
236,196,127333,2,0,L|296:208,1,53.125
396,252,127484,2,0,L|340:260,1,53.125
232,304,127635,2,0,L|288:296,1,53.125
168,264,127786,2,0,L|112:272,1,53.125
16,336,127937,2,0,L|72:328,1,53.125
72,208,128088,2,0,L|60:156,1,53.125
72,108,128239,5,0,0:0:0:0:
116,92,128315,1,0,0:0:0:0:
160,76,128391,1,0,0:0:0:0:
204,60,128466,1,0,0:0:0:0:
252,52,128542,1,0,0:0:0:0:
300,44,128617,1,0,0:0:0:0:
348,36,128693,1,0,0:0:0:0:
396,28,128768,1,0,0:0:0:0:
444,20,128844,2,0,L|504:8,7,53.125
464,40,129449,5,0,0:0:0:0:
440,80,129524,1,0,0:0:0:0:
424,120,129600,2,0,L|368:140,1,53.125
336,160,129751,1,0,0:0:0:0:
324,208,129826,1,0,0:0:0:0:
304,252,129902,2,0,L|256:280,1,53.125
220,308,130053,1,0,0:0:0:0:
172,316,130129,1,0,0:0:0:0:
128,304,130204,2,0,L|76:272,1,53.125
76,228,130355,1,0,0:0:0:0:
76,180,130431,1,0,0:0:0:0:
100,136,130507,2,0,L|144:100,1,53.125
168,72,130658,1,0,0:0:0:0:
184,28,130733,1,0,0:0:0:0:
228,8,130809,2,0,L|288:0,1,53.125
304,16,130960,5,0,0:0:0:0:
320,24,131036,1,0,0:0:0:0:
336,32,131111,1,0,0:0:0:0:
352,40,131187,1,0,0:0:0:0:
352,64,131262,2,0,L|296:104,1,53.125
296,120,131413,2,0,L|248:152,1,53.125
224,168,131565,5,0,0:0:0:0:
200,192,131641,1,0,0:0:0:0:
176,216,131716,1,0,0:0:0:0:
160,248,131792,1,0,0:0:0:0:
152,288,131867,2,0,L|208:272,1,53.125
216,312,132018,2,0,L|256:264,1,53.125
272,264,132169,5,0,0:0:0:0:
296,264,132245,1,0,0:0:0:0:
312,272,132320,1,0,0:0:0:0:
320,288,132396,1,0,0:0:0:0:
320,312,132471,2,0,P|336:328|368:336,1,53.125
416,344,132623,2,0,P|456:328|464:312,1,53.125
480,272,132774,2,0,P|496:240|480:224,1,53.125
472,176,132925,2,0,P|464:144|440:136,1,53.125
400,104,133076,2,0,P|368:88|344:96,1,53.125
296,96,133227,2,0,P|264:88|232:104,1,53.125
216,120,133378,1,0,0:0:0:0:
176,152,133454,1,0,0:0:0:0:
136,184,133529,1,0,0:0:0:0:
96,216,133605,1,0,0:0:0:0:
56,248,133681,2,0,L|8:280,7,53.125
56,280,134285,5,0,0:0:0:0:
72,288,134361,1,0,0:0:0:0:
88,296,134436,1,0,0:0:0:0:
104,304,134512,1,0,0:0:0:0:
128,312,134587,1,0,0:0:0:0:
152,312,134663,1,0,0:0:0:0:
176,312,134739,1,0,0:0:0:0:
192,304,134814,1,0,0:0:0:0:
216,304,134890,1,0,0:0:0:0:
240,312,134965,1,0,0:0:0:0:
264,320,135041,1,0,0:0:0:0:
288,320,135116,1,0,0:0:0:0:
312,312,135192,1,0,0:0:0:0:
344,304,135268,5,0,0:0:0:0:
368,288,135343,1,0,0:0:0:0:
400,272,135419,1,0,0:0:0:0:
424,248,135494,1,0,0:0:0:0:
440,216,135570,1,0,0:0:0:0:
448,184,135645,1,0,0:0:0:0:
448,152,135721,1,0,0:0:0:0:
440,120,135797,1,0,0:0:0:0:
424,88,135872,1,0,0:0:0:0:
400,64,135948,1,0,0:0:0:0:
376,48,136023,1,0,0:0:0:0:
344,40,136099,1,0,0:0:0:0:
304,56,136174,5,0,0:0:0:0:
280,88,136250,1,0,0:0:0:0:
240,112,136326,1,0,0:0:0:0:
200,128,136401,1,0,0:0:0:0:
160,128,136477,1,0,0:0:0:0:
120,112,136552,1,0,0:0:0:0:
88,88,136628,1,0,0:0:0:0:
64,56,136703,2,0,L|16:8,3,53.125
32,72,137006,5,0,0:0:0:0:
16,120,137081,1,0,0:0:0:0:
16,176,137157,1,0,0:0:0:0:
24,224,137232,1,0,0:0:0:0:
56,272,137308,1,0,0:0:0:0:
96,312,137384,1,0,0:0:0:0:
144,328,137459,1,0,0:0:0:0:
200,336,137535,1,0,0:0:0:0:
256,328,137610,1,0,0:0:0:0:
304,304,137686,1,0,0:0:0:0:
352,280,137761,1,0,0:0:0:0:
392,240,137837,1,0,0:0:0:0:
424,192,137913,1,0,0:0:0:0:
448,144,137988,6,0,L|464:88,2,53.125
400,136,138215,1,0,0:0:0:0:
344,120,138290,1,0,0:0:0:0:
280,112,138366,1,0,0:0:0:0:
216,120,138442,1,0,0:0:0:0:
160,152,138517,1,0,0:0:0:0:
112,192,138593,1,0,0:0:0:0:
72,240,138668,1,0,0:0:0:0:
48,296,138744,1,0,0:0:0:0:
40,360,138819,2,0,L|96:344,2,53.125
88,88,139084,5,0,0:0:0:0:
424,296,139386,1,0,0:0:0:0:
88,296,139688,5,0,0:0:0:0:
424,88,139990,2,0,L|344:144,1,85
240,144,140293,2,0,L|256:256,1,85
336,304,140595,1,0,0:0:0:0:
144,352,140746,1,0,0:0:0:0:
48,160,140897,1,0,0:0:0:0:
48,160,141048,1,0,0:0:0:0:
184,64,141199,2,0,L|104:120,1,85
400,168,141502,5,0,0:0:0:0:
112,216,141653,1,0,0:0:0:0:
296,112,141804,1,0,0:0:0:0:
216,272,141955,1,0,0:0:0:0:
256,192,142106,1,0,0:0:0:0:
64,320,142257,1,0,0:0:0:0:
96,304,142333,1,0,0:0:0:0:
128,288,142409,1,0,0:0:0:0:
304,264,142560,1,0,0:0:0:0:
80,80,142711,2,0,L|16:160,1,85
432,304,143013,2,0,L|496:224,1,85
392,64,143315,5,0,0:0:0:0:
352,64,143391,1,0,0:0:0:0:
320,80,143467,1,0,0:0:0:0:
296,112,143542,1,0,0:0:0:0:
296,152,143618,1,0,0:0:0:0:
432,224,143769,1,0,0:0:0:0:
128,344,143920,1,0,0:0:0:0:
168,328,143996,1,0,0:0:0:0:
200,312,144071,1,0,0:0:0:0:
368,136,144222,1,0,0:0:0:0:
144,248,144373,1,0,0:0:0:0:
72,88,144525,2,0,L|152:136,2,85
488,160,144978,5,0,0:0:0:0:
240,216,145129,1,0,0:0:0:0:
32,288,145280,1,0,0:0:0:0:
32,288,145431,1,0,0:0:0:0:
32,288,145583,1,0,0:0:0:0:
256,296,145734,2,0,L|336:264,2,85
216,312,146112,1,0,0:0:0:0:
184,328,146187,1,0,0:0:0:0:
264,96,146338,5,0,0:0:0:0:
56,120,146489,1,0,0:0:0:0:
328,136,146641,1,0,0:0:0:0:
112,296,146792,1,0,0:0:0:0:
192,104,146943,1,0,0:0:0:0:
384,280,147094,1,0,0:0:0:0:
344,272,147170,1,0,0:0:0:0:
304,264,147245,1,0,0:0:0:0:
24,240,147396,2,0,L|120:216,1,85
464,48,147699,5,0,0:0:0:0:
464,128,147850,1,0,0:0:0:0:
464,208,148001,1,0,0:0:0:0:
464,288,148152,1,0,0:0:0:0:
464,368,148303,1,0,0:0:0:0:
464,368,148379,1,0,0:0:0:0:
464,368,148454,1,0,0:0:0:0:
56,152,148605,6,0,B|112:136|112:136|152:152,1,85
168,168,148832,1,0,0:0:0:0:
200,192,148908,1,0,0:0:0:0:
368,320,149059,2,0,L|192:328,1,170
56,248,149512,2,0,L|152:240,1,85
480,208,149815,1,0,0:0:0:0:
312,96,149966,2,0,L|272:184,1,85
264,208,150192,1,0,0:0:0:0:
248,240,150268,5,0,0:0:0:0:
392,152,150419,1,0,0:0:0:0:
104,128,150570,2,0,L|24:184,1,85
400,264,150873,2,0,L|352:248,2,42.5
72,296,151175,6,0,B|136:272|136:272|136:256,1,85
320,112,151477,2,0,B|256:136|256:136|256:152,1,85
416,336,151779,1,0,0:0:0:0:
144,176,151931,2,0,L|176:216,2,42.5
360,296,152233,1,0,0:0:0:0:
112,80,152384,6,0,P|72:136|48:136,1,85
400,80,152686,2,0,P|440:136|464:136,1,85
256,40,152989,1,0,0:0:0:0:
208,144,153140,1,0,0:0:0:0:
304,240,153291,1,0,0:0:0:0:
256,344,153442,1,0,0:0:0:0:
112,304,153593,2,0,P|72:248|48:248,1,85
400,304,153895,2,0,P|440:248|464:248,1,85
32,120,154198,2,0,L|128:152,2,85
400,128,154651,1,0,0:0:0:0:
376,152,154727,1,0,0:0:0:0:
360,184,154802,1,0,0:0:0:0:
360,224,154878,1,0,0:0:0:0:
384,256,154953,1,0,0:0:0:0:
488,304,155105,5,0,0:0:0:0:
88,192,155256,1,0,0:0:0:0:
264,304,155407,2,0,L|168:280,1,85
160,248,155634,1,0,0:0:0:0:
192,232,155709,2,0,L|264:184,1,85
336,48,156011,6,0,P|296:80|256:64,1,85
152,32,156314,1,0,0:0:0:0:
56,112,156465,1,0,0:0:0:0:
72,144,156540,1,0,0:0:0:0:
88,176,156616,1,0,0:0:0:0:
456,272,156767,1,0,0:0:0:0:
440,240,156842,1,0,0:0:0:0:
424,208,156918,2,0,L|384:128,1,85
160,144,157221,5,0,0:0:0:0:
352,240,157372,1,0,0:0:0:0:
120,208,157523,1,0,0:0:0:0:
392,176,157674,1,0,0:0:0:0:
144,280,157825,1,0,0:0:0:0:
368,104,157976,1,0,0:0:0:0:
208,320,158127,1,0,0:0:0:0:
304,64,158278,5,0,0:0:0:0:
304,64,158354,1,0,0:0:0:0:
304,64,158430,1,0,0:0:0:0:
48,112,158581,1,0,0:0:0:0:
48,112,158656,1,0,0:0:0:0:
48,112,158732,1,0,0:0:0:0:
448,248,158883,1,0,0:0:0:0:
448,248,158959,1,0,0:0:0:0:
448,248,159034,1,0,0:0:0:0:
296,248,159185,5,0,0:0:0:0:
80,312,159337,1,0,0:0:0:0:
432,96,159488,2,0,L|384:128,2,42.5
120,48,159790,1,0,0:0:0:0:
176,280,159941,1,0,0:0:0:0:
312,80,160092,1,0,0:0:0:0:
40,40,160243,1,0,0:0:0:0:
56,72,160319,1,0,0:0:0:0:
72,104,160395,1,0,0:0:0:0:
88,136,160470,1,0,0:0:0:0:
104,168,160546,2,0,L|128:208,2,42.5
432,176,160848,5,0,0:0:0:0:
240,216,160999,1,0,0:0:0:0:
480,232,161150,1,0,0:0:0:0:
176,176,161301,1,0,0:0:0:0:
464,304,161453,1,0,0:0:0:0:
432,288,161528,1,0,0:0:0:0:
400,272,161604,1,0,0:0:0:0:
368,256,161679,1,0,0:0:0:0:
336,240,161755,1,0,0:0:0:0:
144,88,161906,1,0,0:0:0:0:
96,304,162057,6,0,L|144:304,2,42.5
416,80,162359,2,0,L|368:80,2,42.5
256,192,162662,1,0,0:0:0:0:
88,192,162813,1,0,0:0:0:0:
256,48,162964,1,0,0:0:0:0:
256,336,163115,5,0,0:0:0:0:
256,296,163191,1,0,0:0:0:0:
256,256,163266,1,0,0:0:0:0:
424,192,163417,1,0,0:0:0:0:
384,192,163493,1,0,0:0:0:0:
344,192,163569,1,0,0:0:0:0:
112,88,163720,1,0,0:0:0:0:
144,112,163795,1,0,0:0:0:0:
176,136,163871,1,0,0:0:0:0:
112,296,164022,1,0,0:0:0:0:
144,272,164097,1,0,0:0:0:0:
176,248,164173,1,0,0:0:0:0:
384,96,164324,5,0,0:0:0:0:
288,64,164475,1,0,0:0:0:0:
480,288,164627,1,0,0:0:0:0:
480,288,164778,1,0,0:0:0:0:
480,288,164929,1,0,0:0:0:0:
72,192,165080,2,0,L|128:192,2,42.5
256,192,165382,1,0,0:0:0:0:
296,192,165458,1,0,0:0:0:0:
336,192,165533,1,0,0:0:0:0:
376,192,165609,1,0,0:0:0:0:
416,192,165685,1,0,0:0:0:0:
192,88,165836,5,0,0:0:0:0:
408,264,165987,1,0,0:0:0:0:
88,112,166138,1,0,0:0:0:0:
344,304,166289,1,0,0:0:0:0:
32,224,166440,1,0,0:0:0:0:
72,232,166516,1,0,0:0:0:0:
112,240,166591,1,0,0:0:0:0:
152,248,166667,1,0,0:0:0:0:
192,256,166743,1,0,0:0:0:0:
272,272,166894,5,0,0:0:0:0:
240,112,167045,1,0,0:0:0:0:
176,336,167196,1,0,0:0:0:0:
336,48,167347,1,0,0:0:0:0:
368,216,167498,1,0,0:0:0:0:
144,168,167649,1,0,0:0:0:0:
424,8,167801,1,0,0:0:0:0:
88,376,167952,1,0,0:0:0:0:
40,88,168103,6,0,L|40:144,2,42.5
472,296,168405,2,0,L|472:240,2,42.5
40,240,168707,1,0,0:0:0:0:
96,224,168859,1,0,0:0:0:0:
152,208,169010,1,0,0:0:0:0:
368,104,169161,2,0,L|288:136,1,85,0|2,0:0|0:0,0:0:0:0:
289,135,169463,1,0,0:0:0:0:
208,296,169614,1,0,0:0:0:0:
400,272,169765,1,0,0:0:0:0:
456,144,169917,1,0,0:0:0:0:
88,56,170068,2,0,L|152:72,2,53.125
64,96,170294,1,0,0:0:0:0:
72,144,170370,1,0,0:0:0:0:
296,248,170521,5,0,0:0:0:0:
248,232,170597,1,0,0:0:0:0:
200,216,170672,1,0,0:0:0:0:
128,112,170823,1,0,0:0:0:0:
368,344,170975,1,0,0:0:0:0:
184,152,171126,1,0,0:0:0:0:
480,320,171277,1,0,0:0:0:0:
440,296,171352,1,0,0:0:0:0:
400,272,171428,1,0,0:0:0:0:
360,248,171504,1,0,0:0:0:0:
320,224,171579,1,0,0:0:0:0:
256,48,171730,5,0,0:0:0:0:
256,336,171881,1,0,0:0:0:0:
136,96,172033,1,0,0:0:0:0:
376,288,172184,1,0,0:0:0:0:
56,192,172335,1,0,0:0:0:0:
104,192,172410,1,0,0:0:0:0:
152,192,172486,1,0,0:0:0:0:
200,192,172562,1,0,0:0:0:0:
248,192,172637,1,0,0:0:0:0:
464,192,172788,5,0,0:0:0:0:
256,120,172939,2,0,L|200:104,1,53.125
248,96,173091,1,0,0:0:0:0:
464,320,173242,1,0,0:0:0:0:
424,320,173317,1,0,0:0:0:0:
384,320,173393,1,0,0:0:0:0:
344,320,173468,1,0,0:0:0:0:
304,320,173544,2,0,L|248:320,1,53.125
288,296,173695,1,0,0:0:0:0:
384,72,173846,2,0,B|424:96|424:96|424:112,2,53.125
96,128,174149,5,0,0:0:0:0:
80,160,174224,1,0,0:0:0:0:
80,200,174300,1,0,0:0:0:0:
88,240,174375,1,0,0:0:0:0:
112,272,174451,1,0,0:0:0:0:
400,232,174602,1,0,0:0:0:0:
120,104,174753,1,0,0:0:0:0:
456,136,174904,2,0,L|400:168,2,53.125
48,352,175207,1,0,0:0:0:0:
88,344,175282,1,0,0:0:0:0:
128,336,175358,2,0,L|192:320,2,53.125
232,224,175660,1,0,0:0:0:0:
336,120,175811,1,0,0:0:0:0:
440,24,175962,1,0,0:0:0:0:
64,56,176113,6,0,L|120:80,1,53.125
192,112,176265,2,0,L|80:176,1,106.25
24,248,176567,1,0,0:0:0:0:
224,320,176718,1,0,0:0:0:0:
24,248,176869,1,0,0:0:0:0:
240,248,177020,1,0,0:0:0:0:
24,248,177171,1,0,0:0:0:0:
224,176,177323,1,0,0:0:0:0:
24,248,177474,1,0,0:0:0:0:
184,112,177625,1,0,0:0:0:0:
152,144,177700,1,0,0:0:0:0:
112,176,177776,1,0,0:0:0:0:
448,280,177927,6,0,B|394:266|394:266|336:280,1,106.25
40,352,178229,2,0,B|112:352|112:352|152:328,1,106.25
352,128,178532,1,0,0:0:0:0:
160,256,178683,1,0,0:0:0:0:
256,192,178834,1,0,0:0:0:0:
48,48,178985,5,0,0:0:0:0:
256,80,179136,1,0,0:0:0:0:
376,256,179287,1,0,0:0:0:0:
48,48,179439,1,0,0:0:0:0:
320,48,179590,1,0,0:0:0:0:
448,256,179741,1,0,0:0:0:0:
48,48,179892,1,0,0:0:0:0:
392,40,180043,1,0,0:0:0:0:
512,280,180194,5,0,0:0:0:0:
472,304,180270,1,0,0:0:0:0:
424,320,180345,1,0,0:0:0:0:
376,312,180421,1,0,0:0:0:0:
336,296,180497,1,0,0:0:0:0:
8,152,180648,1,0,0:0:0:0:
48,128,180724,1,0,0:0:0:0:
96,112,180799,1,0,0:0:0:0:
144,120,180875,1,0,0:0:0:0:
184,136,180951,1,0,0:0:0:0:
360,224,181101,5,0,0:0:0:0:
208,224,181252,1,0,0:0:0:0:
48,224,181403,2,0,L|80:280,1,53.125
168,328,181555,2,0,L|224:344,1,53.125
344,360,181706,1,0,0:0:0:0:
464,160,181857,2,0,L|432:104,1,53.125
344,56,182009,2,0,L|288:40,1,53.125
168,24,182160,1,0,0:0:0:0:
40,152,182310,1,0,0:0:0:0:
472,232,182461,1,0,0:0:0:0:
192,112,182613,5,0,0:0:0:0:
96,72,182764,1,0,0:0:0:0:
112,160,182915,1,0,0:0:0:0:
320,272,183066,5,0,0:0:0:0:
416,312,183217,1,0,0:0:0:0:
400,224,183368,1,0,0:0:0:0:
192,192,183519,5,0,0:0:0:0:
320,192,183671,1,0,0:0:0:0:
32,312,183822,6,0,L|96:288,1,53.125
136,240,183973,2,0,L|184:272,1,53.125
216,344,184124,1,0,0:0:0:0:
480,72,184275,6,0,L|416:96,1,53.125
376,144,184426,2,0,L|328:112,1,53.125
296,40,184577,1,0,0:0:0:0:
480,72,184729,5,0,0:0:0:0:
32,312,184880,1,0,0:0:0:0:
256,192,185031,5,0,0:0:0:0:
256,192,185182,1,0,0:0:0:0:
256,192,185333,1,0,0:0:0:0:
376,224,185484,1,0,0:0:0:0:
160,264,185635,1,0,0:0:0:0:
496,312,185787,1,0,0:0:0:0:
136,192,185938,1,0,0:0:0:0:
352,152,186089,1,0,0:0:0:0:
16,104,186240,6,0,L|80:88,1,53.125
184,64,186391,2,0,L|248:64,1,53.125
384,88,186542,1,0,0:0:0:0:
408,296,186693,6,0,L|344:312,1,53.125
240,336,186844,2,0,L|176:336,1,53.125
40,312,186995,1,0,0:0:0:0:
384,88,187147,5,0,0:0:0:0:
40,312,187298,1,0,0:0:0:0:
48,200,187449,5,0,0:0:0:0:
288,80,187600,1,0,0:0:0:0:
168,144,187751,1,0,0:0:0:0:
464,184,187903,5,0,0:0:0:0:
224,304,188054,1,0,0:0:0:0:
344,240,188205,1,0,0:0:0:0:
48,200,188356,5,0,0:0:0:0:
464,184,188507,1,0,0:0:0:0:
48,40,188658,6,0,L|112:40,1,53.125
224,40,188809,2,0,L|280:40,1,53.125
432,40,188961,1,0,0:0:0:0:
464,344,189112,6,0,L|400:344,1,53.125
288,344,189263,2,0,L|232:344,1,53.125
80,344,189415,1,0,0:0:0:0:
432,40,189565,5,0,0:0:0:0:
80,344,189716,1,0,0:0:0:0:
136,96,189867,5,0,0:0:0:0:
256,256,190019,1,0,0:0:0:0:
376,96,190170,1,0,0:0:0:0:
136,288,190321,5,0,0:0:0:0:
256,128,190473,1,0,0:0:0:0:
376,288,190624,1,0,0:0:0:0:
64,24,190774,5,0,0:0:0:0:
448,360,190925,1,0,0:0:0:0:
40,112,191077,6,0,L|88:152,1,53.125
200,272,191228,2,0,L|176:216,1,53.125
248,80,191379,1,0,0:0:0:0:
472,272,191530,6,0,L|424:232,1,53.125
312,112,191681,2,0,L|336:168,1,53.125
264,304,191832,1,0,0:0:0:0:
40,112,191983,5,0,0:0:0:0:
472,272,192135,1,0,0:0:0:0:
112,200,192286,5,0,0:0:0:0:
264,232,192437,1,0,0:0:0:0:
384,336,192588,1,0,0:0:0:0:
400,184,192739,5,0,0:0:0:0:
248,152,192890,1,0,0:0:0:0:
128,48,193041,1,0,0:0:0:0:
448,272,193193,5,0,0:0:0:0:
64,112,193344,1,0,0:0:0:0:
480,48,193495,6,0,L|408:56,1,53.125
288,64,193646,2,0,L|344:40,1,53.125
488,144,193797,1,0,0:0:0:0:
32,336,193948,6,0,L|104:328,1,53.125
224,320,194099,2,0,L|168:344,1,53.125
24,240,194250,1,0,0:0:0:0:
480,48,194402,5,0,0:0:0:0:
32,336,194553,1,0,0:0:0:0:
480,192,194704,5,0,0:0:0:0:
256,192,194855,1,0,0:0:0:0:
32,192,195006,1,0,0:0:0:0:
256,32,195157,5,0,0:0:0:0:
256,192,195309,1,0,0:0:0:0:
256,352,195460,1,0,0:0:0:0:
120,80,195611,5,0,0:0:0:0:
392,304,195762,1,0,0:0:0:0:
184,136,195913,5,0,0:0:0:0:
256,192,195989,12,0,196442,0:0:0:0:
328,248,196518,5,0,0:0:0:0:
256,192,196593,12,0,197047,0:0:0:0:
256,192,197122,5,0,0:0:0:0:
256,192,197198,12,0,198180,0:0:0:0:
256,192,198331,12,0,206795,0:0:0:0:
