osu file format v14

[General]
AudioFilename: BilibiliJJ.COM-_.mp3
AudioLeadIn: 0
PreviewTime: -1
Countdown: 1
SampleSet: Soft
StackLeniency: 0.7
Mode: 0
LetterboxInBreaks: 1
WidescreenStoryboard: 0

[Editor]
DistanceSpacing: 1
BeatDivisor: 4
GridSize: 4
TimelineZoom: 2.3

[Metadata]
Title:Wo E Le!!
TitleUnicode:我饿了!!
Artist:Fa Guang De Dai Mao Jun
ArtistUnicode:发光的呆毛君
Creator:sammy711
Version:Insane
Source:Bilibili Douga
Tags:
BeatmapID:651743
BeatmapSetID:289073

[Difficulty]
HPDrainRate:7
CircleSize:4
OverallDifficulty:8
ApproachRate:9
SliderMultiplier:1.3
SliderTickRate:1

[Events]
//Background and Video events
Video,-398,"BilibiliJJ.COM-我饿了!!_.avi"
0,0,"CE_$7G%MH~JA[YW7)H7{DBT.jpg",0,0
//Break Periods
//Storyboard Layer 0 (Background)
//Storyboard Layer 1 (Fail)
//Storyboard Layer 2 (Pass)
//Storyboard Layer 3 (Foreground)
//Storyboard Sound Samples

[TimingPoints]
1490,333.333333333333,4,2,0,100,1,0
1490,-100,4,2,1,100,0,0
64406,-66.6666666666667,4,2,1,100,0,0
65489,-66.6666666666667,4,2,1,100,0,1
102823,-66.6666666666667,4,2,1,100,0,0

[Colours]
Combo1 : 255,179,179
Combo2 : 100,255,100
Combo3 : 215,215,255
Combo4 : 255,176,255
Combo5 : 255,255,151

[HitObjects]
256,192,62823,12,0,64156,0:0:0:0:
281,248,64406,6,0,B|309:289|309:289|285:332|305:428,1,146.250005578995
192,362,64823,1,0,0:0:0:0:
148,144,64989,1,0,0:0:0:0:
148,144,65489,5,0,0:0:0:0:
280,288,65656,1,0,0:0:0:0:
88,312,65823,1,0,0:0:0:0:
88,312,66156,1,0,0:0:0:0:
145,144,66323,1,0,0:0:0:0:
348,120,66489,1,0,0:0:0:0:
348,120,66823,1,0,0:0:0:0:
144,144,66989,1,0,0:0:0:0:
280,288,67156,1,0,0:0:0:0:
280,288,67489,1,0,0:0:0:0:
468,128,67656,1,0,0:0:0:0:
453,85,67739,1,0,0:0:0:0:
424,50,67822,1,0,0:0:0:0:
385,27,67905,1,0,0:0:0:0:
340,20,67989,1,0,0:0:0:0:
296,28,68072,1,0,0:0:0:0:
257,52,68155,5,0,0:0:0:0:
348,120,68323,1,0,0:0:0:0:
390,219,68489,1,0,0:0:0:0:
364,328,68656,1,0,0:0:0:0:
63,195,68823,1,0,0:0:0:0:
154,162,68989,1,0,0:0:0:0:
249,183,69156,1,0,0:0:0:0:
169,317,69323,1,0,0:0:0:0:
265,358,69489,1,0,0:0:0:0:
364,328,69656,1,0,0:0:0:0:
390,218,69823,2,0,L|519:204,1,97.50000371933
490,109,70156,1,0,0:0:0:0:
432,30,70323,1,0,0:0:0:0:
395,59,70406,1,0,0:0:0:0:
356,64,70489,1,0,0:0:0:0:
318,57,70572,1,0,0:0:0:0:
279,45,70656,1,0,0:0:0:0:
238,48,70739,1,0,0:0:0:0:
202,68,70822,5,0,0:0:0:0:
221,163,70989,1,0,0:0:0:0:
154,234,71156,1,0,0:0:0:0:
175,329,71323,1,0,0:0:0:0:
4,60,71489,1,0,0:0:0:0:
154,234,71656,1,0,0:0:0:0:
202,68,71823,1,0,0:0:0:0:
175,329,71989,1,0,0:0:0:0:
352,296,72156,2,0,L|480:276,1,97.50000371933
320,148,72489,2,0,L|192:168,1,97.50000371933
175,329,72823,1,0,0:0:0:0:
126,138,72989,1,0,0:0:0:0:
152,106,73072,1,0,0:0:0:0:
186,85,73155,1,0,0:0:0:0:
226,78,73238,1,0,0:0:0:0:
266,88,73322,1,0,0:0:0:0:
300,112,73405,1,0,0:0:0:0:
322,147,73488,5,0,0:0:0:0:
353,298,73656,1,0,0:0:0:0:
425,49,73823,1,0,0:0:0:0:
188,190,73989,1,0,0:0:0:0:
131,61,74156,2,0,L|259:84,1,97.50000371933
92,173,74489,2,0,L|220:196,1,97.50000371933
355,298,74823,1,0,0:0:0:0:
322,149,74989,1,0,0:0:0:0:
425,50,75156,1,0,0:0:0:0:
322,149,75323,1,0,0:0:0:0:
130,60,75489,2,0,L|61:71,1,48.750001859665
185,145,75656,2,0,L|245:179,1,48.750001859665
89,175,75823,2,0,L|69:232,1,48.750001859665
166,252,75989,2,0,L|152:309,1,48.750001859665
246,350,76156,5,0,0:0:0:0:
466,340,76323,1,0,0:0:0:0:
425,50,76489,1,0,0:0:0:0:
425,50,76823,1,0,0:0:0:0:
187,145,76989,1,0,0:0:0:0:
246,350,77156,1,0,0:0:0:0:
246,350,77489,1,0,0:0:0:0:
59,293,77656,1,0,0:0:0:0:
20,103,77823,1,0,0:0:0:0:
123,41,77989,1,0,0:0:0:0:
187,145,78156,2,0,P|217:167|307:192,1,97.50000371933
406,183,78489,1,0,0:0:0:0:
452,170,78572,1,0,0:0:0:0:
481,133,78655,1,0,0:0:0:0:
482,85,78738,1,0,0:0:0:0:
454,46,78823,5,0,0:0:0:0:
186,145,78989,1,0,0:0:0:0:
368,96,79156,1,0,0:0:0:0:
357,332,79323,1,0,0:0:0:0:
149,280,79489,1,0,0:0:0:0:
268,235,79656,1,0,0:0:0:0:
65,49,79823,1,0,0:0:0:0:
186,146,79989,1,0,0:0:0:0:
370,94,80156,1,0,0:0:0:0:
357,332,80323,1,0,0:0:0:0:
186,146,80489,1,0,0:0:0:0:
268,235,80656,1,0,0:0:0:0:
370,96,80823,1,0,0:0:0:0:
487,196,80989,1,0,0:0:0:0:
496,219,81072,1,0,0:0:0:0:
485,240,81156,1,0,0:0:0:0:
476,263,81239,1,0,0:0:0:0:
471,287,81322,1,0,0:0:0:0:
468,311,81406,1,0,0:0:0:0:
469,334,81489,6,0,B|386:325|386:325|366:347|319:361,1,146.250005578995
332,356,81823,1,0,0:0:0:0:
164,250,81989,1,0,0:0:0:0:
34,118,82156,2,0,L|52:279,1,146.250005578995
50,263,82489,1,0,0:0:0:0:
105,42,82656,1,0,0:0:0:0:
251,94,82823,1,0,0:0:0:0:
164,250,82989,1,0,0:0:0:0:
105,42,83156,1,0,0:0:0:0:
164,250,83323,1,0,0:0:0:0:
336,352,83489,1,0,0:0:0:0:
436,171,83656,1,0,0:0:0:0:
432,142,83739,1,0,0:0:0:0:
420,115,83822,1,0,0:0:0:0:
401,93,83905,1,0,0:0:0:0:
376,97,83989,1,0,0:0:0:0:
347,104,84072,1,0,0:0:0:0:
318,105,84155,5,0,0:0:0:0:
164,250,84323,1,0,0:0:0:0:
336,351,84489,1,0,0:0:0:0:
83,353,84656,1,0,0:0:0:0:
220,144,84823,1,0,0:0:0:0:
210,366,84989,1,0,0:0:0:0:
114,86,85156,1,0,0:0:0:0:
165,249,85323,1,0,0:0:0:0:
317,98,85489,2,0,L|483:112,1,146.250005578995
447,204,85823,2,0,L|520:209,1,48.750001859665
332,325,85989,2,0,L|191:357,1,97.50000371933
206,360,86240,1,0,0:0:0:0:
172,365,86323,1,0,0:0:0:0:
138,359,86406,1,0,0:0:0:0:
108,343,86490,1,0,0:0:0:0:
85,318,86573,1,0,0:0:0:0:
69,288,86656,1,0,0:0:0:0:
64,254,86740,1,0,0:0:0:0:
69,221,86823,6,0,B|147:219|198:173|198:173|291:184,2,195.00000743866
315,353,87823,1,0,0:0:0:0:
486,289,88156,2,0,B|432:296|432:296|381:250|303:248,2,195.00000743866
60,191,89156,1,0,0:0:0:0:
60,191,89323,1,0,0:0:0:0:
143,116,89489,2,0,P|157:181|144:263,1,146.250005578995
145,258,89823,1,0,0:0:0:0:
234,329,89989,1,0,0:0:0:0:
311,121,90156,1,0,0:0:0:0:
332,262,90323,1,0,0:0:0:0:
478,290,90489,2,0,L|409:338,1,48.750001859665
455,160,90656,2,0,L|502:179,1,48.750001859665
311,121,90823,6,0,P|332:68|424:18,1,146.250005578995
404,20,91156,1,0,0:0:0:0:
332,262,91323,1,0,0:0:0:0:
145,128,91489,2,0,L|163:57,1,48.750001859665
65,30,91656,2,0,L|54:78,1,48.750001859665
9,236,91823,2,0,L|25:190,1,48.750001859665
110,250,91989,2,0,L|81:338,1,48.750001859665
223,225,92156,6,0,B|286:229|333:261|333:261|409:245,2,195.00000743866
309,51,93156,1,0,0:0:0:0:
410,243,93489,2,0,B|334:259|334:259|287:227|224:223,2,195.00000743866
244,355,94489,1,0,0:0:0:0:
63,142,94823,1,0,0:0:0:0:
170,84,94989,1,0,0:0:0:0:
201,268,95156,2,0,P|219:317|268:374,1,97.50000371933
356,344,95489,2,0,P|407:330|512:342,1,146.250005578995
470,239,95823,2,0,P|464:189|475:139,1,97.50000371933
374,58,96156,1,0,0:0:0:0:
275,155,96323,1,0,0:0:0:0:
105,169,96489,1,0,0:0:0:0:
202,268,96656,1,0,0:0:0:0:
165,33,96823,1,0,0:0:0:0:
275,155,96989,1,0,0:0:0:0:
121,380,97156,1,0,0:0:0:0:
121,380,97489,6,0,L|27:352,1,97.50000371933
108,240,97823,2,0,L|202:268,1,97.50000371933
274,154,98156,2,0,L|180:126,1,97.50000371933
260,13,98490,2,0,L|354:41,1,97.50000371933
455,179,98823,1,0,0:0:0:0:
362,307,98989,1,0,0:0:0:0:
512,258,99156,1,0,0:0:0:0:
362,210,99323,1,0,0:0:0:0:
455,337,99489,1,0,0:0:0:0:
455,337,99823,1,0,0:0:0:0:
168,286,100156,6,0,L|120:321,1,48.750001859665
77,224,100323,2,0,L|36:199,1,48.750001859665
123,71,100489,2,0,L|122:146,1,48.750001859665
285,61,100656,2,0,L|219:99,1,48.750001859665
398,94,100823,2,0,L|409:39,1,48.750001859665
507,127,100989,2,0,L|497:174,1,48.750001859665
428,254,101156,2,0,L|418:301,1,48.750001859665
312,216,101323,2,0,L|323:161,1,48.750001859665
284,322,101489,2,0,L|274:369,1,48.750001859665
168,284,101656,2,0,L|179:229,1,48.750001859665
71,72,101823,1,0,0:0:0:0:
36,208,101989,1,0,0:0:0:0:
0,337,102156,1,0,0:0:0:0:
168,283,102323,1,0,0:0:0:0:
71,73,102489,5,0,0:0:0:0:
