osu file format v13

[General]
AudioFilename: realize.mp3
AudioLeadIn: 2000
PreviewTime: 58589
Countdown: 0
SampleSet: None
StackLeniency: 0.7
Mode: 3
LetterboxInBreaks: 0
SpecialStyle: 0
WidescreenStoryboard: 1

[Editor]
DistanceSpacing: 0.8
BeatDivisor: 4
GridSize: 4
TimelineZoom: 1.9

[Metadata]
Title:Anime Endings Madness P.2
TitleUnicode:Anime Endings Madness P.2
Artist:FX
ArtistUnicode:FX
Creator:[FX] AEM
Version:realize -Yume no Matsu Basho- [FX]
Source:
Tags:ending
BeatmapID:625267
BeatmapSetID:275629

[Difficulty]
HPDrainRate:8
CircleSize:4
OverallDifficulty:8
ApproachRate:0
SliderMultiplier:0.899999999999999
SliderTickRate:1

[Events]
//Background and Video events
//Break Periods
//Storyboard Layer 0 (Background)
//Storyboard Layer 1 (Fail)
//Storyboard Layer 2 (Pass)
//Storyboard Layer 3 (Foreground)
//Storyboard Sound Samples

[TimingPoints]
-320,363.636363636364,4,2,1,20,1,0

[HitObjects]
64,192,407,5,0,0:0:0:0:
192,192,589,1,0,0:0:0:0:
320,192,770,1,0,0:0:0:0:
448,192,952,1,0,0:0:0:0:
192,192,1134,1,0,0:0:0:0:
64,192,1134,1,0,0:0:0:0:
320,192,1134,1,0,0:0:0:0:
64,192,1680,1,0,0:0:0:0:
192,192,2225,1,0,0:0:0:0:
448,192,2225,1,0,0:0:0:0:
320,192,2770,1,0,0:0:0:0:
64,192,3680,1,0,0:0:0:0:
192,192,3861,1,0,0:0:0:0:
320,192,4043,1,0,0:0:0:0:
64,192,4043,128,0,4407:0:0:0:0:
192,192,4407,128,0,4770:0:0:0:0:
320,192,4770,128,0,5134:0:0:0:0:
448,192,5134,1,0,0:0:0:0:
192,192,5134,128,0,6589:0:0:0:0:
64,192,6952,128,0,7498:0:0:0:0:
320,192,7498,1,0,0:0:0:0:
192,192,7680,128,0,8043:0:0:0:0:
448,192,8043,128,0,8589:0:0:0:0:
320,192,8589,1,0,0:0:0:0:
320,192,8770,1,0,0:0:0:0:
192,192,8952,128,0,9680:0:0:0:0:
64,192,9680,1,0,0:0:0:0:
64,192,9770,1,0,0:0:0:0:
320,192,9861,128,0,10770:0:0:0:0:
448,192,10952,1,0,0:0:0:0:
192,192,11134,128,0,11861:0:0:0:0:
448,192,11861,1,0,0:0:0:0:
448,192,11952,1,0,0:0:0:0:
320,192,12043,1,0,0:0:0:0:
64,192,12225,128,0,12589:0:0:0:0:
192,192,12770,128,0,13043:0:0:0:0:
320,192,13134,128,0,13316:0:0:0:0:
64,192,13316,128,0,13498:0:0:0:0:
448,192,13498,128,0,13770:0:0:0:0:
320,192,13861,1,0,0:0:0:0:
192,192,13861,128,0,14770:0:0:0:0:
320,192,14952,128,0,15498:0:0:0:0:
192,192,15498,1,0,0:0:0:0:
192,192,15589,1,0,0:0:0:0:
448,192,15680,128,0,16407:0:0:0:0:
320,192,16770,128,0,17498:0:0:0:0:
192,192,17498,128,0,18589:0:0:0:0:
64,192,18043,1,0,0:0:0:0:
320,192,18407,1,0,0:0:0:0:
448,192,18589,1,0,0:0:0:0:
64,192,18589,128,0,19134:0:0:0:0:
320,192,19316,1,0,0:0:0:0:
448,192,19316,1,0,0:0:0:0:
192,192,19680,128,0,20043:0:0:0:0:
320,192,20043,1,0,0:0:0:0:
64,192,20407,1,0,0:0:0:0:
320,192,20770,128,0,21134:0:0:0:0:
192,192,21134,1,0,0:0:0:0:
448,192,21316,1,0,0:0:0:0:
320,192,21498,1,0,0:0:0:0:
64,192,21498,128,0,22043:0:0:0:0:
320,192,22225,1,0,0:0:0:0:
192,192,22407,128,0,22589:0:0:0:0:
320,192,22589,128,0,23134:0:0:0:0:
192,192,23316,128,0,23498:0:0:0:0:
448,192,23498,1,0,0:0:0:0:
448,192,23589,1,0,0:0:0:0:
64,192,23680,1,0,0:0:0:0:
320,192,23680,1,0,0:0:0:0:
192,192,23861,1,0,0:0:0:0:
320,192,24043,1,0,0:0:0:0:
448,192,24225,1,0,0:0:0:0:
192,192,24407,128,0,24952:0:0:0:0:
64,192,25134,128,0,25498:0:0:0:0:
320,192,25498,128,0,26043:0:0:0:0:
448,192,26225,128,0,26952:0:0:0:0:
320,192,26589,128,0,26952:0:0:0:0:
192,192,26952,128,0,27316:0:0:0:0:
64,192,27134,1,0,0:0:0:0:
448,192,27316,1,0,0:0:0:0:
320,192,27316,128,0,28407:0:0:0:0:
64,192,28043,1,0,0:0:0:0:
192,192,28407,1,0,0:0:0:0:
64,192,30225,1,0,0:0:0:0:
192,192,30225,1,0,0:0:0:0:
320,192,30407,1,0,0:0:0:0:
192,192,30589,1,0,0:0:0:0:
64,192,30589,1,0,0:0:0:0:
448,192,30770,1,0,0:0:0:0:
192,192,30952,1,0,0:0:0:0:
64,192,30952,1,0,0:0:0:0:
320,192,31134,1,0,0:0:0:0:
64,192,31316,1,0,0:0:0:0:
192,192,31316,1,0,0:0:0:0:
448,192,31498,1,0,0:0:0:0:
192,192,31680,1,0,0:0:0:0:
64,192,31680,1,0,0:0:0:0:
320,192,31770,1,0,0:0:0:0:
192,192,31861,1,0,0:0:0:0:
448,192,31952,1,0,0:0:0:0:
192,192,32043,1,0,0:0:0:0:
64,192,32043,1,0,0:0:0:0:
320,192,32134,1,0,0:0:0:0:
192,192,32225,1,0,0:0:0:0:
448,192,32316,1,0,0:0:0:0:
192,192,32407,1,0,0:0:0:0:
64,192,32407,1,0,0:0:0:0:
320,192,32498,1,0,0:0:0:0:
192,192,32589,1,0,0:0:0:0:
448,192,32680,1,0,0:0:0:0:
320,192,32770,1,0,0:0:0:0:
192,192,32770,1,0,0:0:0:0:
448,192,32861,1,0,0:0:0:0:
64,192,32952,1,0,0:0:0:0:
320,192,32952,1,0,0:0:0:0:
192,192,33043,1,0,0:0:0:0:
448,192,33134,1,0,0:0:0:0:
320,192,33134,1,0,0:0:0:0:
64,192,33316,1,0,0:0:0:0:
320,192,33498,1,0,0:0:0:0:
448,192,33498,1,0,0:0:0:0:
192,192,33680,1,0,0:0:0:0:
320,192,33861,1,0,0:0:0:0:
448,192,33861,1,0,0:0:0:0:
192,192,33952,1,0,0:0:0:0:
320,192,34043,1,0,0:0:0:0:
64,192,34134,1,0,0:0:0:0:
320,192,34225,1,0,0:0:0:0:
448,192,34225,1,0,0:0:0:0:
320,192,34407,1,0,0:0:0:0:
192,192,34407,1,0,0:0:0:0:
64,192,34589,1,0,0:0:0:0:
448,192,34589,1,0,0:0:0:0:
320,192,34680,1,0,0:0:0:0:
192,192,34770,1,0,0:0:0:0:
64,192,34861,1,0,0:0:0:0:
448,192,34952,1,0,0:0:0:0:
192,192,34952,1,0,0:0:0:0:
320,192,35043,1,0,0:0:0:0:
192,192,35134,1,0,0:0:0:0:
64,192,35134,1,0,0:0:0:0:
320,192,35225,1,0,0:0:0:0:
192,192,35316,1,0,0:0:0:0:
64,192,35316,1,0,0:0:0:0:
448,192,35316,1,0,0:0:0:0:
448,192,35407,1,0,0:0:0:0:
448,192,35498,1,0,0:0:0:0:
448,192,35589,1,0,0:0:0:0:
448,192,35680,1,0,0:0:0:0:
448,192,35770,1,0,0:0:0:0:
448,192,35861,1,0,0:0:0:0:
448,192,35952,1,0,0:0:0:0:
64,192,36043,1,0,0:0:0:0:
192,192,36043,1,0,0:0:0:0:
448,192,36225,1,0,0:0:0:0:
192,192,36407,1,0,0:0:0:0:
64,192,36407,1,0,0:0:0:0:
320,192,36589,1,0,0:0:0:0:
192,192,36770,1,0,0:0:0:0:
64,192,36770,1,0,0:0:0:0:
320,192,36861,1,0,0:0:0:0:
192,192,36952,1,0,0:0:0:0:
448,192,37043,1,0,0:0:0:0:
192,192,37134,1,0,0:0:0:0:
64,192,37134,1,0,0:0:0:0:
320,192,37316,1,0,0:0:0:0:
192,192,37316,1,0,0:0:0:0:
320,192,37498,1,0,0:0:0:0:
448,192,37498,1,0,0:0:0:0:
64,192,37498,1,0,0:0:0:0:
192,192,37680,1,0,0:0:0:0:
320,192,37861,1,0,0:0:0:0:
448,192,37861,1,0,0:0:0:0:
64,192,38043,1,0,0:0:0:0:
320,192,38225,1,0,0:0:0:0:
448,192,38225,1,0,0:0:0:0:
192,192,38316,1,0,0:0:0:0:
320,192,38407,1,0,0:0:0:0:
64,192,38498,1,0,0:0:0:0:
320,192,38589,1,0,0:0:0:0:
192,192,38589,1,0,0:0:0:0:
64,192,38680,1,0,0:0:0:0:
192,192,38770,1,0,0:0:0:0:
448,192,38770,1,0,0:0:0:0:
320,192,38861,1,0,0:0:0:0:
192,192,38952,1,0,0:0:0:0:
64,192,38952,1,0,0:0:0:0:
448,192,39134,1,0,0:0:0:0:
192,192,39316,1,0,0:0:0:0:
64,192,39316,1,0,0:0:0:0:
320,192,39498,1,0,0:0:0:0:
192,192,39680,1,0,0:0:0:0:
64,192,39680,1,0,0:0:0:0:
320,192,39770,1,0,0:0:0:0:
192,192,39861,1,0,0:0:0:0:
448,192,39952,1,0,0:0:0:0:
192,192,40043,1,0,0:0:0:0:
64,192,40043,1,0,0:0:0:0:
320,192,40134,1,0,0:0:0:0:
192,192,40225,1,0,0:0:0:0:
64,192,40316,1,0,0:0:0:0:
192,192,40407,1,0,0:0:0:0:
320,192,40407,1,0,0:0:0:0:
448,192,40407,1,0,0:0:0:0:
64,192,40589,1,0,0:0:0:0:
320,192,40770,1,0,0:0:0:0:
448,192,40770,1,0,0:0:0:0:
192,192,40861,1,0,0:0:0:0:
320,192,40952,1,0,0:0:0:0:
448,192,40952,1,0,0:0:0:0:
64,192,41043,1,0,0:0:0:0:
320,192,41134,1,0,0:0:0:0:
448,192,41134,1,0,0:0:0:0:
64,192,41225,1,0,0:0:0:0:
192,192,41316,1,0,0:0:0:0:
448,192,41316,1,0,0:0:0:0:
320,192,41407,1,0,0:0:0:0:
192,192,41498,1,0,0:0:0:0:
64,192,41498,1,0,0:0:0:0:
448,192,41498,1,0,0:0:0:0:
320,192,41589,1,0,0:0:0:0:
192,192,41680,1,0,0:0:0:0:
64,192,41680,1,0,0:0:0:0:
448,192,41770,1,0,0:0:0:0:
320,192,41861,1,0,0:0:0:0:
64,192,41861,1,0,0:0:0:0:
192,192,41861,1,0,0:0:0:0:
448,192,42043,1,0,0:0:0:0:
192,192,42225,1,0,0:0:0:0:
64,192,42225,1,0,0:0:0:0:
320,192,42407,1,0,0:0:0:0:
192,192,42589,1,0,0:0:0:0:
64,192,42589,1,0,0:0:0:0:
448,192,42770,1,0,0:0:0:0:
192,192,42952,1,0,0:0:0:0:
64,192,42952,1,0,0:0:0:0:
448,192,43134,1,0,0:0:0:0:
320,192,43316,1,0,0:0:0:0:
192,192,43316,1,0,0:0:0:0:
64,192,43498,1,0,0:0:0:0:
320,192,43680,1,0,0:0:0:0:
192,192,43680,1,0,0:0:0:0:
448,192,43861,1,0,0:0:0:0:
320,192,44043,1,0,0:0:0:0:
192,192,44043,1,0,0:0:0:0:
448,192,44134,1,0,0:0:0:0:
64,192,44225,1,0,0:0:0:0:
448,192,44316,1,0,0:0:0:0:
320,192,44407,1,0,0:0:0:0:
192,192,44407,1,0,0:0:0:0:
64,192,44498,1,0,0:0:0:0:
448,192,44589,1,0,0:0:0:0:
64,192,44680,1,0,0:0:0:0:
192,192,44770,1,0,0:0:0:0:
320,192,44770,1,0,0:0:0:0:
448,192,44770,1,0,0:0:0:0:
64,192,44952,1,0,0:0:0:0:
192,192,45134,1,0,0:0:0:0:
448,192,45134,1,0,0:0:0:0:
320,192,45316,1,0,0:0:0:0:
192,192,45498,1,0,0:0:0:0:
64,192,45498,1,0,0:0:0:0:
448,192,45680,1,0,0:0:0:0:
320,192,45861,1,0,0:0:0:0:
64,192,45861,1,0,0:0:0:0:
192,192,46043,1,0,0:0:0:0:
320,192,46225,1,0,0:0:0:0:
448,192,46225,1,0,0:0:0:0:
64,192,46407,1,0,0:0:0:0:
192,192,46589,1,0,0:0:0:0:
448,192,46589,1,0,0:0:0:0:
320,192,46770,1,0,0:0:0:0:
192,192,46952,1,0,0:0:0:0:
64,192,46952,1,0,0:0:0:0:
448,192,47043,1,0,0:0:0:0:
192,192,47134,1,0,0:0:0:0:
320,192,47134,1,0,0:0:0:0:
448,192,47225,1,0,0:0:0:0:
64,192,47316,1,0,0:0:0:0:
192,192,47316,1,0,0:0:0:0:
320,192,47407,1,0,0:0:0:0:
192,192,47498,1,0,0:0:0:0:
64,192,47498,1,0,0:0:0:0:
448,192,47498,1,0,0:0:0:0:
192,192,47589,1,0,0:0:0:0:
320,192,47589,1,0,0:0:0:0:
320,192,47680,1,0,0:0:0:0:
448,192,47680,1,0,0:0:0:0:
64,192,47680,128,0,50225:0:0:0:0:
448,192,48225,1,0,0:0:0:0:
448,192,48770,1,0,0:0:0:0:
320,192,48952,1,0,0:0:0:0:
320,192,49134,1,0,0:0:0:0:
320,192,49680,1,0,0:0:0:0:
320,192,50225,1,0,0:0:0:0:
448,192,50225,1,0,0:0:0:0:
192,192,50407,1,0,0:0:0:0:
64,192,50407,1,0,0:0:0:0:
192,192,50589,1,0,0:0:0:0:
320,192,50589,1,0,0:0:0:0:
448,192,50589,128,0,52043:0:0:0:0:
320,192,50952,1,0,0:0:0:0:
64,192,51134,1,0,0:0:0:0:
192,192,51498,1,0,0:0:0:0:
64,192,51680,1,0,0:0:0:0:
192,192,52043,128,0,53498:0:0:0:0:
448,192,52589,1,0,0:0:0:0:
320,192,52680,1,0,0:0:0:0:
64,192,52770,1,0,0:0:0:0:
320,192,52861,1,0,0:0:0:0:
448,192,52952,1,0,0:0:0:0:
320,192,53043,1,0,0:0:0:0:
448,192,53134,1,0,0:0:0:0:
64,192,53134,1,0,0:0:0:0:
320,192,53225,1,0,0:0:0:0:
64,192,53316,1,0,0:0:0:0:
320,192,53407,1,0,0:0:0:0:
320,192,53498,1,0,0:0:0:0:
64,192,53498,1,0,0:0:0:0:
448,192,53498,1,0,0:0:0:0:
192,192,53680,1,0,0:0:0:0:
64,192,53861,1,0,0:0:0:0:
320,192,53861,1,0,0:0:0:0:
448,192,54043,1,0,0:0:0:0:
64,192,54225,1,0,0:0:0:0:
192,192,54225,1,0,0:0:0:0:
192,192,54589,1,0,0:0:0:0:
320,192,54589,1,0,0:0:0:0:
448,192,54589,1,0,0:0:0:0:
320,192,54952,1,0,0:0:0:0:
192,192,54952,1,0,0:0:0:0:
64,192,54952,1,0,0:0:0:0:
192,192,55316,1,0,0:0:0:0:
448,192,55316,1,0,0:0:0:0:
320,192,55498,1,0,0:0:0:0:
64,192,55498,1,0,0:0:0:0:
192,192,55680,1,0,0:0:0:0:
320,192,55680,1,0,0:0:0:0:
448,192,55680,1,0,0:0:0:0:
64,192,56043,1,0,0:0:0:0:
448,192,56043,1,0,0:0:0:0:
448,192,56225,1,0,0:0:0:0:
64,192,56225,1,0,0:0:0:0:
64,192,56407,1,0,0:0:0:0:
448,192,56407,1,0,0:0:0:0:
192,192,56407,128,0,57861:0:0:0:0:
320,192,56407,128,0,57861:0:0:0:0:
64,192,57861,128,0,58043:0:0:0:0:
448,192,57861,128,0,58043:0:0:0:0:
64,192,59316,1,0,0:0:0:0:
448,192,59316,1,0,0:0:0:0:
192,192,59316,128,0,59680:0:0:0:0:
64,192,59680,1,0,0:0:0:0:
320,192,59680,1,0,0:0:0:0:
448,192,59680,1,0,0:0:0:0:
192,192,59861,1,0,0:0:0:0:
320,192,60043,1,0,0:0:0:0:
64,192,60043,1,0,0:0:0:0:
192,192,60225,1,0,0:0:0:0:
64,192,60407,1,0,0:0:0:0:
320,192,60407,1,0,0:0:0:0:
448,192,60407,1,0,0:0:0:0:
192,192,60589,1,0,0:0:0:0:
320,192,60770,1,0,0:0:0:0:
448,192,60770,1,0,0:0:0:0:
64,192,60952,1,0,0:0:0:0:
192,192,61134,1,0,0:0:0:0:
448,192,61134,1,0,0:0:0:0:
320,192,61134,1,0,0:0:0:0:
64,192,61316,1,0,0:0:0:0:
192,192,61498,1,0,0:0:0:0:
320,192,61498,1,0,0:0:0:0:
448,192,61589,1,0,0:0:0:0:
320,192,61680,1,0,0:0:0:0:
64,192,61680,1,0,0:0:0:0:
192,192,61770,1,0,0:0:0:0:
320,192,61861,1,0,0:0:0:0:
64,192,61861,1,0,0:0:0:0:
448,192,61861,128,0,62225:0:0:0:0:
320,192,62225,1,0,0:0:0:0:
192,192,62225,1,0,0:0:0:0:
64,192,62225,128,0,62589:0:0:0:0:
448,192,62407,1,0,0:0:0:0:
192,192,62589,1,0,0:0:0:0:
320,192,62589,1,0,0:0:0:0:
448,192,62770,1,0,0:0:0:0:
320,192,62952,1,0,0:0:0:0:
64,192,62952,1,0,0:0:0:0:
192,192,63134,1,0,0:0:0:0:
320,192,63316,1,0,0:0:0:0:
64,192,63316,1,0,0:0:0:0:
448,192,63316,128,0,63680:0:0:0:0:
192,192,63498,1,0,0:0:0:0:
320,192,63498,1,0,0:0:0:0:
192,192,63680,1,0,0:0:0:0:
64,192,63680,1,0,0:0:0:0:
320,192,63861,1,0,0:0:0:0:
192,192,63861,1,0,0:0:0:0:
320,192,64043,1,0,0:0:0:0:
448,192,64043,1,0,0:0:0:0:
64,192,64043,1,0,0:0:0:0:
192,192,64225,1,0,0:0:0:0:
192,192,64316,1,0,0:0:0:0:
64,192,64407,1,0,0:0:0:0:
320,192,64407,1,0,0:0:0:0:
448,192,64407,1,0,0:0:0:0:
448,192,64589,128,0,64770:0:0:0:0:
192,192,64589,1,0,0:0:0:0:
320,192,64770,1,0,0:0:0:0:
192,192,64770,1,0,0:0:0:0:
64,192,64770,1,0,0:0:0:0:
64,192,64952,1,0,0:0:0:0:
320,192,64952,1,0,0:0:0:0:
192,192,65134,1,0,0:0:0:0:
320,192,65134,1,0,0:0:0:0:
448,192,65134,1,0,0:0:0:0:
64,192,65316,1,0,0:0:0:0:
192,192,65498,1,0,0:0:0:0:
320,192,65498,1,0,0:0:0:0:
448,192,65680,1,0,0:0:0:0:
320,192,65861,1,0,0:0:0:0:
64,192,65861,1,0,0:0:0:0:
192,192,65861,1,0,0:0:0:0:
448,192,66043,1,0,0:0:0:0:
320,192,66225,1,0,0:0:0:0:
64,192,66225,1,0,0:0:0:0:
192,192,66407,1,0,0:0:0:0:
320,192,66589,1,0,0:0:0:0:
64,192,66589,1,0,0:0:0:0:
448,192,66589,1,0,0:0:0:0:
192,192,66770,1,0,0:0:0:0:
320,192,66952,1,0,0:0:0:0:
448,192,66952,1,0,0:0:0:0:
64,192,67134,1,0,0:0:0:0:
192,192,67316,1,0,0:0:0:0:
320,192,67316,1,0,0:0:0:0:
448,192,67316,1,0,0:0:0:0:
64,192,67498,1,0,0:0:0:0:
192,192,67680,1,0,0:0:0:0:
320,192,67680,1,0,0:0:0:0:
448,192,67680,1,0,0:0:0:0:
64,192,67861,1,0,0:0:0:0:
448,192,67952,1,0,0:0:0:0:
320,192,68043,1,0,0:0:0:0:
192,192,68043,1,0,0:0:0:0:
64,192,68043,1,0,0:0:0:0:
192,192,68225,1,0,0:0:0:0:
448,192,68225,1,0,0:0:0:0:
320,192,68407,1,0,0:0:0:0:
64,192,68407,1,0,0:0:0:0:
448,192,68407,1,0,0:0:0:0:
192,192,68589,1,0,0:0:0:0:
320,192,68589,1,0,0:0:0:0:
64,192,68770,1,0,0:0:0:0:
192,192,68770,1,0,0:0:0:0:
320,192,68952,1,0,0:0:0:0:
448,192,68952,1,0,0:0:0:0:
64,192,69134,1,0,0:0:0:0:
448,192,69134,1,0,0:0:0:0:
192,192,69134,128,0,69498:0:0:0:0:
320,192,69316,1,0,0:0:0:0:
320,192,69407,1,0,0:0:0:0:
64,192,69498,1,0,0:0:0:0:
448,192,69498,1,0,0:0:0:0:
192,192,69680,1,0,0:0:0:0:
320,192,69680,1,0,0:0:0:0:
320,192,69861,1,0,0:0:0:0:
448,192,69861,1,0,0:0:0:0:
64,192,69861,128,0,70589:0:0:0:0:
192,192,70043,1,0,0:0:0:0:
192,192,70225,128,0,70589:0:0:0:0:
320,192,70225,1,0,0:0:0:0:
448,192,70225,1,0,0:0:0:0:
448,192,70407,1,0,0:0:0:0:
320,192,70498,1,0,0:0:0:0:
320,192,70589,1,0,0:0:0:0:
448,192,70589,1,0,0:0:0:0:
448,192,70770,1,0,0:0:0:0:
320,192,70770,1,0,0:0:0:0:
192,192,70770,1,0,0:0:0:0:
64,192,70952,1,0,0:0:0:0:
192,192,70952,1,0,0:0:0:0:
320,192,70952,1,0,0:0:0:0:
448,192,71043,1,0,0:0:0:0:
320,192,71134,1,0,0:0:0:0:
192,192,71225,1,0,0:0:0:0:
64,192,71316,1,0,0:0:0:0:
320,192,71316,1,0,0:0:0:0:
448,192,71407,1,0,0:0:0:0:
192,192,71498,1,0,0:0:0:0:
320,192,71589,1,0,0:0:0:0:
64,192,71680,1,0,0:0:0:0:
192,192,71680,1,0,0:0:0:0:
448,192,71770,1,0,0:0:0:0:
64,192,71861,1,0,0:0:0:0:
192,192,71952,1,0,0:0:0:0:
64,192,72043,1,0,0:0:0:0:
320,192,72043,1,0,0:0:0:0:
448,192,72043,1,0,0:0:0:0:
192,192,72134,1,0,0:0:0:0:
320,192,72225,1,0,0:0:0:0:
64,192,72316,1,0,0:0:0:0:
192,192,72407,1,0,0:0:0:0:
448,192,72407,1,0,0:0:0:0:
320,192,72498,1,0,0:0:0:0:
192,192,72589,1,0,0:0:0:0:
64,192,72680,1,0,0:0:0:0:
192,192,72770,1,0,0:0:0:0:
320,192,72770,1,0,0:0:0:0:
448,192,72770,1,0,0:0:0:0:
64,192,72861,1,0,0:0:0:0:
320,192,72952,1,0,0:0:0:0:
64,192,73043,1,0,0:0:0:0:
192,192,73134,1,0,0:0:0:0:
448,192,73134,1,0,0:0:0:0:
320,192,73225,1,0,0:0:0:0:
64,192,73316,1,0,0:0:0:0:
192,192,73407,1,0,0:0:0:0:
64,192,73498,1,0,0:0:0:0:
320,192,73498,1,0,0:0:0:0:
448,192,73498,1,0,0:0:0:0:
192,192,73589,1,0,0:0:0:0:
320,192,73680,1,0,0:0:0:0:
448,192,73770,1,0,0:0:0:0:
64,192,73861,1,0,0:0:0:0:
320,192,73861,1,0,0:0:0:0:
192,192,73952,1,0,0:0:0:0:
320,192,74043,1,0,0:0:0:0:
64,192,74134,1,0,0:0:0:0:
192,192,74225,1,0,0:0:0:0:
320,192,74225,1,0,0:0:0:0:
448,192,74225,1,0,0:0:0:0:
64,192,74316,1,0,0:0:0:0:
320,192,74407,1,0,0:0:0:0:
192,192,74498,1,0,0:0:0:0:
64,192,74589,1,0,0:0:0:0:
448,192,74589,1,0,0:0:0:0:
320,192,74680,1,0,0:0:0:0:
192,192,74770,1,0,0:0:0:0:
320,192,74861,1,0,0:0:0:0:
448,192,74952,1,0,0:0:0:0:
64,192,74952,1,0,0:0:0:0:
192,192,74952,1,0,0:0:0:0:
320,192,75043,1,0,0:0:0:0:
64,192,75134,1,0,0:0:0:0:
320,192,75225,1,0,0:0:0:0:
192,192,75316,1,0,0:0:0:0:
448,192,75316,1,0,0:0:0:0:
320,192,75407,1,0,0:0:0:0:
192,192,75498,1,0,0:0:0:0:
64,192,75589,1,0,0:0:0:0:
192,192,75680,1,0,0:0:0:0:
320,192,75680,1,0,0:0:0:0:
448,192,75680,1,0,0:0:0:0:
64,192,75770,1,0,0:0:0:0:
320,192,75861,1,0,0:0:0:0:
192,192,75952,1,0,0:0:0:0:
320,192,76043,1,0,0:0:0:0:
448,192,76043,1,0,0:0:0:0:
64,192,76134,1,0,0:0:0:0:
192,192,76225,1,0,0:0:0:0:
320,192,76225,1,0,0:0:0:0:
448,192,76316,1,0,0:0:0:0:
320,192,76407,1,0,0:0:0:0:
192,192,76407,1,0,0:0:0:0:
64,192,76407,1,0,0:0:0:0:
448,192,76498,1,0,0:0:0:0:
320,192,76589,1,0,0:0:0:0:
192,192,76589,1,0,0:0:0:0:
64,192,76589,1,0,0:0:0:0:
448,192,76680,1,0,0:0:0:0:
320,192,76770,1,0,0:0:0:0:
64,192,76770,1,0,0:0:0:0:
192,192,76861,1,0,0:0:0:0:
320,192,76952,1,0,0:0:0:0:
448,192,77043,1,0,0:0:0:0:
64,192,77134,1,0,0:0:0:0:
192,192,77134,1,0,0:0:0:0:
320,192,77134,1,0,0:0:0:0:
448,192,77225,1,0,0:0:0:0:
192,192,77316,1,0,0:0:0:0:
320,192,77407,1,0,0:0:0:0:
448,192,77498,1,0,0:0:0:0:
192,192,77498,1,0,0:0:0:0:
320,192,77589,1,0,0:0:0:0:
64,192,77680,1,0,0:0:0:0:
320,192,77770,1,0,0:0:0:0:
64,192,77861,1,0,0:0:0:0:
448,192,77861,1,0,0:0:0:0:
192,192,77861,1,0,0:0:0:0:
320,192,77952,1,0,0:0:0:0:
64,192,78043,1,0,0:0:0:0:
192,192,78134,1,0,0:0:0:0:
320,192,78225,1,0,0:0:0:0:
448,192,78225,1,0,0:0:0:0:
192,192,78316,1,0,0:0:0:0:
320,192,78407,1,0,0:0:0:0:
448,192,78498,1,0,0:0:0:0:
64,192,78589,1,0,0:0:0:0:
192,192,78589,1,0,0:0:0:0:
320,192,78589,1,0,0:0:0:0:
448,192,78680,1,0,0:0:0:0:
192,192,78770,1,0,0:0:0:0:
320,192,78861,1,0,0:0:0:0:
64,192,78952,1,0,0:0:0:0:
448,192,78952,1,0,0:0:0:0:
320,192,79043,1,0,0:0:0:0:
192,192,79134,1,0,0:0:0:0:
448,192,79134,1,0,0:0:0:0:
64,192,79225,1,0,0:0:0:0:
192,192,79316,1,0,0:0:0:0:
320,192,79316,1,0,0:0:0:0:
448,192,79316,1,0,0:0:0:0:
64,192,79407,1,0,0:0:0:0:
448,192,79498,1,0,0:0:0:0:
192,192,79589,1,0,0:0:0:0:
64,192,79680,1,0,0:0:0:0:
320,192,79680,1,0,0:0:0:0:
448,192,79770,1,0,0:0:0:0:
192,192,79861,1,0,0:0:0:0:
320,192,79952,1,0,0:0:0:0:
448,192,80043,1,0,0:0:0:0:
192,192,80043,1,0,0:0:0:0:
64,192,80043,1,0,0:0:0:0:
320,192,80134,1,0,0:0:0:0:
448,192,80225,1,0,0:0:0:0:
64,192,80225,1,0,0:0:0:0:
192,192,80316,1,0,0:0:0:0:
320,192,80407,1,0,0:0:0:0:
448,192,80407,1,0,0:0:0:0:
64,192,80498,1,0,0:0:0:0:
320,192,80589,1,0,0:0:0:0:
192,192,80680,1,0,0:0:0:0:
64,192,80770,1,0,0:0:0:0:
448,192,80770,1,0,0:0:0:0:
320,192,80770,1,0,0:0:0:0:
320,192,80952,1,0,0:0:0:0:
192,192,80952,1,0,0:0:0:0:
192,192,81043,1,0,0:0:0:0:
320,192,81043,1,0,0:0:0:0:
64,192,81134,1,0,0:0:0:0:
448,192,81134,1,0,0:0:0:0:
192,192,81316,1,0,0:0:0:0:
448,192,81498,1,0,0:0:0:0:
320,192,81498,1,0,0:0:0:0:
64,192,81498,1,0,0:0:0:0:
192,192,81680,1,0,0:0:0:0:
192,192,81770,1,0,0:0:0:0:
320,192,81861,1,0,0:0:0:0:
448,192,81861,1,0,0:0:0:0:
64,192,82043,1,0,0:0:0:0:
320,192,82043,1,0,0:0:0:0:
192,192,82225,1,0,0:0:0:0:
448,192,82225,1,0,0:0:0:0:
320,192,82225,1,0,0:0:0:0:
320,192,82407,1,0,0:0:0:0:
64,192,82407,1,0,0:0:0:0:
192,192,82589,1,0,0:0:0:0:
64,192,82589,1,0,0:0:0:0:
448,192,82589,1,0,0:0:0:0:
