osu file format v13

[General]
AudioFilename: jonuetsucontinue.mp3
AudioLeadIn: 2000
PreviewTime: 41523
Countdown: 0
SampleSet: None
StackLeniency: 0.7
Mode: 3
LetterboxInBreaks: 0
SpecialStyle: 0
WidescreenStoryboard: 1

[Editor]
DistanceSpacing: 1.5
BeatDivisor: 8
GridSize: 4
TimelineZoom: 2.300001

[Metadata]
Title:Anime Endings Madness P.2
TitleUnicode:Anime Endings Madness P.2
Artist:FX
ArtistUnicode:FX
Creator:[FX] AEM
Version:jounetsu continue [FX]
Source:
Tags:ending
BeatmapID:625253
BeatmapSetID:275629

[Difficulty]
HPDrainRate:8
CircleSize:4
OverallDifficulty:8
ApproachRate:0
SliderMultiplier:1.6
SliderTickRate:2

[Events]
//Background and Video events
//Break Periods
//Storyboard Layer 0 (Background)
//Storyboard Layer 1 (Fail)
//Storyboard Layer 2 (Pass)
//Storyboard Layer 3 (Foreground)
//Storyboard Sound Samples

[TimingPoints]
612,303.030303030303,4,2,0,5,1,0

[HitObjects]
448,192,1218,5,0,0:0:0:0:
192,192,1293,1,0,0:0:0:0:
320,192,1369,1,0,0:0:0:0:
64,192,1445,1,0,0:0:0:0:
192,192,1521,1,0,0:0:0:0:
448,192,1521,128,0,1824:0:0:0:0:
320,192,1521,128,0,1824:0:0:0:0:
64,192,1824,1,0,0:0:0:0:
192,192,1824,128,0,2430:0:0:0:0:
448,192,1975,1,0,0:0:0:0:
64,192,2127,1,0,0:0:0:0:
448,192,2278,1,0,0:0:0:0:
320,192,2430,128,0,3036:0:0:0:0:
64,192,2430,1,0,0:0:0:0:
192,192,2581,1,0,0:0:0:0:
64,192,2733,1,0,0:0:0:0:
192,192,2884,1,0,0:0:0:0:
64,192,3036,1,0,0:0:0:0:
448,192,3036,128,0,3642:0:0:0:0:
320,192,3187,1,0,0:0:0:0:
64,192,3339,1,0,0:0:0:0:
320,192,3490,1,0,0:0:0:0:
64,192,3642,1,0,0:0:0:0:
192,192,3642,128,0,4248:0:0:0:0:
448,192,3793,1,0,0:0:0:0:
64,192,3945,1,0,0:0:0:0:
448,192,4096,1,0,0:0:0:0:
64,192,4248,128,0,5460:0:0:0:0:
320,192,4248,1,0,0:0:0:0:
192,192,4399,1,0,0:0:0:0:
320,192,4551,1,0,0:0:0:0:
192,192,4702,1,0,0:0:0:0:
320,192,4854,1,0,0:0:0:0:
192,192,5005,1,0,0:0:0:0:
320,192,5157,1,0,0:0:0:0:
448,192,5308,1,0,0:0:0:0:
192,192,5460,128,0,6672:0:0:0:0:
320,192,5460,1,0,0:0:0:0:
64,192,5611,1,0,0:0:0:0:
320,192,5763,1,0,0:0:0:0:
64,192,5915,1,0,0:0:0:0:
320,192,6066,1,0,0:0:0:0:
320,192,6672,1,0,0:0:0:0:
448,192,6672,1,0,0:0:0:0:
64,192,6672,1,0,0:0:0:0:
192,192,6975,1,0,0:0:0:0:
320,192,6975,1,0,0:0:0:0:
64,192,7127,1,0,0:0:0:0:
320,192,7127,1,0,0:0:0:0:
448,192,7127,1,0,0:0:0:0:
192,192,7430,1,0,0:0:0:0:
320,192,7430,1,0,0:0:0:0:
448,192,7581,1,0,0:0:0:0:
192,192,7581,1,0,0:0:0:0:
64,192,7581,128,0,8036:0:0:0:0:
320,192,8036,1,0,0:0:0:0:
192,192,8111,1,0,0:0:0:0:
320,192,8187,1,0,0:0:0:0:
448,192,8187,1,0,0:0:0:0:
192,192,8339,1,0,0:0:0:0:
320,192,8339,1,0,0:0:0:0:
192,192,8490,1,0,0:0:0:0:
64,192,8490,1,0,0:0:0:0:
448,192,8490,1,0,0:0:0:0:
192,192,8793,1,0,0:0:0:0:
64,192,8793,1,0,0:0:0:0:
320,192,8793,1,0,0:0:0:0:
448,192,8793,1,0,0:0:0:0:
64,192,9096,1,0,0:0:0:0:
448,192,9096,1,0,0:0:0:0:
320,192,9096,128,0,9399:0:0:0:0:
192,192,9399,1,0,0:0:0:0:
448,192,9399,1,0,0:0:0:0:
320,192,9551,1,0,0:0:0:0:
64,192,9551,1,0,0:0:0:0:
192,192,9551,128,0,9854:0:0:0:0:
64,192,9854,1,0,0:0:0:0:
320,192,9854,1,0,0:0:0:0:
192,192,10005,1,0,0:0:0:0:
320,192,10005,1,0,0:0:0:0:
448,192,10005,128,0,10460:0:0:0:0:
64,192,10460,1,0,0:0:0:0:
192,192,10536,1,0,0:0:0:0:
320,192,10612,1,0,0:0:0:0:
192,192,10687,1,0,0:0:0:0:
64,192,10763,1,0,0:0:0:0:
448,192,10763,1,0,0:0:0:0:
320,192,10839,1,0,0:0:0:0:
192,192,10915,1,0,0:0:0:0:
64,192,10990,1,0,0:0:0:0:
448,192,11066,1,0,0:0:0:0:
320,192,11104,1,0,0:0:0:0:
192,192,11142,1,0,0:0:0:0:
64,192,11180,1,0,0:0:0:0:
192,192,11218,1,0,0:0:0:0:
320,192,11255,1,0,0:0:0:0:
448,192,11293,1,0,0:0:0:0:
64,192,11331,1,0,0:0:0:0:
192,192,11369,1,0,0:0:0:0:
320,192,11407,1,0,0:0:0:0:
448,192,11445,1,0,0:0:0:0:
64,192,11521,1,0,0:0:0:0:
192,192,11521,1,0,0:0:0:0:
320,192,11521,1,0,0:0:0:0:
320,192,11672,1,0,0:0:0:0:
192,192,11672,1,0,0:0:0:0:
448,192,11672,1,0,0:0:0:0:
64,192,11824,1,0,0:0:0:0:
64,192,11975,1,0,0:0:0:0:
320,192,12127,1,0,0:0:0:0:
192,192,12278,1,0,0:0:0:0:
448,192,12430,1,0,0:0:0:0:
64,192,12430,1,0,0:0:0:0:
320,192,12581,1,0,0:0:0:0:
192,192,12733,1,0,0:0:0:0:
192,192,12884,1,0,0:0:0:0:
320,192,13036,1,0,0:0:0:0:
64,192,13036,1,0,0:0:0:0:
448,192,13187,1,0,0:0:0:0:
320,192,13339,1,0,0:0:0:0:
192,192,13490,1,0,0:0:0:0:
448,192,13642,1,0,0:0:0:0:
320,192,13642,1,0,0:0:0:0:
64,192,13793,1,0,0:0:0:0:
320,192,13945,1,0,0:0:0:0:
320,192,14096,1,0,0:0:0:0:
192,192,14248,1,0,0:0:0:0:
448,192,14248,1,0,0:0:0:0:
320,192,14399,1,0,0:0:0:0:
320,192,14551,1,0,0:0:0:0:
192,192,14702,1,0,0:0:0:0:
64,192,14854,1,0,0:0:0:0:
448,192,14854,1,0,0:0:0:0:
320,192,15005,1,0,0:0:0:0:
192,192,15157,1,0,0:0:0:0:
320,192,15233,1,0,0:0:0:0:
192,192,15308,1,0,0:0:0:0:
320,192,15384,1,0,0:0:0:0:
192,192,15460,1,0,0:0:0:0:
64,192,15460,1,0,0:0:0:0:
320,192,15611,1,0,0:0:0:0:
448,192,15611,1,0,0:0:0:0:
64,192,15763,1,0,0:0:0:0:
192,192,15839,1,0,0:0:0:0:
64,192,15915,1,0,0:0:0:0:
320,192,15990,1,0,0:0:0:0:
192,192,16066,128,0,16369:0:0:0:0:
320,192,16369,1,0,0:0:0:0:
448,192,16369,1,0,0:0:0:0:
64,192,16369,1,0,0:0:0:0:
64,192,16521,1,0,0:0:0:0:
448,192,16521,1,0,0:0:0:0:
192,192,16521,1,0,0:0:0:0:
320,192,16672,1,0,0:0:0:0:
448,192,16824,1,0,0:0:0:0:
192,192,16975,1,0,0:0:0:0:
192,192,17127,1,0,0:0:0:0:
320,192,17278,1,0,0:0:0:0:
64,192,17278,1,0,0:0:0:0:
448,192,17430,1,0,0:0:0:0:
320,192,17581,1,0,0:0:0:0:
320,192,17733,1,0,0:0:0:0:
192,192,17884,1,0,0:0:0:0:
448,192,17884,1,0,0:0:0:0:
320,192,18036,1,0,0:0:0:0:
320,192,18187,1,0,0:0:0:0:
64,192,18339,1,0,0:0:0:0:
192,192,18339,1,0,0:0:0:0:
320,192,18490,1,0,0:0:0:0:
448,192,18490,1,0,0:0:0:0:
64,192,18642,1,0,0:0:0:0:
192,192,18793,1,0,0:0:0:0:
192,192,18945,1,0,0:0:0:0:
64,192,19096,1,0,0:0:0:0:
448,192,19096,1,0,0:0:0:0:
320,192,19248,1,0,0:0:0:0:
320,192,19399,1,0,0:0:0:0:
320,192,19551,1,0,0:0:0:0:
192,192,19702,1,0,0:0:0:0:
448,192,19702,1,0,0:0:0:0:
320,192,19854,1,0,0:0:0:0:
192,192,20005,1,0,0:0:0:0:
64,192,20005,1,0,0:0:0:0:
64,192,20157,1,0,0:0:0:0:
448,192,20308,1,0,0:0:0:0:
320,192,20308,1,0,0:0:0:0:
192,192,20460,1,0,0:0:0:0:
320,192,20611,1,0,0:0:0:0:
64,192,20611,1,0,0:0:0:0:
448,192,20611,1,0,0:0:0:0:
192,192,20763,1,0,0:0:0:0:
64,192,20763,1,0,0:0:0:0:
448,192,20763,1,0,0:0:0:0:
192,192,21218,1,0,0:0:0:0:
64,192,21218,1,0,0:0:0:0:
448,192,21218,1,0,0:0:0:0:
192,192,21369,1,0,0:0:0:0:
64,192,21521,1,0,0:0:0:0:
192,192,21521,1,0,0:0:0:0:
320,192,21521,1,0,0:0:0:0:
192,192,21672,1,0,0:0:0:0:
192,192,21824,1,0,0:0:0:0:
64,192,21824,1,0,0:0:0:0:
448,192,21824,1,0,0:0:0:0:
192,192,21975,1,0,0:0:0:0:
192,192,22127,1,0,0:0:0:0:
64,192,22127,1,0,0:0:0:0:
320,192,22127,1,0,0:0:0:0:
448,192,22127,1,0,0:0:0:0:
192,192,22278,1,0,0:0:0:0:
192,192,22430,1,0,0:0:0:0:
64,192,22430,1,0,0:0:0:0:
320,192,22430,1,0,0:0:0:0:
192,192,22581,1,0,0:0:0:0:
64,192,22733,1,0,0:0:0:0:
192,192,22733,1,0,0:0:0:0:
448,192,22733,1,0,0:0:0:0:
192,192,22884,1,0,0:0:0:0:
448,192,22960,1,0,0:0:0:0:
192,192,23036,1,0,0:0:0:0:
320,192,23036,1,0,0:0:0:0:
64,192,23036,1,0,0:0:0:0:
192,192,23187,1,0,0:0:0:0:
192,192,23339,1,0,0:0:0:0:
64,192,23339,1,0,0:0:0:0:
448,192,23339,1,0,0:0:0:0:
320,192,23339,1,0,0:0:0:0:
192,192,23490,1,0,0:0:0:0:
64,192,23642,1,0,0:0:0:0:
192,192,23642,1,0,0:0:0:0:
320,192,23642,1,0,0:0:0:0:
192,192,23793,1,0,0:0:0:0:
192,192,23945,1,0,0:0:0:0:
64,192,23945,1,0,0:0:0:0:
448,192,23945,1,0,0:0:0:0:
192,192,24096,1,0,0:0:0:0:
448,192,24172,1,0,0:0:0:0:
64,192,24248,1,0,0:0:0:0:
192,192,24248,1,0,0:0:0:0:
320,192,24248,1,0,0:0:0:0:
192,192,24399,1,0,0:0:0:0:
64,192,24551,1,0,0:0:0:0:
192,192,24551,1,0,0:0:0:0:
448,192,24551,1,0,0:0:0:0:
320,192,24551,1,0,0:0:0:0:
192,192,24702,1,0,0:0:0:0:
192,192,24854,1,0,0:0:0:0:
64,192,24854,1,0,0:0:0:0:
320,192,24854,1,0,0:0:0:0:
192,192,25005,1,0,0:0:0:0:
192,192,25157,1,0,0:0:0:0:
64,192,25157,1,0,0:0:0:0:
448,192,25157,1,0,0:0:0:0:
192,192,25308,1,0,0:0:0:0:
320,192,25384,1,0,0:0:0:0:
192,192,25460,1,0,0:0:0:0:
64,192,25460,1,0,0:0:0:0:
448,192,25460,1,0,0:0:0:0:
192,192,25612,1,0,0:0:0:0:
320,192,25763,1,0,0:0:0:0:
64,192,25763,1,0,0:0:0:0:
448,192,25763,1,0,0:0:0:0:
192,192,25763,1,0,0:0:0:0:
64,192,25915,1,0,0:0:0:0:
448,192,25915,1,0,0:0:0:0:
192,192,26066,1,0,0:0:0:0:
320,192,26066,1,0,0:0:0:0:
448,192,26066,1,0,0:0:0:0:
320,192,26218,1,0,0:0:0:0:
320,192,26369,1,0,0:0:0:0:
64,192,26369,1,0,0:0:0:0:
448,192,26369,1,0,0:0:0:0:
320,192,26521,1,0,0:0:0:0:
192,192,26672,1,0,0:0:0:0:
320,192,26672,1,0,0:0:0:0:
448,192,26672,1,0,0:0:0:0:
320,192,26824,1,0,0:0:0:0:
320,192,26975,1,0,0:0:0:0:
64,192,26975,1,0,0:0:0:0:
448,192,26975,1,0,0:0:0:0:
192,192,26975,1,0,0:0:0:0:
320,192,27127,1,0,0:0:0:0:
320,192,27278,1,0,0:0:0:0:
192,192,27278,1,0,0:0:0:0:
448,192,27278,1,0,0:0:0:0:
320,192,27430,1,0,0:0:0:0:
320,192,27581,1,0,0:0:0:0:
64,192,27581,1,0,0:0:0:0:
448,192,27581,1,0,0:0:0:0:
320,192,27733,1,0,0:0:0:0:
64,192,27808,1,0,0:0:0:0:
192,192,27884,1,0,0:0:0:0:
320,192,27884,1,0,0:0:0:0:
448,192,27884,1,0,0:0:0:0:
320,192,28036,1,0,0:0:0:0:
320,192,28187,1,0,0:0:0:0:
192,192,28187,1,0,0:0:0:0:
448,192,28187,1,0,0:0:0:0:
64,192,28187,1,0,0:0:0:0:
320,192,28339,1,0,0:0:0:0:
320,192,28490,1,0,0:0:0:0:
192,192,28490,1,0,0:0:0:0:
448,192,28490,1,0,0:0:0:0:
320,192,28642,1,0,0:0:0:0:
320,192,28793,1,0,0:0:0:0:
64,192,28793,1,0,0:0:0:0:
448,192,28793,1,0,0:0:0:0:
320,192,28945,1,0,0:0:0:0:
64,192,29021,1,0,0:0:0:0:
192,192,29096,1,0,0:0:0:0:
320,192,29096,1,0,0:0:0:0:
448,192,29096,1,0,0:0:0:0:
320,192,29248,1,0,0:0:0:0:
192,192,29399,1,0,0:0:0:0:
320,192,29399,1,0,0:0:0:0:
448,192,29399,1,0,0:0:0:0:
64,192,29399,1,0,0:0:0:0:
320,192,29551,1,0,0:0:0:0:
320,192,29702,1,0,0:0:0:0:
192,192,29702,1,0,0:0:0:0:
448,192,29702,1,0,0:0:0:0:
64,192,29854,1,0,0:0:0:0:
64,192,29930,1,0,0:0:0:0:
64,192,30005,1,0,0:0:0:0:
448,192,30005,1,0,0:0:0:0:
320,192,30005,1,0,0:0:0:0:
192,192,30157,1,0,0:0:0:0:
320,192,30157,1,0,0:0:0:0:
448,192,30157,1,0,0:0:0:0:
192,192,30308,1,0,0:0:0:0:
64,192,30308,1,0,0:0:0:0:
320,192,30308,1,0,0:0:0:0:
192,192,30460,1,0,0:0:0:0:
320,192,30460,1,0,0:0:0:0:
448,192,30611,1,0,0:0:0:0:
320,192,30649,1,0,0:0:0:0:
192,192,30687,1,0,0:0:0:0:
64,192,30725,1,0,0:0:0:0:
448,192,30763,1,0,0:0:0:0:
320,192,30801,1,0,0:0:0:0:
192,192,30839,1,0,0:0:0:0:
64,192,30877,1,0,0:0:0:0:
320,192,30915,128,0,31369:0:0:0:0:
448,192,30915,128,0,31369:0:0:0:0:
64,192,31369,1,0,0:0:0:0:
192,192,31369,1,0,0:0:0:0:
192,192,31521,1,0,0:0:0:0:
320,192,31521,1,0,0:0:0:0:
448,192,31521,1,0,0:0:0:0:
320,192,31824,1,0,0:0:0:0:
64,192,31824,1,0,0:0:0:0:
64,192,31975,1,0,0:0:0:0:
320,192,31975,1,0,0:0:0:0:
192,192,32127,1,0,0:0:0:0:
320,192,32127,1,0,0:0:0:0:
448,192,32127,1,0,0:0:0:0:
64,192,32278,1,0,0:0:0:0:
320,192,32278,1,0,0:0:0:0:
192,192,32430,1,0,0:0:0:0:
448,192,32430,1,0,0:0:0:0:
64,192,32733,1,0,0:0:0:0:
448,192,32733,1,0,0:0:0:0:
192,192,33036,1,0,0:0:0:0:
320,192,33036,1,0,0:0:0:0:
64,192,33187,1,0,0:0:0:0:
448,192,33187,1,0,0:0:0:0:
192,192,33263,1,0,0:0:0:0:
64,192,33339,1,0,0:0:0:0:
448,192,33339,1,0,0:0:0:0:
320,192,33339,128,0,33793:0:0:0:0:
448,192,33642,1,0,0:0:0:0:
64,192,33793,1,0,0:0:0:0:
192,192,33793,1,0,0:0:0:0:
448,192,33945,1,0,0:0:0:0:
192,192,33945,1,0,0:0:0:0:
320,192,33945,1,0,0:0:0:0:
192,192,34248,1,0,0:0:0:0:
448,192,34248,1,0,0:0:0:0:
320,192,34399,1,0,0:0:0:0:
64,192,34551,1,0,0:0:0:0:
192,192,34551,1,0,0:0:0:0:
448,192,34551,1,0,0:0:0:0:
320,192,34702,1,0,0:0:0:0:
192,192,34854,1,0,0:0:0:0:
64,192,34854,128,0,35157:0:0:0:0:
320,192,35157,1,0,0:0:0:0:
448,192,35157,128,0,35308:0:0:0:0:
192,192,35308,1,0,0:0:0:0:
320,192,35460,128,0,35611:0:0:0:0:
64,192,35460,1,0,0:0:0:0:
192,192,35611,1,0,0:0:0:0:
448,192,35611,1,0,0:0:0:0:
192,192,35763,1,0,0:0:0:0:
320,192,35763,1,0,0:0:0:0:
64,192,35763,128,0,36975:0:0:0:0:
320,192,36066,1,0,0:0:0:0:
448,192,36066,1,0,0:0:0:0:
320,192,36672,1,0,0:0:0:0:
448,192,36672,1,0,0:0:0:0:
448,192,36824,1,0,0:0:0:0:
320,192,36975,1,0,0:0:0:0:
448,192,36975,1,0,0:0:0:0:
192,192,36975,128,0,37581:0:0:0:0:
64,192,37278,1,0,0:0:0:0:
448,192,37278,1,0,0:0:0:0:
320,192,37581,128,0,37884:0:0:0:0:
64,192,37884,1,0,0:0:0:0:
192,192,37884,1,0,0:0:0:0:
448,192,38036,1,0,0:0:0:0:
320,192,38111,1,0,0:0:0:0:
448,192,38187,1,0,0:0:0:0:
64,192,38187,1,0,0:0:0:0:
192,192,38187,1,0,0:0:0:0:
320,192,38490,1,0,0:0:0:0:
192,192,38490,1,0,0:0:0:0:
64,192,38642,1,0,0:0:0:0:
192,192,38718,1,0,0:0:0:0:
64,192,38793,1,0,0:0:0:0:
320,192,38793,1,0,0:0:0:0:
448,192,38793,1,0,0:0:0:0:
192,192,39096,1,0,0:0:0:0:
320,192,39096,1,0,0:0:0:0:
448,192,39248,1,0,0:0:0:0:
320,192,39324,1,0,0:0:0:0:
192,192,39399,1,0,0:0:0:0:
64,192,39399,1,0,0:0:0:0:
448,192,39399,1,0,0:0:0:0:
320,192,39551,1,0,0:0:0:0:
192,192,39551,1,0,0:0:0:0:
192,192,39702,1,0,0:0:0:0:
64,192,39702,1,0,0:0:0:0:
448,192,39702,1,0,0:0:0:0:
320,192,39854,1,0,0:0:0:0:
192,192,39854,1,0,0:0:0:0:
192,192,40005,1,0,0:0:0:0:
64,192,40005,1,0,0:0:0:0:
448,192,40005,128,0,40157:0:0:0:0:
320,192,40081,1,0,0:0:0:0:
320,192,40157,128,0,40308:0:0:0:0:
192,192,40233,1,0,0:0:0:0:
192,192,40308,128,0,40460:0:0:0:0:
64,192,40384,1,0,0:0:0:0:
64,192,40460,1,0,0:0:0:0:
448,192,40460,1,0,0:0:0:0:
448,192,40536,1,0,0:0:0:0:
320,192,40611,128,0,40687:0:0:0:0:
320,192,40763,128,0,40839:0:0:0:0:
320,192,40915,128,0,40990:0:0:0:0:
320,192,41066,128,0,41142:0:0:0:0:
320,192,41218,128,0,41293:0:0:0:0:
320,192,41369,1,0,0:0:0:0:
192,192,41445,1,0,0:0:0:0:
320,192,41521,1,0,0:0:0:0:
64,192,41521,1,0,0:0:0:0:
448,192,41521,128,0,41824:0:0:0:0:
64,192,41824,1,0,0:0:0:0:
192,192,41824,1,0,0:0:0:0:
320,192,41824,1,0,0:0:0:0:
64,192,41975,1,0,0:0:0:0:
320,192,41975,1,0,0:0:0:0:
320,192,42127,1,0,0:0:0:0:
448,192,42127,1,0,0:0:0:0:
192,192,42127,1,0,0:0:0:0:
320,192,42278,1,0,0:0:0:0:
64,192,42278,1,0,0:0:0:0:
320,192,42430,1,0,0:0:0:0:
192,192,42430,1,0,0:0:0:0:
448,192,42430,1,0,0:0:0:0:
320,192,42581,1,0,0:0:0:0:
64,192,42581,1,0,0:0:0:0:
320,192,42733,1,0,0:0:0:0:
448,192,42733,1,0,0:0:0:0:
192,192,42733,1,0,0:0:0:0:
64,192,42884,1,0,0:0:0:0:
448,192,42884,1,0,0:0:0:0:
320,192,43036,1,0,0:0:0:0:
192,192,43036,1,0,0:0:0:0:
192,192,43187,1,0,0:0:0:0:
448,192,43187,1,0,0:0:0:0:
320,192,43339,1,0,0:0:0:0:
192,192,43339,1,0,0:0:0:0:
64,192,43339,1,0,0:0:0:0:
192,192,43490,1,0,0:0:0:0:
448,192,43490,1,0,0:0:0:0:
320,192,43642,1,0,0:0:0:0:
64,192,43642,1,0,0:0:0:0:
192,192,43793,1,0,0:0:0:0:
448,192,43793,1,0,0:0:0:0:
320,192,43945,1,0,0:0:0:0:
192,192,43945,1,0,0:0:0:0:
64,192,43945,1,0,0:0:0:0:
448,192,44096,1,0,0:0:0:0:
320,192,44172,1,0,0:0:0:0:
192,192,44248,1,0,0:0:0:0:
64,192,44248,1,0,0:0:0:0:
320,192,44399,1,0,0:0:0:0:
192,192,44399,1,0,0:0:0:0:
448,192,44551,1,0,0:0:0:0:
320,192,44551,1,0,0:0:0:0:
64,192,44551,1,0,0:0:0:0:
192,192,44702,1,0,0:0:0:0:
448,192,44702,1,0,0:0:0:0:
64,192,44854,1,0,0:0:0:0:
320,192,44854,1,0,0:0:0:0:
192,192,45005,1,0,0:0:0:0:
448,192,45005,1,0,0:0:0:0:
320,192,45157,1,0,0:0:0:0:
64,192,45157,1,0,0:0:0:0:
192,192,45157,1,0,0:0:0:0:
320,192,45308,1,0,0:0:0:0:
448,192,45308,1,0,0:0:0:0:
192,192,45460,1,0,0:0:0:0:
64,192,45460,1,0,0:0:0:0:
448,192,45460,1,0,0:0:0:0:
320,192,45611,1,0,0:0:0:0:
64,192,45611,1,0,0:0:0:0:
192,192,45763,1,0,0:0:0:0:
320,192,45763,1,0,0:0:0:0:
448,192,45763,1,0,0:0:0:0:
64,192,45915,1,0,0:0:0:0:
320,192,45915,1,0,0:0:0:0:
192,192,46066,1,0,0:0:0:0:
448,192,46066,1,0,0:0:0:0:
320,192,46218,1,0,0:0:0:0:
64,192,46218,1,0,0:0:0:0:
192,192,46369,1,0,0:0:0:0:
320,192,46369,1,0,0:0:0:0:
448,192,46369,1,0,0:0:0:0:
64,192,46521,1,0,0:0:0:0:
192,192,46596,1,0,0:0:0:0:
448,192,46596,1,0,0:0:0:0:
320,192,46672,1,0,0:0:0:0:
64,192,46672,1,0,0:0:0:0:
448,192,46824,1,0,0:0:0:0:
64,192,46824,1,0,0:0:0:0:
320,192,46975,1,0,0:0:0:0:
192,192,46975,1,0,0:0:0:0:
448,192,46975,1,0,0:0:0:0:
64,192,47127,1,0,0:0:0:0:
320,192,47127,1,0,0:0:0:0:
320,192,47202,1,0,0:0:0:0:
192,192,47278,1,0,0:0:0:0:
448,192,47278,1,0,0:0:0:0:
320,192,47430,1,0,0:0:0:0:
64,192,47430,1,0,0:0:0:0:
192,192,47581,1,0,0:0:0:0:
448,192,47581,1,0,0:0:0:0:
320,192,47581,1,0,0:0:0:0:
64,192,47581,1,0,0:0:0:0:
192,192,47733,1,0,0:0:0:0:
448,192,47733,1,0,0:0:0:0:
320,192,47884,1,0,0:0:0:0:
64,192,47884,1,0,0:0:0:0:
64,192,48036,1,0,0:0:0:0:
192,192,48036,1,0,0:0:0:0:
192,192,48187,1,0,0:0:0:0:
320,192,48187,1,0,0:0:0:0:
448,192,48187,1,0,0:0:0:0:
64,192,48339,1,0,0:0:0:0:
320,192,48339,1,0,0:0:0:0:
192,192,48490,1,0,0:0:0:0:
448,192,48490,1,0,0:0:0:0:
320,192,48642,1,0,0:0:0:0:
64,192,48642,1,0,0:0:0:0:
192,192,48793,1,0,0:0:0:0:
64,192,48793,1,0,0:0:0:0:
320,192,48793,1,0,0:0:0:0:
448,192,48793,1,0,0:0:0:0:
448,192,48945,1,0,0:0:0:0:
320,192,48945,1,0,0:0:0:0:
64,192,49021,1,0,0:0:0:0:
192,192,49096,1,0,0:0:0:0:
320,192,49096,1,0,0:0:0:0:
448,192,49096,1,0,0:0:0:0:
192,192,49248,1,0,0:0:0:0:
448,192,49248,1,0,0:0:0:0:
320,192,49399,1,0,0:0:0:0:
192,192,49399,1,0,0:0:0:0:
64,192,49399,1,0,0:0:0:0:
64,192,49551,1,0,0:0:0:0:
320,192,49551,1,0,0:0:0:0:
448,192,49627,1,0,0:0:0:0:
320,192,49702,1,0,0:0:0:0:
192,192,49702,1,0,0:0:0:0:
64,192,49854,1,0,0:0:0:0:
320,192,49854,1,0,0:0:0:0:
192,192,50005,1,0,0:0:0:0:
320,192,50005,1,0,0:0:0:0:
448,192,50005,1,0,0:0:0:0:
192,192,50157,1,0,0:0:0:0:
320,192,50157,1,0,0:0:0:0:
64,192,50157,128,0,50460:0:0:0:0:
192,192,50460,1,0,0:0:0:0:
320,192,50460,1,0,0:0:0:0:
192,192,50611,1,0,0:0:0:0:
64,192,50611,1,0,0:0:0:0:
448,192,50611,1,0,0:0:0:0:
320,192,50763,1,0,0:0:0:0:
192,192,50915,1,0,0:0:0:0:
448,192,50915,1,0,0:0:0:0:
320,192,50990,1,0,0:0:0:0:
192,192,51066,1,0,0:0:0:0:
64,192,51142,1,0,0:0:0:0:
320,192,51218,1,0,0:0:0:0:
448,192,51218,1,0,0:0:0:0:
192,192,51293,1,0,0:0:0:0:
64,192,51293,1,0,0:0:0:0:
320,192,51369,1,0,0:0:0:0:
448,192,51369,1,0,0:0:0:0:
64,192,51445,1,0,0:0:0:0:
192,192,51521,1,0,0:0:0:0:
320,192,51521,1,0,0:0:0:0:
448,192,51521,1,0,0:0:0:0:
64,192,51672,1,0,0:0:0:0:
320,192,51672,1,0,0:0:0:0:
192,192,51824,1,0,0:0:0:0:
448,192,51824,1,0,0:0:0:0:
320,192,51824,1,0,0:0:0:0:
64,192,51975,1,0,0:0:0:0:
320,192,51975,1,0,0:0:0:0:
192,192,52127,1,0,0:0:0:0:
448,192,52127,1,0,0:0:0:0:
320,192,52278,1,0,0:0:0:0:
64,192,52278,1,0,0:0:0:0:
192,192,52430,1,0,0:0:0:0:
448,192,52430,1,0,0:0:0:0:
320,192,52430,1,0,0:0:0:0:
64,192,52581,1,0,0:0:0:0:
64,192,52733,1,0,0:0:0:0:
320,192,52733,1,0,0:0:0:0:
192,192,52884,1,0,0:0:0:0:
448,192,52884,1,0,0:0:0:0:
192,192,53036,1,0,0:0:0:0:
320,192,53036,1,0,0:0:0:0:
64,192,53036,1,0,0:0:0:0:
192,192,53187,1,0,0:0:0:0:
448,192,53187,1,0,0:0:0:0:
320,192,53339,1,0,0:0:0:0:
64,192,53339,1,0,0:0:0:0:
192,192,53490,1,0,0:0:0:0:
448,192,53490,1,0,0:0:0:0:
320,192,53642,1,0,0:0:0:0:
192,192,53642,1,0,0:0:0:0:
64,192,53642,1,0,0:0:0:0:
320,192,53793,1,0,0:0:0:0:
192,192,53869,1,0,0:0:0:0:
64,192,53869,1,0,0:0:0:0:
320,192,53945,1,0,0:0:0:0:
448,192,53945,1,0,0:0:0:0:
64,192,54096,1,0,0:0:0:0:
448,192,54096,1,0,0:0:0:0:
320,192,54248,1,0,0:0:0:0:
64,192,54248,1,0,0:0:0:0:
192,192,54248,1,0,0:0:0:0:
192,192,54399,1,0,0:0:0:0:
448,192,54399,1,0,0:0:0:0:
320,192,54551,1,0,0:0:0:0:
64,192,54551,1,0,0:0:0:0:
192,192,54702,1,0,0:0:0:0:
448,192,54702,1,0,0:0:0:0:
64,192,54854,1,0,0:0:0:0:
448,192,54854,1,0,0:0:0:0:
320,192,54854,128,0,55157:0:0:0:0:
64,192,55157,1,0,0:0:0:0:
192,192,55157,1,0,0:0:0:0:
192,192,55308,1,0,0:0:0:0:
448,192,55308,1,0,0:0:0:0:
320,192,55460,1,0,0:0:0:0:
64,192,55460,1,0,0:0:0:0:
448,192,55460,1,0,0:0:0:0:
192,192,55611,1,0,0:0:0:0:
448,192,55611,1,0,0:0:0:0:
64,192,55763,1,0,0:0:0:0:
320,192,55763,1,0,0:0:0:0:
192,192,55915,1,0,0:0:0:0:
448,192,55915,1,0,0:0:0:0:
320,192,56066,1,0,0:0:0:0:
192,192,56066,1,0,0:0:0:0:
64,192,56066,1,0,0:0:0:0:
448,192,56218,1,0,0:0:0:0:
320,192,56293,1,0,0:0:0:0:
192,192,56369,1,0,0:0:0:0:
64,192,56369,1,0,0:0:0:0:
320,192,56521,1,0,0:0:0:0:
448,192,56521,1,0,0:0:0:0:
192,192,56672,1,0,0:0:0:0:
320,192,56672,1,0,0:0:0:0:
64,192,56672,1,0,0:0:0:0:
448,192,56824,1,0,0:0:0:0:
320,192,56824,1,0,0:0:0:0:
64,192,56975,1,0,0:0:0:0:
192,192,56975,1,0,0:0:0:0:
192,192,57127,1,0,0:0:0:0:
320,192,57127,1,0,0:0:0:0:
64,192,57278,1,0,0:0:0:0:
320,192,57278,1,0,0:0:0:0:
448,192,57278,1,0,0:0:0:0:
192,192,57278,1,0,0:0:0:0:
64,192,57430,1,0,0:0:0:0:
448,192,57430,1,0,0:0:0:0:
320,192,57581,1,0,0:0:0:0:
192,192,57581,1,0,0:0:0:0:
64,192,57733,1,0,0:0:0:0:
320,192,57733,1,0,0:0:0:0:
192,192,57884,1,0,0:0:0:0:
320,192,57884,1,0,0:0:0:0:
448,192,57884,1,0,0:0:0:0:
64,192,58036,1,0,0:0:0:0:
448,192,58036,1,0,0:0:0:0:
320,192,58187,1,0,0:0:0:0:
192,192,58187,1,0,0:0:0:0:
64,192,58339,1,0,0:0:0:0:
448,192,58339,1,0,0:0:0:0:
192,192,58490,1,0,0:0:0:0:
64,192,58490,1,0,0:0:0:0:
320,192,58490,1,0,0:0:0:0:
448,192,58490,1,0,0:0:0:0:
192,192,58642,1,0,0:0:0:0:
320,192,58642,1,0,0:0:0:0:
64,192,58793,1,0,0:0:0:0:
192,192,58793,1,0,0:0:0:0:
448,192,58793,1,0,0:0:0:0:
64,192,58945,1,0,0:0:0:0:
320,192,59096,1,0,0:0:0:0:
64,192,59096,1,0,0:0:0:0:
448,192,59096,1,0,0:0:0:0:
192,192,59248,1,0,0:0:0:0:
320,192,59324,1,0,0:0:0:0:
448,192,59324,1,0,0:0:0:0:
192,192,59399,1,0,0:0:0:0:
64,192,59399,1,0,0:0:0:0:
64,192,59551,5,0,0:0:0:0:
320,192,59551,1,0,0:0:0:0:
192,192,59702,1,0,0:0:0:0:
448,192,59702,1,0,0:0:0:0:
320,192,59702,1,0,0:0:0:0:
320,192,59854,1,0,0:0:0:0:
192,192,59854,1,0,0:0:0:0:
64,192,59854,128,0,60157:0:0:0:0:
192,192,60157,1,0,0:0:0:0:
448,192,60157,1,0,0:0:0:0:
320,192,60308,1,0,0:0:0:0:
192,192,60308,1,0,0:0:0:0:
64,192,60308,1,0,0:0:0:0:
64,192,60460,1,0,0:0:0:0:
320,192,60460,1,0,0:0:0:0:
320,192,60611,1,0,0:0:0:0:
448,192,60611,1,0,0:0:0:0:
192,192,60687,1,0,0:0:0:0:
448,192,60763,1,0,0:0:0:0:
320,192,60763,1,0,0:0:0:0:
64,192,60839,1,0,0:0:0:0:
448,192,60915,1,0,0:0:0:0:
320,192,60915,1,0,0:0:0:0:
192,192,60965,1,0,0:0:0:0:
64,192,61016,1,0,0:0:0:0:
192,192,61066,1,0,0:0:0:0:
320,192,61117,1,0,0:0:0:0:
448,192,61167,1,0,0:0:0:0:
64,192,61218,5,0,0:0:0:0:
192,192,61218,1,0,0:0:0:0:
320,192,61218,1,0,0:0:0:0:
192,192,61369,1,0,0:0:0:0:
448,192,61369,1,0,0:0:0:0:
320,192,61521,1,0,0:0:0:0:
64,192,61521,1,0,0:0:0:0:
448,192,61521,1,0,0:0:0:0:
192,192,61672,1,0,0:0:0:0:
448,192,61672,1,0,0:0:0:0:
64,192,61824,1,0,0:0:0:0:
320,192,61824,1,0,0:0:0:0:
448,192,61824,1,0,0:0:0:0:
192,192,61975,1,0,0:0:0:0:
448,192,61975,1,0,0:0:0:0:
320,192,62127,1,0,0:0:0:0:
64,192,62127,1,0,0:0:0:0:
448,192,62278,1,0,0:0:0:0:
64,192,62430,1,0,0:0:0:0:
192,192,62430,1,0,0:0:0:0:
448,192,62430,1,0,0:0:0:0:
320,192,62581,1,0,0:0:0:0:
192,192,62733,1,0,0:0:0:0:
64,192,62733,1,0,0:0:0:0:
448,192,62733,1,0,0:0:0:0:
320,192,62884,1,0,0:0:0:0:
64,192,62884,1,0,0:0:0:0:
192,192,63036,1,0,0:0:0:0:
64,192,63036,1,0,0:0:0:0:
448,192,63036,1,0,0:0:0:0:
64,192,63187,1,0,0:0:0:0:
320,192,63187,1,0,0:0:0:0:
192,192,63339,1,0,0:0:0:0:
64,192,63339,1,0,0:0:0:0:
448,192,63339,1,0,0:0:0:0:
192,192,63490,1,0,0:0:0:0:
64,192,63642,1,0,0:0:0:0:
320,192,63642,1,0,0:0:0:0:
448,192,63642,1,0,0:0:0:0:
192,192,63793,1,0,0:0:0:0:
64,192,63945,1,0,0:0:0:0:
320,192,63945,1,0,0:0:0:0:
448,192,63945,1,0,0:0:0:0:
320,192,64096,1,0,0:0:0:0:
192,192,64096,1,0,0:0:0:0:
64,192,64248,1,0,0:0:0:0:
320,192,64248,1,0,0:0:0:0:
448,192,64248,1,0,0:0:0:0:
192,192,64399,1,0,0:0:0:0:
320,192,64551,1,0,0:0:0:0:
64,192,64551,1,0,0:0:0:0:
448,192,64551,1,0,0:0:0:0:
192,192,64702,1,0,0:0:0:0:
320,192,64702,1,0,0:0:0:0:
64,192,64854,1,0,0:0:0:0:
320,192,64854,1,0,0:0:0:0:
448,192,64854,1,0,0:0:0:0:
192,192,65005,1,0,0:0:0:0:
64,192,65157,1,0,0:0:0:0:
320,192,65157,1,0,0:0:0:0:
448,192,65157,1,0,0:0:0:0:
192,192,65308,1,0,0:0:0:0:
320,192,65308,1,0,0:0:0:0:
320,192,65460,1,0,0:0:0:0:
64,192,65460,1,0,0:0:0:0:
448,192,65460,1,0,0:0:0:0:
192,192,65611,1,0,0:0:0:0:
320,192,65611,1,0,0:0:0:0:
320,192,65763,1,0,0:0:0:0:
64,192,65763,1,0,0:0:0:0:
448,192,65763,1,0,0:0:0:0:
320,192,65915,1,0,0:0:0:0:
320,192,65990,1,0,0:0:0:0:
192,192,66066,1,0,0:0:0:0:
64,192,66066,1,0,0:0:0:0:
448,192,66066,1,0,0:0:0:0:
192,192,66218,1,0,0:0:0:0:
192,192,66369,1,0,0:0:0:0:
64,192,66369,1,0,0:0:0:0:
448,192,66369,1,0,0:0:0:0:
192,192,66521,1,0,0:0:0:0:
320,192,66521,1,0,0:0:0:0:
192,192,66672,1,0,0:0:0:0:
64,192,66672,1,0,0:0:0:0:
448,192,66672,1,0,0:0:0:0:
320,192,66824,1,0,0:0:0:0:
192,192,66975,1,0,0:0:0:0:
64,192,66975,1,0,0:0:0:0:
448,192,66975,1,0,0:0:0:0:
320,192,67127,1,0,0:0:0:0:
192,192,67127,1,0,0:0:0:0:
192,192,67278,1,0,0:0:0:0:
64,192,67278,1,0,0:0:0:0:
448,192,67278,1,0,0:0:0:0:
320,192,67430,1,0,0:0:0:0:
192,192,67581,1,0,0:0:0:0:
64,192,67581,1,0,0:0:0:0:
448,192,67581,1,0,0:0:0:0:
320,192,67733,1,0,0:0:0:0:
192,192,67733,1,0,0:0:0:0:
192,192,67884,1,0,0:0:0:0:
64,192,67884,1,0,0:0:0:0:
448,192,67884,1,0,0:0:0:0:
320,192,68036,1,0,0:0:0:0:
192,192,68036,1,0,0:0:0:0:
192,192,68187,1,0,0:0:0:0:
64,192,68187,1,0,0:0:0:0:
448,192,68187,1,0,0:0:0:0:
64,192,68339,1,0,0:0:0:0:
192,192,68490,1,0,0:0:0:0:
320,192,68490,1,0,0:0:0:0:
448,192,68490,1,0,0:0:0:0:
64,192,68642,1,0,0:0:0:0:
448,192,68793,1,0,0:0:0:0:
192,192,68793,1,0,0:0:0:0:
320,192,68793,1,0,0:0:0:0:
64,192,68945,1,0,0:0:0:0:
448,192,68945,1,0,0:0:0:0:
192,192,69096,1,0,0:0:0:0:
320,192,69096,1,0,0:0:0:0:
448,192,69096,1,0,0:0:0:0:
64,192,69248,1,0,0:0:0:0:
192,192,69399,1,0,0:0:0:0:
320,192,69399,1,0,0:0:0:0:
448,192,69399,1,0,0:0:0:0:
64,192,69551,1,0,0:0:0:0:
192,192,69702,1,0,0:0:0:0:
320,192,69702,1,0,0:0:0:0:
448,192,69702,1,0,0:0:0:0:
64,192,69854,1,0,0:0:0:0:
448,192,69854,1,0,0:0:0:0:
192,192,70005,1,0,0:0:0:0:
320,192,70005,1,0,0:0:0:0:
448,192,70005,1,0,0:0:0:0:
64,192,70157,1,0,0:0:0:0:
192,192,70157,1,0,0:0:0:0:
320,192,70233,1,0,0:0:0:0:
192,192,70308,1,0,0:0:0:0:
64,192,70308,1,0,0:0:0:0:
448,192,70308,1,0,0:0:0:0:
320,192,70384,1,0,0:0:0:0:
192,192,70460,1,0,0:0:0:0:
64,192,70460,1,0,0:0:0:0:
320,192,70536,1,0,0:0:0:0:
192,192,70611,1,0,0:0:0:0:
64,192,70611,1,0,0:0:0:0:
448,192,70611,1,0,0:0:0:0:
320,192,70687,1,0,0:0:0:0:
192,192,70763,1,0,0:0:0:0:
64,192,70763,1,0,0:0:0:0:
320,192,70839,1,0,0:0:0:0:
192,192,70915,1,0,0:0:0:0:
448,192,70915,1,0,0:0:0:0:
64,192,70915,1,0,0:0:0:0:
320,192,71824,1,0,0:0:0:0:
192,192,71975,1,0,0:0:0:0:
320,192,72127,1,0,0:0:0:0:
448,192,72127,1,0,0:0:0:0:
64,192,72127,1,0,0:0:0:0:
192,192,72278,1,0,0:0:0:0:
320,192,72354,1,0,0:0:0:0:
192,192,72430,1,0,0:0:0:0:
320,192,72657,1,0,0:0:0:0:
448,192,72657,1,0,0:0:0:0:
320,192,72808,1,0,0:0:0:0:
192,192,72808,1,0,0:0:0:0:
64,192,72960,1,0,0:0:0:0:
192,192,73111,1,0,0:0:0:0:
320,192,73263,1,0,0:0:0:0:
192,192,73490,1,0,0:0:0:0:
64,192,73490,1,0,0:0:0:0:
320,192,73490,1,0,0:0:0:0:
448,192,73490,128,0,76672:0:0:0:0:
64,192,73869,1,0,0:0:0:0:
192,192,73869,1,0,0:0:0:0:
64,192,74021,1,0,0:0:0:0:
192,192,74021,1,0,0:0:0:0:
192,192,74172,1,0,0:0:0:0:
64,192,74172,1,0,0:0:0:0:
192,192,74324,1,0,0:0:0:0:
320,192,74324,1,0,0:0:0:0:
192,192,74702,1,0,0:0:0:0:
320,192,75081,1,0,0:0:0:0:
64,192,75081,1,0,0:0:0:0:
192,192,75536,1,0,0:0:0:0:
192,192,75915,128,0,76672:0:0:0:0:
320,192,76672,128,0,79930:0:0:0:0:
448,192,77051,1,0,0:0:0:0:
64,192,77051,1,0,0:0:0:0:
64,192,77202,1,0,0:0:0:0:
448,192,77202,1,0,0:0:0:0:
64,192,77354,1,0,0:0:0:0:
448,192,77354,1,0,0:0:0:0:
192,192,77505,1,0,0:0:0:0:
64,192,77884,1,0,0:0:0:0:
448,192,78074,1,0,0:0:0:0:
64,192,78339,1,0,0:0:0:0:
192,192,78339,1,0,0:0:0:0:
448,192,78718,1,0,0:0:0:0:
192,192,79096,128,0,79930:0:0:0:0:
64,192,79930,1,0,0:0:0:0:
448,192,79930,1,0,0:0:0:0:
448,192,80308,1,0,0:0:0:0:
64,192,80308,1,0,0:0:0:0:
448,192,80422,1,0,0:0:0:0:
64,192,80422,1,0,0:0:0:0:
448,192,80536,1,0,0:0:0:0:
64,192,80536,1,0,0:0:0:0:
320,192,80649,1,0,0:0:0:0:
192,192,80649,128,0,81521:0:0:0:0:
320,192,81142,128,0,81521:0:0:0:0:
448,192,81369,1,0,0:0:0:0:
64,192,81521,1,0,0:0:0:0:
448,192,81899,1,0,0:0:0:0:
64,192,81899,1,0,0:0:0:0:
192,192,82278,1,0,0:0:0:0:
320,192,82278,128,0,83111:0:0:0:0:
448,192,83111,128,0,83793:0:0:0:0:
64,192,83111,1,0,0:0:0:0:
64,192,83490,1,0,0:0:0:0:
64,192,83642,1,0,0:0:0:0:
320,192,83793,128,0,84399:0:0:0:0:
64,192,83793,1,0,0:0:0:0:
192,192,83945,1,0,0:0:0:0:
448,192,84399,128,0,84551:0:0:0:0:
320,192,84551,128,0,84854:0:0:0:0:
192,192,84854,128,0,85839:0:0:0:0:
448,192,85346,1,0,0:0:0:0:
320,192,85839,128,0,86899:0:0:0:0:
448,192,85839,1,0,0:0:0:0:
64,192,86899,1,0,0:0:0:0:
192,192,86975,1,0,0:0:0:0:
320,192,87051,1,0,0:0:0:0:
448,192,87051,128,0,88111:0:0:0:0:
