osu file format v13

[General]
AudioFilename: aliez.mp3
AudioLeadIn: 2000
PreviewTime: 57795
Countdown: 0
SampleSet: None
StackLeniency: 0.7
Mode: 3
LetterboxInBreaks: 0
SpecialStyle: 0
WidescreenStoryboard: 1

[Editor]
DistanceSpacing: 1.5
BeatDivisor: 8
GridSize: 4
TimelineZoom: 2.300001

[Metadata]
Title:Anime Endings Madness P.2
TitleUnicode:Anime Endings Madness P.2
Artist:FX
ArtistUnicode:FX
Creator:[FX] AEM
Version:aLIEz [FX]
Source:
Tags:ending
BeatmapID:625243
BeatmapSetID:275629

[Difficulty]
HPDrainRate:8
CircleSize:4
OverallDifficulty:8
ApproachRate:0
SliderMultiplier:1.6
SliderTickRate:2

[Events]
//Background and Video events
//Break Periods
//Storyboard Layer 0 (Background)
//Storyboard Layer 1 (Fail)
//Storyboard Layer 2 (Pass)
//Storyboard Layer 3 (Foreground)
//Storyboard Sound Samples

[TimingPoints]
580,606.060606060606,4,2,0,5,1,0

[HitObjects]
448,192,276,128,0,580:0:0:0:0:
64,192,580,1,0,0:0:0:0:
192,192,580,1,0,0:0:0:0:
320,192,580,1,0,0:0:0:0:
64,192,731,1,0,0:0:0:0:
320,192,883,1,0,0:0:0:0:
192,192,1034,1,0,0:0:0:0:
64,192,1034,1,0,0:0:0:0:
320,192,1186,1,0,0:0:0:0:
192,192,1186,1,0,0:0:0:0:
448,192,1186,1,0,0:0:0:0:
448,192,1337,1,0,0:0:0:0:
320,192,1489,1,0,0:0:0:0:
64,192,1489,1,0,0:0:0:0:
192,192,1640,1,0,0:0:0:0:
320,192,1640,1,0,0:0:0:0:
448,192,1792,1,0,0:0:0:0:
320,192,1943,1,0,0:0:0:0:
64,192,1943,1,0,0:0:0:0:
448,192,2095,1,0,0:0:0:0:
320,192,2246,1,0,0:0:0:0:
192,192,2398,1,0,0:0:0:0:
64,192,2398,1,0,0:0:0:0:
448,192,2398,128,0,2701:0:0:0:0:
192,192,2701,128,0,3004:0:0:0:0:
448,192,3004,1,0,0:0:0:0:
320,192,3004,1,0,0:0:0:0:
64,192,3004,1,0,0:0:0:0:
64,192,3155,1,0,0:0:0:0:
192,192,3307,1,0,0:0:0:0:
64,192,3458,1,0,0:0:0:0:
320,192,3458,1,0,0:0:0:0:
192,192,3610,1,0,0:0:0:0:
320,192,3610,1,0,0:0:0:0:
448,192,3610,1,0,0:0:0:0:
64,192,3761,1,0,0:0:0:0:
192,192,3913,1,0,0:0:0:0:
448,192,3913,1,0,0:0:0:0:
192,192,4064,1,0,0:0:0:0:
448,192,4064,1,0,0:0:0:0:
320,192,4216,1,0,0:0:0:0:
64,192,4367,1,0,0:0:0:0:
448,192,4519,1,0,0:0:0:0:
192,192,4670,1,0,0:0:0:0:
320,192,4670,1,0,0:0:0:0:
64,192,4822,1,0,0:0:0:0:
320,192,4822,1,0,0:0:0:0:
448,192,4822,1,0,0:0:0:0:
192,192,4973,1,0,0:0:0:0:
64,192,5125,1,0,0:0:0:0:
320,192,5276,1,0,0:0:0:0:
192,192,5428,1,0,0:0:0:0:
64,192,5428,1,0,0:0:0:0:
448,192,5428,1,0,0:0:0:0:
320,192,5580,1,0,0:0:0:0:
192,192,5731,1,0,0:0:0:0:
64,192,5883,1,0,0:0:0:0:
320,192,5883,1,0,0:0:0:0:
320,192,6034,1,0,0:0:0:0:
448,192,6034,1,0,0:0:0:0:
192,192,6034,1,0,0:0:0:0:
64,192,6186,1,0,0:0:0:0:
320,192,6337,1,0,0:0:0:0:
192,192,6337,1,0,0:0:0:0:
320,192,6489,1,0,0:0:0:0:
192,192,6489,1,0,0:0:0:0:
64,192,6640,1,0,0:0:0:0:
192,192,6792,1,0,0:0:0:0:
320,192,6792,1,0,0:0:0:0:
448,192,6943,1,0,0:0:0:0:
192,192,7095,1,0,0:0:0:0:
320,192,7246,1,0,0:0:0:0:
64,192,7246,1,0,0:0:0:0:
448,192,7246,128,0,7852:0:0:0:0:
64,192,7549,1,0,0:0:0:0:
64,192,7852,1,0,0:0:0:0:
192,192,7852,1,0,0:0:0:0:
320,192,7852,1,0,0:0:0:0:
448,192,8004,1,0,0:0:0:0:
320,192,8155,1,0,0:0:0:0:
448,192,8307,1,0,0:0:0:0:
192,192,8307,1,0,0:0:0:0:
320,192,8458,1,0,0:0:0:0:
192,192,8458,1,0,0:0:0:0:
64,192,8458,1,0,0:0:0:0:
448,192,8610,1,0,0:0:0:0:
320,192,8761,1,0,0:0:0:0:
64,192,8761,1,0,0:0:0:0:
320,192,8913,1,0,0:0:0:0:
64,192,8913,1,0,0:0:0:0:
192,192,9064,1,0,0:0:0:0:
320,192,9216,1,0,0:0:0:0:
64,192,9216,1,0,0:0:0:0:
448,192,9216,1,0,0:0:0:0:
192,192,9519,1,0,0:0:0:0:
320,192,9519,1,0,0:0:0:0:
64,192,9670,1,0,0:0:0:0:
320,192,9670,1,0,0:0:0:0:
448,192,9670,128,0,9973:0:0:0:0:
192,192,9973,128,0,10276:0:0:0:0:
320,192,10276,1,0,0:0:0:0:
64,192,10276,1,0,0:0:0:0:
448,192,10276,1,0,0:0:0:0:
192,192,10428,1,0,0:0:0:0:
64,192,10579,1,0,0:0:0:0:
192,192,10731,1,0,0:0:0:0:
320,192,10731,1,0,0:0:0:0:
64,192,10883,1,0,0:0:0:0:
320,192,10883,1,0,0:0:0:0:
448,192,10883,1,0,0:0:0:0:
192,192,11034,1,0,0:0:0:0:
64,192,11186,1,0,0:0:0:0:
448,192,11186,1,0,0:0:0:0:
448,192,11337,1,0,0:0:0:0:
64,192,11337,1,0,0:0:0:0:
320,192,11489,1,0,0:0:0:0:
192,192,11640,1,0,0:0:0:0:
448,192,11640,1,0,0:0:0:0:
320,192,11792,1,0,0:0:0:0:
64,192,11943,1,0,0:0:0:0:
192,192,12095,1,0,0:0:0:0:
320,192,12095,1,0,0:0:0:0:
448,192,12095,128,0,12398:0:0:0:0:
64,192,12398,128,0,12701:0:0:0:0:
192,192,12701,1,0,0:0:0:0:
448,192,12701,1,0,0:0:0:0:
320,192,12701,1,0,0:0:0:0:
64,192,12852,1,0,0:0:0:0:
320,192,13004,1,0,0:0:0:0:
192,192,13155,1,0,0:0:0:0:
64,192,13155,1,0,0:0:0:0:
192,192,13307,1,0,0:0:0:0:
320,192,13307,1,0,0:0:0:0:
448,192,13307,1,0,0:0:0:0:
64,192,13458,1,0,0:0:0:0:
320,192,13610,1,0,0:0:0:0:
448,192,13610,1,0,0:0:0:0:
448,192,13761,1,0,0:0:0:0:
320,192,13761,1,0,0:0:0:0:
192,192,13913,1,0,0:0:0:0:
448,192,14064,1,0,0:0:0:0:
64,192,14216,1,0,0:0:0:0:
192,192,14367,1,0,0:0:0:0:
320,192,14367,1,0,0:0:0:0:
448,192,14519,1,0,0:0:0:0:
320,192,14519,1,0,0:0:0:0:
64,192,14519,128,0,14822:0:0:0:0:
320,192,14822,128,0,15125:0:0:0:0:
64,192,15125,1,0,0:0:0:0:
448,192,15125,1,0,0:0:0:0:
192,192,15125,1,0,0:0:0:0:
320,192,15276,1,0,0:0:0:0:
64,192,15428,1,0,0:0:0:0:
192,192,15579,1,0,0:0:0:0:
320,192,15579,1,0,0:0:0:0:
64,192,15731,1,0,0:0:0:0:
320,192,15731,1,0,0:0:0:0:
448,192,15731,1,0,0:0:0:0:
192,192,15883,1,0,0:0:0:0:
320,192,16034,1,0,0:0:0:0:
64,192,16034,1,0,0:0:0:0:
64,192,16186,1,0,0:0:0:0:
320,192,16186,1,0,0:0:0:0:
192,192,16337,1,0,0:0:0:0:
320,192,16489,1,0,0:0:0:0:
448,192,16489,1,0,0:0:0:0:
64,192,16640,1,0,0:0:0:0:
448,192,16792,1,0,0:0:0:0:
64,192,16943,1,0,0:0:0:0:
192,192,16943,1,0,0:0:0:0:
320,192,16943,128,0,17246:0:0:0:0:
192,192,17246,128,0,17549:0:0:0:0:
320,192,17549,1,0,0:0:0:0:
64,192,17549,1,0,0:0:0:0:
448,192,17549,1,0,0:0:0:0:
192,192,17701,1,0,0:0:0:0:
64,192,17852,1,0,0:0:0:0:
320,192,18004,1,0,0:0:0:0:
448,192,18004,1,0,0:0:0:0:
320,192,18155,1,0,0:0:0:0:
192,192,18155,1,0,0:0:0:0:
64,192,18155,1,0,0:0:0:0:
448,192,18307,1,0,0:0:0:0:
192,192,18458,1,0,0:0:0:0:
64,192,18458,1,0,0:0:0:0:
192,192,18610,1,0,0:0:0:0:
64,192,18610,1,0,0:0:0:0:
320,192,18761,1,0,0:0:0:0:
192,192,18913,1,0,0:0:0:0:
64,192,18913,1,0,0:0:0:0:
448,192,18913,1,0,0:0:0:0:
320,192,19064,1,0,0:0:0:0:
64,192,19216,1,0,0:0:0:0:
192,192,19216,1,0,0:0:0:0:
192,192,19367,1,0,0:0:0:0:
320,192,19367,1,0,0:0:0:0:
448,192,19367,1,0,0:0:0:0:
192,192,19519,1,0,0:0:0:0:
320,192,19519,1,0,0:0:0:0:
448,192,19519,1,0,0:0:0:0:
192,192,19670,1,0,0:0:0:0:
64,192,19670,128,0,19973:0:0:0:0:
320,192,19973,128,0,20580:0:0:0:0:
448,192,19973,1,0,0:0:0:0:
448,192,20125,1,0,0:0:0:0:
192,192,20428,1,0,0:0:0:0:
64,192,20580,1,0,0:0:0:0:
448,192,20580,1,0,0:0:0:0:
192,192,20883,1,0,0:0:0:0:
320,192,20883,1,0,0:0:0:0:
320,192,21034,1,0,0:0:0:0:
192,192,21034,1,0,0:0:0:0:
64,192,21337,1,0,0:0:0:0:
192,192,21337,1,0,0:0:0:0:
64,192,21489,1,0,0:0:0:0:
320,192,21640,1,0,0:0:0:0:
192,192,21792,1,0,0:0:0:0:
64,192,21792,1,0,0:0:0:0:
448,192,21792,1,0,0:0:0:0:
192,192,22398,1,0,0:0:0:0:
320,192,22398,1,0,0:0:0:0:
448,192,22549,1,0,0:0:0:0:
64,192,22701,1,0,0:0:0:0:
192,192,22852,1,0,0:0:0:0:
320,192,22852,1,0,0:0:0:0:
64,192,23004,1,0,0:0:0:0:
320,192,23004,1,0,0:0:0:0:
448,192,23004,1,0,0:0:0:0:
192,192,23307,1,0,0:0:0:0:
320,192,23307,1,0,0:0:0:0:
320,192,23458,1,0,0:0:0:0:
192,192,23458,1,0,0:0:0:0:
64,192,23761,1,0,0:0:0:0:
448,192,23761,1,0,0:0:0:0:
448,192,23913,1,0,0:0:0:0:
192,192,24064,1,0,0:0:0:0:
64,192,24216,1,0,0:0:0:0:
320,192,24216,1,0,0:0:0:0:
448,192,24216,1,0,0:0:0:0:
192,192,24519,128,0,24822:0:0:0:0:
64,192,24822,1,0,0:0:0:0:
320,192,24822,1,0,0:0:0:0:
448,192,24822,1,0,0:0:0:0:
320,192,25125,1,0,0:0:0:0:
192,192,25276,1,0,0:0:0:0:
64,192,25276,1,0,0:0:0:0:
192,192,25428,1,0,0:0:0:0:
320,192,25428,1,0,0:0:0:0:
448,192,25428,1,0,0:0:0:0:
64,192,25731,1,0,0:0:0:0:
320,192,25731,1,0,0:0:0:0:
64,192,25883,1,0,0:0:0:0:
320,192,25883,1,0,0:0:0:0:
64,192,26186,1,0,0:0:0:0:
320,192,26186,1,0,0:0:0:0:
64,192,26337,1,0,0:0:0:0:
448,192,26489,1,0,0:0:0:0:
320,192,26640,1,0,0:0:0:0:
192,192,26640,1,0,0:0:0:0:
64,192,26640,1,0,0:0:0:0:
448,192,26943,1,0,0:0:0:0:
192,192,27095,1,0,0:0:0:0:
320,192,27170,1,0,0:0:0:0:
192,192,27246,1,0,0:0:0:0:
64,192,27246,1,0,0:0:0:0:
320,192,27322,1,0,0:0:0:0:
448,192,27398,1,0,0:0:0:0:
448,192,27549,1,0,0:0:0:0:
448,192,27701,1,0,0:0:0:0:
192,192,27701,1,0,0:0:0:0:
64,192,27852,1,0,0:0:0:0:
192,192,27852,1,0,0:0:0:0:
320,192,27852,1,0,0:0:0:0:
192,192,28155,1,0,0:0:0:0:
448,192,28155,1,0,0:0:0:0:
448,192,28307,1,0,0:0:0:0:
192,192,28307,1,0,0:0:0:0:
192,192,28610,1,0,0:0:0:0:
320,192,28610,1,0,0:0:0:0:
64,192,28761,1,0,0:0:0:0:
448,192,28913,1,0,0:0:0:0:
64,192,29064,1,0,0:0:0:0:
320,192,29064,128,0,29670:0:0:0:0:
192,192,29064,1,0,0:0:0:0:
448,192,29367,128,0,29670:0:0:0:0:
64,192,29670,1,0,0:0:0:0:
192,192,29670,1,0,0:0:0:0:
64,192,29822,1,0,0:0:0:0:
64,192,30125,1,0,0:0:0:0:
320,192,30125,1,0,0:0:0:0:
192,192,30276,1,0,0:0:0:0:
320,192,30276,1,0,0:0:0:0:
448,192,30276,1,0,0:0:0:0:
448,192,30580,1,0,0:0:0:0:
192,192,30580,1,0,0:0:0:0:
448,192,30731,1,0,0:0:0:0:
192,192,30731,1,0,0:0:0:0:
64,192,30883,1,0,0:0:0:0:
192,192,31034,1,0,0:0:0:0:
448,192,31034,1,0,0:0:0:0:
320,192,31186,1,0,0:0:0:0:
64,192,31337,1,0,0:0:0:0:
192,192,31489,1,0,0:0:0:0:
320,192,31489,1,0,0:0:0:0:
448,192,31489,1,0,0:0:0:0:
64,192,31792,1,0,0:0:0:0:
192,192,32095,1,0,0:0:0:0:
448,192,32095,1,0,0:0:0:0:
320,192,32246,1,0,0:0:0:0:
64,192,32398,1,0,0:0:0:0:
192,192,32549,1,0,0:0:0:0:
320,192,32549,1,0,0:0:0:0:
64,192,32701,1,0,0:0:0:0:
448,192,32701,1,0,0:0:0:0:
192,192,32701,1,0,0:0:0:0:
64,192,33004,1,0,0:0:0:0:
448,192,33004,1,0,0:0:0:0:
448,192,33155,1,0,0:0:0:0:
64,192,33155,1,0,0:0:0:0:
192,192,33458,1,0,0:0:0:0:
448,192,33610,1,0,0:0:0:0:
320,192,33761,1,0,0:0:0:0:
192,192,33761,1,0,0:0:0:0:
64,192,33913,1,0,0:0:0:0:
448,192,33913,1,0,0:0:0:0:
320,192,33913,1,0,0:0:0:0:
448,192,34216,1,0,0:0:0:0:
320,192,34367,1,0,0:0:0:0:
192,192,34443,1,0,0:0:0:0:
320,192,34519,1,0,0:0:0:0:
448,192,34519,1,0,0:0:0:0:
64,192,34670,1,0,0:0:0:0:
192,192,34822,1,0,0:0:0:0:
448,192,34822,1,0,0:0:0:0:
320,192,34973,1,0,0:0:0:0:
64,192,34973,1,0,0:0:0:0:
192,192,35125,1,0,0:0:0:0:
64,192,35125,1,0,0:0:0:0:
448,192,35125,1,0,0:0:0:0:
320,192,35428,1,0,0:0:0:0:
192,192,35428,1,0,0:0:0:0:
192,192,35579,1,0,0:0:0:0:
320,192,35579,1,0,0:0:0:0:
448,192,35731,1,0,0:0:0:0:
320,192,35883,1,0,0:0:0:0:
64,192,35883,1,0,0:0:0:0:
192,192,36034,1,0,0:0:0:0:
448,192,36186,1,0,0:0:0:0:
192,192,36337,1,0,0:0:0:0:
320,192,36337,1,0,0:0:0:0:
64,192,36337,1,0,0:0:0:0:
448,192,36640,1,0,0:0:0:0:
192,192,36792,1,0,0:0:0:0:
320,192,36867,1,0,0:0:0:0:
192,192,36943,1,0,0:0:0:0:
64,192,36943,1,0,0:0:0:0:
448,192,36943,1,0,0:0:0:0:
448,192,37095,1,0,0:0:0:0:
320,192,37246,1,0,0:0:0:0:
64,192,37398,1,0,0:0:0:0:
448,192,37398,1,0,0:0:0:0:
192,192,37549,1,0,0:0:0:0:
320,192,37549,1,0,0:0:0:0:
64,192,37549,1,0,0:0:0:0:
192,192,37852,1,0,0:0:0:0:
448,192,37852,1,0,0:0:0:0:
448,192,38004,1,0,0:0:0:0:
192,192,38004,1,0,0:0:0:0:
64,192,38307,1,0,0:0:0:0:
320,192,38307,1,0,0:0:0:0:
192,192,38307,1,0,0:0:0:0:
448,192,38458,1,0,0:0:0:0:
192,192,38458,1,0,0:0:0:0:
64,192,38610,1,0,0:0:0:0:
320,192,38610,1,0,0:0:0:0:
192,192,38761,1,0,0:0:0:0:
320,192,38761,1,0,0:0:0:0:
448,192,38761,128,0,39367:0:0:0:0:
64,192,39064,128,0,39367:0:0:0:0:
320,192,39367,1,0,0:0:0:0:
192,192,39367,128,0,39973:0:0:0:0:
64,192,39670,1,0,0:0:0:0:
320,192,39822,1,0,0:0:0:0:
64,192,39973,1,0,0:0:0:0:
320,192,39973,1,0,0:0:0:0:
448,192,39973,1,0,0:0:0:0:
192,192,40276,1,0,0:0:0:0:
320,192,40276,1,0,0:0:0:0:
64,192,40428,1,0,0:0:0:0:
192,192,40428,1,0,0:0:0:0:
320,192,40579,1,0,0:0:0:0:
192,192,40731,1,0,0:0:0:0:
64,192,40731,1,0,0:0:0:0:
320,192,41034,1,0,0:0:0:0:
192,192,41034,1,0,0:0:0:0:
320,192,41186,1,0,0:0:0:0:
64,192,41186,1,0,0:0:0:0:
448,192,41186,1,0,0:0:0:0:
192,192,41489,1,0,0:0:0:0:
448,192,41640,1,0,0:0:0:0:
320,192,41792,1,0,0:0:0:0:
192,192,41792,1,0,0:0:0:0:
64,192,41792,1,0,0:0:0:0:
64,192,41943,1,0,0:0:0:0:
64,192,42095,1,0,0:0:0:0:
320,192,42095,1,0,0:0:0:0:
192,192,42246,1,0,0:0:0:0:
448,192,42246,1,0,0:0:0:0:
320,192,42398,1,0,0:0:0:0:
192,192,42398,1,0,0:0:0:0:
64,192,42398,1,0,0:0:0:0:
320,192,42701,1,0,0:0:0:0:
64,192,42701,1,0,0:0:0:0:
64,192,42852,1,0,0:0:0:0:
320,192,42852,1,0,0:0:0:0:
192,192,43004,1,0,0:0:0:0:
320,192,43155,1,0,0:0:0:0:
448,192,43155,1,0,0:0:0:0:
448,192,43307,1,0,0:0:0:0:
192,192,43458,1,0,0:0:0:0:
448,192,43458,1,0,0:0:0:0:
320,192,43610,1,0,0:0:0:0:
192,192,43610,1,0,0:0:0:0:
64,192,43610,1,0,0:0:0:0:
64,192,43913,1,0,0:0:0:0:
320,192,43913,1,0,0:0:0:0:
192,192,44064,1,0,0:0:0:0:
448,192,44064,1,0,0:0:0:0:
320,192,44216,1,0,0:0:0:0:
192,192,44216,1,0,0:0:0:0:
64,192,44216,1,0,0:0:0:0:
320,192,44367,1,0,0:0:0:0:
320,192,44519,1,0,0:0:0:0:
192,192,44670,1,0,0:0:0:0:
64,192,44670,1,0,0:0:0:0:
192,192,44822,1,0,0:0:0:0:
320,192,44822,1,0,0:0:0:0:
448,192,44822,1,0,0:0:0:0:
64,192,45125,1,0,0:0:0:0:
192,192,45125,1,0,0:0:0:0:
192,192,45276,1,0,0:0:0:0:
320,192,45276,1,0,0:0:0:0:
64,192,45428,1,0,0:0:0:0:
192,192,45579,1,0,0:0:0:0:
320,192,45579,1,0,0:0:0:0:
192,192,45731,1,0,0:0:0:0:
192,192,45883,1,0,0:0:0:0:
448,192,45883,1,0,0:0:0:0:
320,192,46034,1,0,0:0:0:0:
64,192,46034,1,0,0:0:0:0:
448,192,46034,1,0,0:0:0:0:
192,192,46337,1,0,0:0:0:0:
448,192,46489,1,0,0:0:0:0:
320,192,46564,1,0,0:0:0:0:
192,192,46640,1,0,0:0:0:0:
64,192,46640,1,0,0:0:0:0:
448,192,46640,1,0,0:0:0:0:
64,192,46792,1,0,0:0:0:0:
64,192,46943,1,0,0:0:0:0:
192,192,47095,1,0,0:0:0:0:
320,192,47095,1,0,0:0:0:0:
320,192,47246,1,0,0:0:0:0:
64,192,47246,1,0,0:0:0:0:
448,192,47246,1,0,0:0:0:0:
320,192,47549,1,0,0:0:0:0:
448,192,47549,1,0,0:0:0:0:
448,192,47701,1,0,0:0:0:0:
320,192,47701,1,0,0:0:0:0:
64,192,47852,1,0,0:0:0:0:
448,192,48004,1,0,0:0:0:0:
192,192,48004,1,0,0:0:0:0:
64,192,48155,1,0,0:0:0:0:
320,192,48307,1,0,0:0:0:0:
448,192,48307,1,0,0:0:0:0:
320,192,48458,1,0,0:0:0:0:
192,192,48458,1,0,0:0:0:0:
64,192,48458,1,0,0:0:0:0:
192,192,48761,1,0,0:0:0:0:
320,192,48913,1,0,0:0:0:0:
192,192,49064,1,0,0:0:0:0:
64,192,49064,1,0,0:0:0:0:
448,192,49064,1,0,0:0:0:0:
320,192,49216,1,0,0:0:0:0:
448,192,49367,1,0,0:0:0:0:
192,192,49519,1,0,0:0:0:0:
320,192,49519,1,0,0:0:0:0:
64,192,49670,1,0,0:0:0:0:
320,192,49670,1,0,0:0:0:0:
448,192,49670,1,0,0:0:0:0:
448,192,49973,1,0,0:0:0:0:
192,192,49973,1,0,0:0:0:0:
320,192,50125,1,0,0:0:0:0:
64,192,50125,1,0,0:0:0:0:
64,192,50428,1,0,0:0:0:0:
320,192,50428,1,0,0:0:0:0:
64,192,50579,1,0,0:0:0:0:
64,192,50731,1,0,0:0:0:0:
192,192,50731,1,0,0:0:0:0:
192,192,50883,1,0,0:0:0:0:
320,192,50883,1,0,0:0:0:0:
448,192,50883,1,0,0:0:0:0:
64,192,51186,1,0,0:0:0:0:
320,192,51337,1,0,0:0:0:0:
448,192,51337,1,0,0:0:0:0:
192,192,51489,1,0,0:0:0:0:
64,192,51489,1,0,0:0:0:0:
320,192,51489,1,0,0:0:0:0:
192,192,51640,1,0,0:0:0:0:
192,192,51792,1,0,0:0:0:0:
64,192,51943,1,0,0:0:0:0:
320,192,51943,1,0,0:0:0:0:
192,192,52095,1,0,0:0:0:0:
320,192,52095,1,0,0:0:0:0:
448,192,52095,1,0,0:0:0:0:
64,192,52398,1,0,0:0:0:0:
448,192,52398,1,0,0:0:0:0:
192,192,52549,1,0,0:0:0:0:
320,192,52549,1,0,0:0:0:0:
64,192,52701,1,0,0:0:0:0:
64,192,53004,1,0,0:0:0:0:
192,192,53155,1,0,0:0:0:0:
448,192,53155,1,0,0:0:0:0:
192,192,53307,1,0,0:0:0:0:
320,192,53307,1,0,0:0:0:0:
64,192,53307,1,0,0:0:0:0:
448,192,53458,1,0,0:0:0:0:
192,192,53610,1,0,0:0:0:0:
320,192,53761,1,0,0:0:0:0:
192,192,53913,1,0,0:0:0:0:
64,192,53913,1,0,0:0:0:0:
320,192,53913,1,0,0:0:0:0:
448,192,54064,1,0,0:0:0:0:
64,192,54216,1,0,0:0:0:0:
192,192,54367,1,0,0:0:0:0:
320,192,54367,1,0,0:0:0:0:
64,192,54519,1,0,0:0:0:0:
192,192,54519,1,0,0:0:0:0:
448,192,54519,1,0,0:0:0:0:
448,192,54822,1,0,0:0:0:0:
64,192,54822,1,0,0:0:0:0:
320,192,54973,1,0,0:0:0:0:
192,192,54973,1,0,0:0:0:0:
448,192,55125,1,0,0:0:0:0:
320,192,55276,1,0,0:0:0:0:
192,192,55276,1,0,0:0:0:0:
448,192,55428,1,0,0:0:0:0:
64,192,55731,1,0,0:0:0:0:
192,192,55731,1,0,0:0:0:0:
320,192,55731,1,0,0:0:0:0:
448,192,55731,1,0,0:0:0:0:
64,192,56034,1,0,0:0:0:0:
320,192,56186,1,0,0:0:0:0:
192,192,56186,1,0,0:0:0:0:
192,192,56337,1,0,0:0:0:0:
64,192,56337,1,0,0:0:0:0:
448,192,56337,1,0,0:0:0:0:
320,192,56489,1,0,0:0:0:0:
64,192,56489,1,0,0:0:0:0:
448,192,56640,1,0,0:0:0:0:
64,192,56792,1,0,0:0:0:0:
320,192,56792,1,0,0:0:0:0:
192,192,56943,1,0,0:0:0:0:
320,192,56943,1,0,0:0:0:0:
448,192,56943,1,0,0:0:0:0:
64,192,57095,1,0,0:0:0:0:
448,192,57246,1,0,0:0:0:0:
192,192,57246,1,0,0:0:0:0:
320,192,57398,1,0,0:0:0:0:
64,192,57398,1,0,0:0:0:0:
192,192,58761,1,0,0:0:0:0:
448,192,58761,1,0,0:0:0:0:
64,192,58761,1,0,0:0:0:0:
320,192,58837,1,0,0:0:0:0:
192,192,58913,1,0,0:0:0:0:
64,192,58989,1,0,0:0:0:0:
320,192,59064,1,0,0:0:0:0:
192,192,59140,1,0,0:0:0:0:
64,192,59216,1,0,0:0:0:0:
448,192,59216,1,0,0:0:0:0:
320,192,59216,1,0,0:0:0:0:
192,192,59367,1,0,0:0:0:0:
64,192,59367,1,0,0:0:0:0:
448,192,59367,1,0,0:0:0:0:
320,192,59519,1,0,0:0:0:0:
192,192,59519,1,0,0:0:0:0:
64,192,59670,1,0,0:0:0:0:
320,192,59670,1,0,0:0:0:0:
448,192,59670,1,0,0:0:0:0:
192,192,59822,1,0,0:0:0:0:
448,192,59822,1,0,0:0:0:0:
320,192,59973,1,0,0:0:0:0:
192,192,60125,1,0,0:0:0:0:
64,192,60125,1,0,0:0:0:0:
448,192,60276,1,0,0:0:0:0:
192,192,60428,1,0,0:0:0:0:
192,192,60579,1,0,0:0:0:0:
64,192,60579,1,0,0:0:0:0:
448,192,60579,1,0,0:0:0:0:
320,192,60579,1,0,0:0:0:0:
448,192,60731,1,0,0:0:0:0:
64,192,60883,1,0,0:0:0:0:
320,192,60883,1,0,0:0:0:0:
192,192,61034,1,0,0:0:0:0:
320,192,61034,1,0,0:0:0:0:
320,192,61186,1,0,0:0:0:0:
64,192,61186,1,0,0:0:0:0:
448,192,61186,1,0,0:0:0:0:
192,192,61261,1,0,0:0:0:0:
320,192,61337,1,0,0:0:0:0:
448,192,61413,1,0,0:0:0:0:
192,192,61489,1,0,0:0:0:0:
320,192,61564,1,0,0:0:0:0:
448,192,61640,1,0,0:0:0:0:
64,192,61640,1,0,0:0:0:0:
192,192,61640,1,0,0:0:0:0:
320,192,61792,1,0,0:0:0:0:
64,192,61792,1,0,0:0:0:0:
448,192,61792,1,0,0:0:0:0:
192,192,61943,1,0,0:0:0:0:
64,192,62095,1,0,0:0:0:0:
320,192,62095,1,0,0:0:0:0:
448,192,62095,1,0,0:0:0:0:
192,192,62246,1,0,0:0:0:0:
64,192,62246,1,0,0:0:0:0:
448,192,62246,1,0,0:0:0:0:
320,192,62398,1,0,0:0:0:0:
192,192,62549,1,0,0:0:0:0:
448,192,62549,1,0,0:0:0:0:
320,192,62701,1,0,0:0:0:0:
192,192,62852,1,0,0:0:0:0:
448,192,62852,1,0,0:0:0:0:
64,192,63004,1,0,0:0:0:0:
192,192,63004,1,0,0:0:0:0:
320,192,63004,1,0,0:0:0:0:
448,192,63004,1,0,0:0:0:0:
64,192,63155,1,0,0:0:0:0:
192,192,63307,1,0,0:0:0:0:
448,192,63307,1,0,0:0:0:0:
320,192,63458,1,0,0:0:0:0:
192,192,63610,1,0,0:0:0:0:
64,192,63610,1,0,0:0:0:0:
448,192,63610,1,0,0:0:0:0:
320,192,63686,1,0,0:0:0:0:
192,192,63761,1,0,0:0:0:0:
64,192,63837,1,0,0:0:0:0:
320,192,63913,1,0,0:0:0:0:
192,192,63989,1,0,0:0:0:0:
64,192,64064,1,0,0:0:0:0:
320,192,64064,1,0,0:0:0:0:
448,192,64064,1,0,0:0:0:0:
192,192,64216,1,0,0:0:0:0:
64,192,64216,1,0,0:0:0:0:
448,192,64216,1,0,0:0:0:0:
320,192,64216,1,0,0:0:0:0:
192,192,64367,1,0,0:0:0:0:
320,192,64519,1,0,0:0:0:0:
64,192,64519,1,0,0:0:0:0:
448,192,64519,1,0,0:0:0:0:
192,192,64670,1,0,0:0:0:0:
64,192,64670,1,0,0:0:0:0:
448,192,64670,1,0,0:0:0:0:
320,192,64822,1,0,0:0:0:0:
192,192,64973,1,0,0:0:0:0:
448,192,64973,1,0,0:0:0:0:
320,192,65125,1,0,0:0:0:0:
192,192,65276,1,0,0:0:0:0:
448,192,65276,1,0,0:0:0:0:
64,192,65428,1,0,0:0:0:0:
192,192,65428,1,0,0:0:0:0:
448,192,65428,1,0,0:0:0:0:
320,192,65428,1,0,0:0:0:0:
320,192,65579,1,0,0:0:0:0:
64,192,65579,1,0,0:0:0:0:
448,192,65731,1,0,0:0:0:0:
192,192,65883,1,0,0:0:0:0:
320,192,65883,1,0,0:0:0:0:
64,192,65883,1,0,0:0:0:0:
192,192,66034,1,0,0:0:0:0:
448,192,66034,1,0,0:0:0:0:
320,192,66034,1,0,0:0:0:0:
64,192,66110,1,0,0:0:0:0:
192,192,66186,1,0,0:0:0:0:
320,192,66261,1,0,0:0:0:0:
448,192,66337,1,0,0:0:0:0:
64,192,66413,1,0,0:0:0:0:
320,192,66489,1,0,0:0:0:0:
192,192,66489,1,0,0:0:0:0:
448,192,66489,1,0,0:0:0:0:
320,192,66640,1,0,0:0:0:0:
192,192,66640,1,0,0:0:0:0:
64,192,66640,1,0,0:0:0:0:
448,192,66716,1,0,0:0:0:0:
320,192,66792,1,0,0:0:0:0:
192,192,66867,1,0,0:0:0:0:
64,192,66943,1,0,0:0:0:0:
448,192,66943,1,0,0:0:0:0:
320,192,66943,1,0,0:0:0:0:
64,192,67095,1,0,0:0:0:0:
192,192,67095,1,0,0:0:0:0:
448,192,67095,1,0,0:0:0:0:
320,192,67246,1,0,0:0:0:0:
192,192,67246,1,0,0:0:0:0:
64,192,67398,1,0,0:0:0:0:
448,192,67398,1,0,0:0:0:0:
320,192,67398,1,0,0:0:0:0:
192,192,67549,1,0,0:0:0:0:
64,192,67701,1,0,0:0:0:0:
320,192,67701,1,0,0:0:0:0:
320,192,67852,1,0,0:0:0:0:
192,192,67852,1,0,0:0:0:0:
64,192,67852,1,0,0:0:0:0:
448,192,67852,1,0,0:0:0:0:
448,192,68004,1,0,0:0:0:0:
192,192,68004,1,0,0:0:0:0:
448,192,68155,1,0,0:0:0:0:
320,192,68155,1,0,0:0:0:0:
192,192,68155,1,0,0:0:0:0:
320,192,68307,1,0,0:0:0:0:
192,192,68307,1,0,0:0:0:0:
64,192,68307,1,0,0:0:0:0:
192,192,68458,1,0,0:0:0:0:
64,192,68458,1,0,0:0:0:0:
448,192,68458,1,0,0:0:0:0:
320,192,68534,1,0,0:0:0:0:
192,192,68610,1,0,0:0:0:0:
64,192,68686,1,0,0:0:0:0:
320,192,68761,1,0,0:0:0:0:
192,192,68837,1,0,0:0:0:0:
64,192,68913,1,0,0:0:0:0:
320,192,68913,1,0,0:0:0:0:
448,192,68913,1,0,0:0:0:0:
320,192,69064,1,0,0:0:0:0:
192,192,69064,1,0,0:0:0:0:
64,192,69064,1,0,0:0:0:0:
448,192,69064,1,0,0:0:0:0:
192,192,69216,1,0,0:0:0:0:
64,192,69216,1,0,0:0:0:0:
320,192,69367,1,0,0:0:0:0:
448,192,69367,1,0,0:0:0:0:
64,192,69519,1,0,0:0:0:0:
320,192,69519,1,0,0:0:0:0:
192,192,69519,1,0,0:0:0:0:
448,192,69670,1,0,0:0:0:0:
64,192,69822,1,0,0:0:0:0:
192,192,69822,1,0,0:0:0:0:
320,192,69822,1,0,0:0:0:0:
192,192,69973,1,0,0:0:0:0:
448,192,69973,1,0,0:0:0:0:
320,192,70125,1,0,0:0:0:0:
192,192,70276,1,0,0:0:0:0:
64,192,70276,1,0,0:0:0:0:
320,192,70276,1,0,0:0:0:0:
448,192,70276,1,0,0:0:0:0:
64,192,70428,1,0,0:0:0:0:
192,192,70579,1,0,0:0:0:0:
448,192,70579,1,0,0:0:0:0:
320,192,70731,1,0,0:0:0:0:
320,192,70883,1,0,0:0:0:0:
64,192,70883,1,0,0:0:0:0:
448,192,70883,1,0,0:0:0:0:
192,192,70958,1,0,0:0:0:0:
320,192,71034,1,0,0:0:0:0:
448,192,71110,1,0,0:0:0:0:
192,192,71186,1,0,0:0:0:0:
320,192,71261,1,0,0:0:0:0:
448,192,71337,1,0,0:0:0:0:
192,192,71337,1,0,0:0:0:0:
64,192,71337,1,0,0:0:0:0:
320,192,71489,1,0,0:0:0:0:
64,192,71489,1,0,0:0:0:0:
448,192,71489,1,0,0:0:0:0:
192,192,71489,1,0,0:0:0:0:
320,192,71640,1,0,0:0:0:0:
192,192,71792,1,0,0:0:0:0:
64,192,71792,1,0,0:0:0:0:
448,192,71792,1,0,0:0:0:0:
320,192,71943,1,0,0:0:0:0:
64,192,71943,1,0,0:0:0:0:
192,192,72095,1,0,0:0:0:0:
64,192,72246,1,0,0:0:0:0:
320,192,72246,1,0,0:0:0:0:
448,192,72246,1,0,0:0:0:0:
192,192,72398,1,0,0:0:0:0:
320,192,72549,1,0,0:0:0:0:
448,192,72549,1,0,0:0:0:0:
64,192,72701,1,0,0:0:0:0:
192,192,72701,1,0,0:0:0:0:
320,192,72701,1,0,0:0:0:0:
448,192,72852,1,0,0:0:0:0:
320,192,73004,1,0,0:0:0:0:
64,192,73004,1,0,0:0:0:0:
192,192,73155,1,0,0:0:0:0:
64,192,73307,1,0,0:0:0:0:
192,192,73307,1,0,0:0:0:0:
448,192,73307,1,0,0:0:0:0:
320,192,73383,1,0,0:0:0:0:
192,192,73458,1,0,0:0:0:0:
64,192,73534,1,0,0:0:0:0:
320,192,73610,1,0,0:0:0:0:
192,192,73686,1,0,0:0:0:0:
64,192,73761,1,0,0:0:0:0:
320,192,73761,1,0,0:0:0:0:
448,192,73761,1,0,0:0:0:0:
192,192,73913,1,0,0:0:0:0:
64,192,73913,1,0,0:0:0:0:
320,192,73913,1,0,0:0:0:0:
448,192,73913,1,0,0:0:0:0:
192,192,74064,1,0,0:0:0:0:
320,192,74216,1,0,0:0:0:0:
64,192,74216,1,0,0:0:0:0:
448,192,74216,1,0,0:0:0:0:
320,192,74367,1,0,0:0:0:0:
192,192,74367,1,0,0:0:0:0:
448,192,74519,1,0,0:0:0:0:
320,192,74670,1,0,0:0:0:0:
64,192,74670,1,0,0:0:0:0:
192,192,74822,1,0,0:0:0:0:
448,192,74822,1,0,0:0:0:0:
64,192,74973,1,0,0:0:0:0:
192,192,75125,1,0,0:0:0:0:
64,192,75125,1,0,0:0:0:0:
320,192,75125,1,0,0:0:0:0:
448,192,75125,1,0,0:0:0:0:
448,192,75276,1,0,0:0:0:0:
192,192,75352,1,0,0:0:0:0:
320,192,75428,1,0,0:0:0:0:
64,192,75504,1,0,0:0:0:0:
320,192,75579,1,0,0:0:0:0:
192,192,75655,1,0,0:0:0:0:
320,192,75731,1,0,0:0:0:0:
64,192,75731,1,0,0:0:0:0:
448,192,75731,1,0,0:0:0:0:
192,192,75807,1,0,0:0:0:0:
320,192,75883,1,0,0:0:0:0:
448,192,75958,1,0,0:0:0:0:
192,192,76034,1,0,0:0:0:0:
320,192,76110,1,0,0:0:0:0:
448,192,76186,1,0,0:0:0:0:
192,192,76186,1,0,0:0:0:0:
64,192,76186,1,0,0:0:0:0:
448,192,76337,1,0,0:0:0:0:
64,192,76337,1,0,0:0:0:0:
320,192,76337,1,0,0:0:0:0:
192,192,76413,1,0,0:0:0:0:
320,192,76489,1,0,0:0:0:0:
448,192,76564,1,0,0:0:0:0:
64,192,76640,1,0,0:0:0:0:
320,192,76640,1,0,0:0:0:0:
192,192,76716,1,0,0:0:0:0:
64,192,76792,1,0,0:0:0:0:
448,192,76792,1,0,0:0:0:0:
320,192,76792,1,0,0:0:0:0:
192,192,76867,1,0,0:0:0:0:
448,192,76867,1,0,0:0:0:0:
192,192,76943,1,0,0:0:0:0:
448,192,76943,1,0,0:0:0:0:
320,192,76943,1,0,0:0:0:0:
64,192,76943,1,0,0:0:0:0:
64,192,77095,1,0,0:0:0:0:
192,192,77095,1,0,0:0:0:0:
320,192,77095,1,0,0:0:0:0:
448,192,77246,1,0,0:0:0:0:
320,192,77246,1,0,0:0:0:0:
192,192,77246,1,0,0:0:0:0:
64,192,77246,1,0,0:0:0:0:
64,192,77398,1,0,0:0:0:0:
192,192,77398,1,0,0:0:0:0:
320,192,77398,1,0,0:0:0:0:
448,192,77398,1,0,0:0:0:0:
448,192,77549,1,0,0:0:0:0:
320,192,77549,1,0,0:0:0:0:
192,192,77549,1,0,0:0:0:0:
64,192,77549,1,0,0:0:0:0:
64,192,77701,1,0,0:0:0:0:
192,192,77701,1,0,0:0:0:0:
320,192,77701,1,0,0:0:0:0:
448,192,77701,1,0,0:0:0:0:
448,192,77852,1,0,0:0:0:0:
320,192,77852,1,0,0:0:0:0:
192,192,77852,1,0,0:0:0:0:
64,192,77852,1,0,0:0:0:0:
448,192,78004,1,0,0:0:0:0:
320,192,78004,1,0,0:0:0:0:
192,192,78004,1,0,0:0:0:0:
64,192,78004,1,0,0:0:0:0:
64,192,78155,1,0,0:0:0:0:
320,192,78155,1,0,0:0:0:0:
448,192,78155,1,0,0:0:0:0:
192,192,78307,1,0,0:0:0:0:
448,192,78458,1,0,0:0:0:0:
320,192,78610,1,0,0:0:0:0:
192,192,78610,1,0,0:0:0:0:
64,192,78610,1,0,0:0:0:0:
192,192,78761,1,0,0:0:0:0:
448,192,78761,1,0,0:0:0:0:
320,192,78761,1,0,0:0:0:0:
64,192,78913,1,0,0:0:0:0:
192,192,79064,1,0,0:0:0:0:
448,192,79064,1,0,0:0:0:0:
320,192,79064,1,0,0:0:0:0:
192,192,79216,1,0,0:0:0:0:
320,192,79216,1,0,0:0:0:0:
448,192,79216,1,0,0:0:0:0:
64,192,79367,1,0,0:0:0:0:
320,192,79519,1,0,0:0:0:0:
448,192,79519,1,0,0:0:0:0:
192,192,79519,1,0,0:0:0:0:
192,192,79670,1,0,0:0:0:0:
64,192,79670,1,0,0:0:0:0:
320,192,79822,1,0,0:0:0:0:
448,192,79973,1,0,0:0:0:0:
192,192,79973,1,0,0:0:0:0:
64,192,79973,1,0,0:0:0:0:
320,192,79973,1,0,0:0:0:0:
64,192,80125,1,0,0:0:0:0:
320,192,80201,1,0,0:0:0:0:
192,192,80276,1,0,0:0:0:0:
448,192,80352,1,0,0:0:0:0:
192,192,80428,1,0,0:0:0:0:
320,192,80504,1,0,0:0:0:0:
192,192,80579,1,0,0:0:0:0:
64,192,80579,1,0,0:0:0:0:
448,192,80579,1,0,0:0:0:0:
320,192,80731,1,0,0:0:0:0:
64,192,80731,1,0,0:0:0:0:
192,192,80883,1,0,0:0:0:0:
448,192,80883,1,0,0:0:0:0:
320,192,81034,1,0,0:0:0:0:
64,192,81034,1,0,0:0:0:0:
448,192,81034,1,0,0:0:0:0:
192,192,81186,1,0,0:0:0:0:
448,192,81186,1,0,0:0:0:0:
64,192,81186,1,0,0:0:0:0:
320,192,81337,1,0,0:0:0:0:
192,192,81489,1,0,0:0:0:0:
64,192,81489,1,0,0:0:0:0:
448,192,81489,1,0,0:0:0:0:
192,192,81640,1,0,0:0:0:0:
64,192,81640,1,0,0:0:0:0:
448,192,81640,1,0,0:0:0:0:
320,192,81792,1,0,0:0:0:0:
192,192,81867,1,0,0:0:0:0:
320,192,81943,1,0,0:0:0:0:
448,192,81943,1,0,0:0:0:0:
64,192,82019,1,0,0:0:0:0:
192,192,82095,1,0,0:0:0:0:
320,192,82095,1,0,0:0:0:0:
448,192,82170,1,0,0:0:0:0:
64,192,82246,1,0,0:0:0:0:
192,192,82246,1,0,0:0:0:0:
320,192,82322,1,0,0:0:0:0:
192,192,82398,1,0,0:0:0:0:
448,192,82398,1,0,0:0:0:0:
64,192,82473,1,0,0:0:0:0:
320,192,82549,1,0,0:0:0:0:
448,192,82549,1,0,0:0:0:0:
192,192,82625,1,0,0:0:0:0:
64,192,82701,1,0,0:0:0:0:
192,192,82776,1,0,0:0:0:0:
320,192,82852,1,0,0:0:0:0:
448,192,82928,1,0,0:0:0:0:
320,192,83004,1,0,0:0:0:0:
192,192,83004,1,0,0:0:0:0:
64,192,83004,1,0,0:0:0:0:
64,192,83155,1,0,0:0:0:0:
320,192,83155,1,0,0:0:0:0:
448,192,83307,1,0,0:0:0:0:
320,192,83458,1,0,0:0:0:0:
192,192,83458,1,0,0:0:0:0:
64,192,83458,1,0,0:0:0:0:
192,192,83610,1,0,0:0:0:0:
320,192,83610,1,0,0:0:0:0:
448,192,83610,1,0,0:0:0:0:
64,192,83761,1,0,0:0:0:0:
320,192,83913,1,0,0:0:0:0:
192,192,83913,1,0,0:0:0:0:
448,192,83913,1,0,0:0:0:0:
320,192,84064,1,0,0:0:0:0:
192,192,84064,1,0,0:0:0:0:
64,192,84064,1,0,0:0:0:0:
448,192,84216,1,0,0:0:0:0:
320,192,84367,1,0,0:0:0:0:
192,192,84367,1,0,0:0:0:0:
64,192,84367,1,0,0:0:0:0:
448,192,84519,1,0,0:0:0:0:
320,192,84670,1,0,0:0:0:0:
192,192,84822,1,0,0:0:0:0:
64,192,84822,1,0,0:0:0:0:
320,192,84822,1,0,0:0:0:0:
448,192,84822,1,0,0:0:0:0:
64,192,84973,1,0,0:0:0:0:
320,192,85125,1,0,0:0:0:0:
192,192,85276,1,0,0:0:0:0:
64,192,85428,1,0,0:0:0:0:
320,192,85428,1,0,0:0:0:0:
448,192,85428,1,0,0:0:0:0:
192,192,85579,1,0,0:0:0:0:
64,192,85731,1,0,0:0:0:0:
448,192,85883,1,0,0:0:0:0:
192,192,85883,1,0,0:0:0:0:
320,192,85883,1,0,0:0:0:0:
320,192,86034,1,0,0:0:0:0:
64,192,86034,1,0,0:0:0:0:
192,192,86034,1,0,0:0:0:0:
448,192,86186,1,0,0:0:0:0:
64,192,86337,1,0,0:0:0:0:
192,192,86337,1,0,0:0:0:0:
320,192,86337,1,0,0:0:0:0:
192,192,86489,1,0,0:0:0:0:
320,192,86489,1,0,0:0:0:0:
448,192,86489,1,0,0:0:0:0:
64,192,86640,1,0,0:0:0:0:
192,192,86792,1,0,0:0:0:0:
320,192,86792,1,0,0:0:0:0:
448,192,86792,1,0,0:0:0:0:
448,192,86943,1,0,0:0:0:0:
320,192,87095,1,0,0:0:0:0:
192,192,87095,1,0,0:0:0:0:
64,192,87095,1,0,0:0:0:0:
64,192,87246,1,0,0:0:0:0:
192,192,87246,1,0,0:0:0:0:
320,192,87246,1,0,0:0:0:0:
448,192,87246,1,0,0:0:0:0:
64,192,87398,1,0,0:0:0:0:
192,192,87398,1,0,0:0:0:0:
320,192,87398,1,0,0:0:0:0:
448,192,87398,1,0,0:0:0:0:
448,192,87549,1,0,0:0:0:0:
320,192,87549,1,0,0:0:0:0:
192,192,87549,1,0,0:0:0:0:
64,192,87549,1,0,0:0:0:0:
320,192,87701,1,0,0:0:0:0:
192,192,87701,1,0,0:0:0:0:
192,192,87852,1,0,0:0:0:0:
64,192,87852,1,0,0:0:0:0:
448,192,87852,1,0,0:0:0:0:
320,192,88004,1,0,0:0:0:0:
192,192,88155,1,0,0:0:0:0:
64,192,88307,1,0,0:0:0:0:
320,192,88307,1,0,0:0:0:0:
192,192,88458,1,0,0:0:0:0:
320,192,88458,1,0,0:0:0:0:
448,192,88458,1,0,0:0:0:0:
64,192,88458,1,0,0:0:0:0:
448,192,88610,1,0,0:0:0:0:
192,192,88610,1,0,0:0:0:0:
320,192,88761,1,0,0:0:0:0:
64,192,88761,1,0,0:0:0:0:
192,192,88761,1,0,0:0:0:0:
448,192,88913,1,0,0:0:0:0:
64,192,89064,1,0,0:0:0:0:
192,192,89216,1,0,0:0:0:0:
320,192,89216,1,0,0:0:0:0:
64,192,89367,1,0,0:0:0:0:
320,192,89519,1,0,0:0:0:0:
448,192,89519,1,0,0:0:0:0:
192,192,89670,1,0,0:0:0:0:
64,192,89670,1,0,0:0:0:0:
320,192,89670,1,0,0:0:0:0:
448,192,89670,1,0,0:0:0:0:
448,192,89822,1,0,0:0:0:0:
192,192,89898,1,0,0:0:0:0:
320,192,89973,1,0,0:0:0:0:
64,192,90049,1,0,0:0:0:0:
320,192,90125,1,0,0:0:0:0:
192,192,90201,1,0,0:0:0:0:
64,192,90276,1,0,0:0:0:0:
448,192,90276,1,0,0:0:0:0:
320,192,90276,1,0,0:0:0:0:
192,192,90428,1,0,0:0:0:0:
320,192,90579,1,0,0:0:0:0:
448,192,90731,1,0,0:0:0:0:
192,192,90731,1,0,0:0:0:0:
320,192,90731,1,0,0:0:0:0:
192,192,90883,1,0,0:0:0:0:
64,192,90883,1,0,0:0:0:0:
320,192,90883,1,0,0:0:0:0:
448,192,91034,1,0,0:0:0:0:
320,192,91034,1,0,0:0:0:0:
192,192,91186,1,0,0:0:0:0:
448,192,91186,1,0,0:0:0:0:
64,192,91186,1,0,0:0:0:0:
64,192,91337,1,0,0:0:0:0:
448,192,91489,1,0,0:0:0:0:
192,192,91640,1,0,0:0:0:0:
64,192,91640,1,0,0:0:0:0:
320,192,91640,1,0,0:0:0:0:
448,192,91792,1,0,0:0:0:0:
320,192,91943,1,0,0:0:0:0:
192,192,91943,1,0,0:0:0:0:
64,192,92095,1,0,0:0:0:0:
192,192,92095,1,0,0:0:0:0:
320,192,92095,1,0,0:0:0:0:
448,192,92095,1,0,0:0:0:0:
64,192,92246,1,0,0:0:0:0:
320,192,92322,1,0,0:0:0:0:
192,192,92398,1,0,0:0:0:0:
448,192,92473,1,0,0:0:0:0:
64,192,92549,1,0,0:0:0:0:
320,192,92625,1,0,0:0:0:0:
64,192,92701,1,0,0:0:0:0:
448,192,92701,1,0,0:0:0:0:
192,192,92701,1,0,0:0:0:0:
320,192,92852,1,0,0:0:0:0:
64,192,93004,1,0,0:0:0:0:
192,192,93155,1,0,0:0:0:0:
320,192,93155,1,0,0:0:0:0:
64,192,93307,1,0,0:0:0:0:
448,192,93307,1,0,0:0:0:0:
192,192,93307,1,0,0:0:0:0:
320,192,93307,1,0,0:0:0:0:
448,192,93458,1,0,0:0:0:0:
64,192,93610,1,0,0:0:0:0:
192,192,93610,1,0,0:0:0:0:
320,192,93610,1,0,0:0:0:0:
64,192,93761,1,0,0:0:0:0:
192,192,93761,1,0,0:0:0:0:
448,192,93761,1,0,0:0:0:0:
320,192,93913,1,0,0:0:0:0:
64,192,94064,1,0,0:0:0:0:
192,192,94064,1,0,0:0:0:0:
448,192,94064,1,0,0:0:0:0:
320,192,94216,1,0,0:0:0:0:
64,192,94216,1,0,0:0:0:0:
320,192,94367,1,0,0:0:0:0:
192,192,94367,1,0,0:0:0:0:
192,192,94519,1,0,0:0:0:0:
64,192,94519,1,0,0:0:0:0:
448,192,94519,1,0,0:0:0:0:
320,192,94670,1,0,0:0:0:0:
192,192,94670,1,0,0:0:0:0:
192,192,94822,1,0,0:0:0:0:
64,192,94822,1,0,0:0:0:0:
448,192,94822,1,0,0:0:0:0:
320,192,94973,1,0,0:0:0:0:
192,192,94973,1,0,0:0:0:0:
64,192,95125,1,0,0:0:0:0:
192,192,95125,1,0,0:0:0:0:
448,192,95125,1,0,0:0:0:0:
320,192,95201,1,0,0:0:0:0:
192,192,95276,1,0,0:0:0:0:
64,192,95352,1,0,0:0:0:0:
448,192,95352,1,0,0:0:0:0:
64,192,95428,1,0,0:0:0:0:
320,192,95428,1,0,0:0:0:0:
192,192,95504,1,0,0:0:0:0:
320,192,95579,1,0,0:0:0:0:
448,192,95579,1,0,0:0:0:0:
64,192,95655,1,0,0:0:0:0:
192,192,95731,1,0,0:0:0:0:
448,192,95731,1,0,0:0:0:0:
320,192,95731,1,0,0:0:0:0:
320,192,95883,1,0,0:0:0:0:
192,192,95883,1,0,0:0:0:0:
64,192,95883,1,0,0:0:0:0:
192,192,96034,1,0,0:0:0:0:
320,192,96034,1,0,0:0:0:0:
448,192,96034,1,0,0:0:0:0:
64,192,96034,1,0,0:0:0:0:
192,192,96186,1,0,0:0:0:0:
320,192,96186,1,0,0:0:0:0:
64,192,96186,1,0,0:0:0:0:
192,192,96337,1,0,0:0:0:0:
448,192,96337,1,0,0:0:0:0:
320,192,96337,1,0,0:0:0:0:
192,192,96489,1,0,0:0:0:0:
64,192,96489,1,0,0:0:0:0:
320,192,96489,1,0,0:0:0:0:
448,192,96489,1,0,0:0:0:0:
192,192,96640,1,0,0:0:0:0:
448,192,96640,1,0,0:0:0:0:
320,192,96640,1,0,0:0:0:0:
192,192,96792,1,0,0:0:0:0:
64,192,96792,1,0,0:0:0:0:
320,192,96792,1,0,0:0:0:0:
192,192,96943,1,0,0:0:0:0:
320,192,96943,1,0,0:0:0:0:
448,192,96943,1,0,0:0:0:0:
64,192,96943,1,0,0:0:0:0:
320,192,97095,1,0,0:0:0:0:
192,192,97095,1,0,0:0:0:0:
448,192,97095,1,0,0:0:0:0:
64,192,97246,1,0,0:0:0:0:
192,192,97246,1,0,0:0:0:0:
320,192,97246,1,0,0:0:0:0:
448,192,97246,1,0,0:0:0:0:
448,192,97398,1,0,0:0:0:0:
320,192,97398,1,0,0:0:0:0:
192,192,97398,1,0,0:0:0:0:
64,192,97398,1,0,0:0:0:0:
